  0
SECTION
  2
HEADER
  9
$ACADVER
  1
AC1021
  9
$ACADMAINTVER
 70
     1
  9
$DWGCODEPAGE
  3
ANSI_1252
  9
$LASTSAVEDBY
  1
cad4
  9
$CUSTOMPROPERTYTAG
  1
AmdtFileType
  9
$CUSTOMPROPERTY
  1
84
  9
$INSBASE
 10
0.0
 20
0.0
 30
0.0
  9
$EXTMIN
 10
-148.2938975289755
 20
-83.35843123108238
 30
0.0
  9
$EXTMAX
 10
168.076627548171
 20
375.4595270127944
 30
0.0
  9
$LIMMIN
 10
-212.9026374019195
 20
-331.057920982953
  9
$LIMMAX
 10
152.8573625980805
 20
234.942079017047
  9
$ORTHOMODE
 70
     1
  9
$REGENMODE
 70
     1
  9
$FILLMODE
 70
     1
  9
$QTEXTMODE
 70
     0
  9
$MIRRTEXT
 70
     1
  9
$LTSCALE
 40
2.0
  9
$ATTMODE
 70
     1
  9
$TEXTSIZE
 40
23.58119994238515
  9
$TRACEWID
 40
1.0
  9
$TEXTSTYLE
  7
STANDARD
  9
$CLAYER
  8
0
  9
$CELTYPE
  6
BYLAYER
  9
$CECOLOR
 62
   256
  9
$CELTSCALE
 40
1.0
  9
$DISPSILH
 70
     1
  9
$DIMSCALE
 40
2.0
  9
$DIMASZ
 40
3.0
  9
$DIMEXO
 40
0.0
  9
$DIMDLI
 40
10.0
  9
$DIMRND
 40
0.0
  9
$DIMDLE
 40
0.0
  9
$DIMEXE
 40
1.0
  9
$DIMTP
 40
0.1
  9
$DIMTM
 40
0.1
  9
$DIMTXT
 40
3.5
  9
$DIMCEN
 40
0.0
  9
$DIMTSZ
 40
0.0
  9
$DIMTOL
 70
     0
  9
$DIMLIM
 70
     0
  9
$DIMTIH
 70
     0
  9
$DIMTOH
 70
     0
  9
$DIMSE1
 70
     0
  9
$DIMSE2
 70
     0
  9
$DIMTAD
 70
     1
  9
$DIMZIN
 70
     8
  9
$DIMBLK
  1

  9
$DIMASO
 70
     1
  9
$DIMSHO
 70
     1
  9
$DIMPOST
  1
<>
  9
$DIMAPOST
  1
"
  9
$DIMALT
 70
     0
  9
$DIMALTD
 70
     2
  9
$DIMALTF
 40
0.0393701
  9
$DIMLFAC
 40
1.0
  9
$DIMTOFL
 70
     1
  9
$DIMTVP
 40
0.0
  9
$DIMTIX
 70
     0
  9
$DIMSOXD
 70
     0
  9
$DIMSAH
 70
     0
  9
$DIMBLK1
  1

  9
$DIMBLK2
  1

  9
$DIMSTYLE
  2
GEN-ISO
  9
$DIMCLRD
 70
   256
  9
$DIMCLRE
 70
   256
  9
$DIMCLRT
 70
     2
  9
$DIMTFAC
 40
0.71
  9
$DIMGAP
 40
1.0
  9
$DIMJUST
 70
     0
  9
$DIMSD1
 70
     0
  9
$DIMSD2
 70
     0
  9
$DIMTOLJ
 70
     0
  9
$DIMTZIN
 70
     0
  9
$DIMALTZ
 70
     0
  9
$DIMALTTZ
 70
     0
  9
$DIMUPT
 70
     0
  9
$DIMDEC
 70
     2
  9
$DIMTDEC
 70
     3
  9
$DIMALTU
 70
     2
  9
$DIMALTTD
 70
     4
  9
$DIMTXSTY
  7
STANDARD
  9
$DIMAUNIT
 70
     0
  9
$DIMADEC
 70
     0
  9
$DIMALTRND
 40
0.0
  9
$DIMAZIN
 70
     0
  9
$DIMDSEP
 70
    46
  9
$DIMATFIT
 70
     3
  9
$DIMFRAC
 70
     0
  9
$DIMLDRBLK
  1

  9
$DIMLUNIT
 70
     2
  9
$DIMLWD
 70
    -2
  9
$DIMLWE
 70
    -2
  9
$DIMTMOVE
 70
     0
  9
$DIMFXL
 40
1.0
  9
$DIMFXLON
 70
     0
  9
$DIMJOGANG
 40
0.7853981633974483
  9
$DIMTFILL
 70
     0
  9
$DIMTFILLCLR
 70
     0
  9
$DIMARCSYM
 70
     0
  9
$DIMLTYPE
  6

  9
$DIMLTEX1
  6

  9
$DIMLTEX2
  6

  9
$LUNITS
 70
     2
  9
$LUPREC
 70
     4
  9
$SKETCHINC
 40
1.0
  9
$FILLETRAD
 40
0.0
  9
$AUNITS
 70
     0
  9
$AUPREC
 70
     0
  9
$MENU
  1
.
  9
$ELEVATION
 40
0.0
  9
$PELEVATION
 40
0.0
  9
$THICKNESS
 40
0.0
  9
$LIMCHECK
 70
     0
  9
$CHAMFERA
 40
20.0
  9
$CHAMFERB
 40
20.0
  9
$CHAMFERC
 40
0.0
  9
$CHAMFERD
 40
0.0
  9
$SKPOLY
 70
     1
  9
$TDCREATE
 40
2451267.377020243
  9
$TDUCREATE
 40
2451267.335353576
  9
$TDUPDATE
 40
2453938.431680047
  9
$TDUUPDATE
 40
2453938.390013380
  9
$TDINDWG
 40
0.3266015394
  9
$TDUSRTIMER
 40
0.3266015394
  9
$USRTIMER
 70
     1
  9
$ANGBASE
 50
0.0
  9
$ANGDIR
 70
     0
  9
$PDMODE
 70
     1
  9
$PDSIZE
 40
0.0
  9
$PLINEWID
 40
0.0
  9
$SPLFRAME
 70
     0
  9
$SPLINETYPE
 70
     6
  9
$SPLINESEGS
 70
     8
  9
$HANDSEED
  5
1EFA
  9
$SURFTAB1
 70
     6
  9
$SURFTAB2
 70
     6
  9
$SURFTYPE
 70
     6
  9
$SURFU
 70
     6
  9
$SURFV
 70
     6
  9
$UCSBASE
  2

  9
$UCSNAME
  2

  9
$UCSORG
 10
0.0
 20
0.0
 30
0.0
  9
$UCSXDIR
 10
1.0
 20
0.0
 30
0.0
  9
$UCSYDIR
 10
0.0
 20
1.0
 30
0.0
  9
$UCSORTHOREF
  2

  9
$UCSORTHOVIEW
 70
     0
  9
$UCSORGTOP
 10
0.0
 20
0.0
 30
0.0
  9
$UCSORGBOTTOM
 10
0.0
 20
0.0
 30
0.0
  9
$UCSORGLEFT
 10
0.0
 20
0.0
 30
0.0
  9
$UCSORGRIGHT
 10
0.0
 20
0.0
 30
0.0
  9
$UCSORGFRONT
 10
0.0
 20
0.0
 30
0.0
  9
$UCSORGBACK
 10
0.0
 20
0.0
 30
0.0
  9
$PUCSBASE
  2

  9
$PUCSNAME
  2

  9
$PUCSORG
 10
0.0
 20
0.0
 30
0.0
  9
$PUCSXDIR
 10
1.0
 20
0.0
 30
0.0
  9
$PUCSYDIR
 10
0.0
 20
1.0
 30
0.0
  9
$PUCSORTHOREF
  2

  9
$PUCSORTHOVIEW
 70
     0
  9
$PUCSORGTOP
 10
0.0
 20
0.0
 30
0.0
  9
$PUCSORGBOTTOM
 10
0.0
 20
0.0
 30
0.0
  9
$PUCSORGLEFT
 10
0.0
 20
0.0
 30
0.0
  9
$PUCSORGRIGHT
 10
0.0
 20
0.0
 30
0.0
  9
$PUCSORGFRONT
 10
0.0
 20
0.0
 30
0.0
  9
$PUCSORGBACK
 10
0.0
 20
0.0
 30
0.0
  9
$USERI1
 70
     0
  9
$USERI2
 70
     0
  9
$USERI3
 70
     0
  9
$USERI4
 70
     0
  9
$USERI5
 70
     0
  9
$USERR1
 40
0.0
  9
$USERR2
 40
0.0
  9
$USERR3
 40
0.0
  9
$USERR4
 40
0.0
  9
$USERR5
 40
0.0
  9
$WORLDVIEW
 70
     1
  9
$SHADEDGE
 70
     3
  9
$SHADEDIF
 70
    70
  9
$TILEMODE
 70
     1
  9
$MAXACTVP
 70
    48
  9
$PINSBASE
 10
0.0
 20
0.0
 30
0.0
  9
$PLIMCHECK
 70
     0
  9
$PEXTMIN
 10
1.000000000000000E+20
 20
1.000000000000000E+20
 30
1.000000000000000E+20
  9
$PEXTMAX
 10
-1.000000000000000E+20
 20
-1.000000000000000E+20
 30
-1.000000000000000E+20
  9
$PLIMMIN
 10
-7.14373779296875
 20
-7.143749713897705
  9
$PLIMMAX
 10
289.8669128417969
 20
202.9142489433289
  9
$UNITMODE
 70
     0
  9
$VISRETAIN
 70
     1
  9
$PLINEGEN
 70
     0
  9
$PSLTSCALE
 70
     1
  9
$TREEDEPTH
 70
  3020
  9
$CMLSTYLE
  2
STANDARD
  9
$CMLJUST
 70
     0
  9
$CMLSCALE
 40
1.0
  9
$PROXYGRAPHICS
 70
     1
  9
$MEASUREMENT
 70
     1
  9
$CELWEIGHT
370
    -1
  9
$ENDCAPS
280
     0
  9
$JOINSTYLE
280
     0
  9
$LWDISPLAY
290
     0
  9
$INSUNITS
 70
     0
  9
$HYPERLINKBASE
  1

  9
$STYLESHEET
  1
LAA4.ctb
  9
$XEDIT
290
     1
  9
$CEPSNTYPE
380
     0
  9
$PSTYLEMODE
290
     1
  9
$FINGERPRINTGUID
  2
{EA53DAC8-11C6-11D4-AC6B-00105A3265E1}
  9
$VERSIONGUID
  2
{169BC16E-4636-4A85-91BA-DB4B43B43711}
  9
$EXTNAMES
290
     1
  9
$PSVPSCALE
 40
0.0
  9
$OLESTARTUP
290
     0
  9
$SORTENTS
280
   127
  9
$INDEXCTL
280
     1
  9
$HIDETEXT
280
     0
  9
$XCLIPFRAME
290
     0
  9
$HALOGAP
280
     0
  9
$OBSCOLOR
 70
   257
  9
$OBSLTYPE
280
     0
  9
$INTERSECTIONDISPLAY
280
     0
  9
$INTERSECTIONCOLOR
 70
   257
  9
$DIMASSOC
280
     1
  9
$PROJECTNAME
  1

  9
$CAMERADISPLAY
290
     0
  9
$LENSLENGTH
 40
50.0
  9
$CAMERAHEIGHT
 40
0.0
  9
$STEPSPERSEC
 40
2.0
  9
$STEPSIZE
 40
6.0
  9
$3DDWFPREC
 40
2.0
  9
$PSOLWIDTH
 40
0.25
  9
$PSOLHEIGHT
 40
4.0
  9
$LOFTANG1
 40
1.570796326794896
  9
$LOFTANG2
 40
1.570796326794896
  9
$LOFTMAG1
 40
0.0
  9
$LOFTMAG2
 40
0.0
  9
$LOFTPARAM
 70
     7
  9
$LOFTNORMALS
280
     1
  9
$LATITUDE
 40
37.795
  9
$LONGITUDE
 40
-122.394
  9
$NORTHDIRECTION
 40
0.0
  9
$TIMEZONE
 70
 -8000
  9
$LIGHTGLYPHDISPLAY
280
     1
  9
$TILEMODELIGHTSYNCH
280
     1
  9
$CMATERIAL
347
1E94
  9
$SOLIDHIST
280
     1
  9
$SHOWHIST
280
     1
  9
$DWFFRAME
280
     2
  9
$DGNFRAME
280
     0
  9
$REALWORLDSCALE
290
     1
  9
$INTERFERECOLOR
 62
     1
  9
$INTERFEREOBJVS
345
1EA1
  9
$INTERFEREVPVS
346
1E9E
  9
$CSHADOW
280
     0
  9
$SHADOWPLANELOCATION
 40
0.0
  0
ENDSEC
  0
SECTION
  2
CLASSES
  0
CLASS
  1
ACME_DOCUMENT
  2
AcMeDoc
  3
AcMeServices
 90
        0
 91
        0
280
     0
281
     0
  0
CLASS
  1
ACMESTATEMGR
  2
AcMeStateMgr
  3
AcMeServices
 90
        0
 91
        1
280
     0
281
     0
  0
CLASS
  1
ACMESCOPE
  2
AcMeScope
  3
AcMeServices
 90
        0
 91
        1
280
     0
281
     0
  0
CLASS
  1
ACMECOMMANDHISTORY
  2
AcMeCommandHistory
  3
AcMeServices
 90
        0
 91
        1
280
     0
281
     0
  0
CLASS
  1
ACRFINSADJUSTERMGR
  2
AcRfInsAdjusterMgr
  3
AcMeServices
 90
        0
 91
        1
280
     0
281
     0
  0
CLASS
  1
DICTIONARYVAR
  2
AcDbDictionaryVar
  3
ObjectDBX Classes
 90
        0
 91
        2
280
     0
281
     0
  0
CLASS
  1
ACIMSYSVARMAN
  2
AcImSysVarManager
  3
AcMeServices
 90
        0
 91
        6
280
     0
281
     0
  0
CLASS
  1
ACIMREALSYSVAR
  2
AcImRealSysVar
  3
AcMeServices
 90
        0
 91
       16
280
     0
281
     0
  0
CLASS
  1
ACIMINTSYSVAR
  2
AcImIntSysVar
  3
AcMeServices
 90
        0
 91
       48
280
     0
281
     0
  0
CLASS
  1
ACMEDRAWINGMAN
  2
AcMeDrawingMan
  3
AcMeServices
 90
        0
 91
        1
280
     0
281
     0
  0
CLASS
  1
ACMEVIEW
  2
AcMeView
  3
AcMeServices
 90
        0
 91
        1
280
     0
281
     0
  0
CLASS
  1
ACDBENTITYCACHE
  2
AcMeEntityCache
  3
AcMeServices
 90
        0
 91
        1
280
     0
281
     0
  0
CLASS
  1
ACGREFMASTER
  2
AcGrefMaster
  3
AcAttribServices
 90
        0
 91
        1
280
     0
281
     0
  0
CLASS
  1
AMIMASTER
  2
AmiMaster
  3
AmiServices
 90
        0
 91
        1
280
     0
281
     0
  0
CLASS
  1
ACASGREFMASTER
  2
AcAsGrefMaster
  3
AutoSurfResolverServices
 90
        0
 91
        1
280
     0
281
     0
  0
CLASS
  1
ADAPPL
  2
AcAdAppl
  3
DesignerServices
 90
        0
 91
        1
280
     0
281
     0
  0
CLASS
  1
DEPMGR
  2
AcAdDepMgr
  3
DesignerServices
 90
        0
 91
        1
280
     0
281
     0
  0
CLASS
  1
PARAMMGR
  2
AcAdParamMgr
  3
DesignerServices
 90
        0
 91
        1
280
     0
281
     0
  0
CLASS
  1
PARAMSCOPE
  2
AcAdParamScope
  3
DesignerServices
 90
        0
 91
        1
280
     0
281
     0
  0
CLASS
  1
ACIMSTRSYSVAR
  2
AcImStrSysVar
  3
AcMeServices
 90
        0
 91
       14
280
     0
281
     0
  0
CLASS
  1
NAMEDAPPL
  2
AcAdNamedAppl
  3
DesignerServices
 90
        0
 91
        1
280
     0
281
     0
  0
CLASS
  1
ADHNTMPLT
  2
AdHoleNoteTemplateMgr
  3
DesignerServices
 90
        0
 91
        0
280
     0
281
     0
  0
CLASS
  1
AM_HNTEMPLATE_MGR_NAME
  2
AdHoleNoteTemplateMgrName
  3
DesignerServices
 90
        0
 91
        0
280
     0
281
     0
  0
CLASS
  1
ACADGREFMODULE
  2
AcAdGrefModule
  3
AdGrefServices
 90
        0
 91
        1
280
     0
281
     0
  0
CLASS
  1
AM_DRAWING_MGR
  2
AcDmDwgMgr
  3
AcMechDwgViewMgmt
 90
        0
 91
        1
280
     0
281
     0
  0
CLASS
  1
AM_DWG_DOCUMENT
  2
AcDmDwgDocument
  3
AcMechDwgViewMgmt
 90
        0
 91
        1
280
     0
281
     0
  0
CLASS
  1
AM_DWG_SHEET
  2
AcDmSheet
  3
AcMechDwgViewMgmt
 90
        0
 91
        1
280
     0
281
     0
  0
CLASS
  1
AM_VIEWDIMPARMAP
  2
AcDmViewDimParMap
  3
AcMechDwgViewMgmt
 90
        0
 91
        1
280
     0
281
     0
  0
CLASS
  1
AM_DWGMGR_NAME
  2
AcDmDwgMgrName
  3
AcMechDwgViewMgmt
 90
        0
 91
        1
280
     0
281
     0
  0
CLASS
  1
ACAMPROJECT
  2
AcAmProject
  3
DesignerAssemblies
 90
        0
 91
        1
280
     0
281
     0
  0
CLASS
  1
ACAMGRCOMPSET
  2
AcAmGrCompSet
  3
DesignerAssemblies
 90
        0
 91
        0
280
     0
281
     0
  0
CLASS
  1
ACAMGRCOMPDEFSET
  2
AcAmGrCompDefSet
  3
DesignerAssemblies
 90
        0
 91
        1
280
     0
281
     0
  0
CLASS
  1
ACAMGRCOMPDEF
  2
AcAmGrCompDef
  3
DesignerAssemblies
 90
        0
 91
        2
280
     0
281
     0
  0
CLASS
  1
ACCMCONTEXT
  2
AcCmContext
  3
DesignerAssemblies
 90
        0
 91
        3
280
     0
281
     0
  0
CLASS
  1
ACAMCOMPDEF
  2
AcAmCompDef
  3
DesignerAssemblies
 90
        0
 91
        2
280
     0
281
     0
  0
CLASS
  1
ACAMCOMPDEFMGR
  2
AcAmCompDefMgr
  3
DesignerAssemblies
 90
        0
 91
        1
280
     0
281
     0
  0
CLASS
  1
AMCONTEXTMGR
  2
AcAmContextMgr
  3
DesignerAssemblies
 90
        0
 91
        1
280
     0
281
     0
  0
CLASS
  1
ACAMCONTEXTMODELER
  2
AcAmContextModeler
  3
DesignerAssemblies
 90
        0
 91
        1
280
     0
281
     0
  0
CLASS
  1
ACMDATADICTIONARY
  2
AcmDataDictionary
  3
"AcmSymBB|Product Description: AutoCAD Mechanical|Company: Autodesk"
 90
        0
 91
        1
280
     0
281
     0
  0
CLASS
  1
ACMDATAENTRYBLOCK
  2
AcmDataEntryBlock
  3
"AcmSymBB|Product Description: AutoCAD Mechanical|Company: Autodesk"
 90
        0
 91
        2
280
     0
281
     0
  0
CLASS
  1
ACDMVIEWGEOM
  2
AcDmViewGeometry
  3
AcMechDwgViewMgmt
 90
        0
 91
        1
280
     0
281
     1
  0
CLASS
  1
CBROWSERAPPOBJECT
  2
CBrowserAppObject
  3
McadcomServices
 90
        0
 91
        3
280
     0
281
     0
  0
CLASS
  1
IM_STATIC_MAN
  2
AcImStaticVarManager
  3
AcMeServices
 90
        0
 91
        1
280
     0
281
     0
  0
CLASS
  1
ASAPP
  2
AcAsAppObject
  3
AutoSurfServices
 90
        0
 91
        1
280
     0
281
     0
  0
CLASS
  1
ACIMDBLSTATICVAR
  2
AcImDblStaticVar
  3
AcMeServices
 90
        0
 91
       21
280
     0
281
     0
  0
CLASS
  1
ACIMSTRSTATICVAR
  2
AcImStrStaticVar
  3
AcMeServices
 90
        0
 91
       12
280
     0
281
     0
  0
CLASS
  1
ACIMINTSTATICVAR
  2
AcImIntStaticVar
  3
AcMeServices
 90
        0
 91
       17
280
     0
281
     0
  0
CLASS
  1
CATALOGSTATE
  2
AcAmCatalogState
  3
DesignerAssemblies
 90
        0
 91
        1
280
     0
281
     0
  0
CLASS
  1
DM_PLACEHOLDER
  2
AcDmSelsetPlaceholder
  3
AcMechDwgViewMgmt
 90
        0
 91
        1
280
     0
281
     0
  0
CLASS
  1
ACMSTANDARDANSI
  2
AcmStandardANSI
  3
"Amdt_StdImp|Product Description: AutoCAD Mechanical|Company: Autodesk"
 90
        0
 91
        1
280
     0
281
     0
  0
CLASS
  1
ACMSURFSTANDARDANSI
  2
AcmSurfTextStdANSI
  3
"Amdt_StdImp|Product Description: AutoCAD Mechanical|Company: Autodesk"
 90
        0
 91
        1
280
     0
281
     0
  0
CLASS
  1
ACMFCFSTANDARDANSI
  2
AcmFCFStdANSI
  3
"Amdt_StdImp|Product Description: AutoCAD Mechanical|Company: Autodesk"
 90
        0
 91
        1
280
     0
281
     0
  0
CLASS
  1
ACMWELDSTANDARDANSI
  2
AcmWeldingStdANSI
  3
"Amdt_StdImp|Product Description: AutoCAD Mechanical|Company: Autodesk"
 90
        0
 91
        1
280
     0
281
     0
  0
CLASS
  1
ACMIDSTANDARDANSI
  2
AcmIdStdANSI
  3
"Amdt_StdImp|Product Description: AutoCAD Mechanical|Company: Autodesk"
 90
        0
 91
        1
280
     0
281
     0
  0
CLASS
  1
ACMDATUMSTANDARDANSI
  2
AcmDatumStdANSI
  3
"Amdt_StdImp|Product Description: AutoCAD Mechanical|Company: Autodesk"
 90
        0
 91
        1
280
     0
281
     0
  0
CLASS
  1
ACMBOMSTANDARDANSI
  2
AcmBOMStdANSI
  3
"Amdt_StdImp|Product Description: AutoCAD Mechanical|Company: Autodesk"
 90
        0
 91
        1
280
     0
281
     0
  0
CLASS
  1
"COMPDEFATTRARRAY"
  2
CompDefAttr
  3
"GE314"
 90
        1
 91
        0
280
     0
281
     0
  0
CLASS
  1
ACRFATTGENMGR
  2
AcRfAttGeneralMgr
  3
AcAttribServices
 90
        0
 91
        1
280
     0
281
     0
  0
CLASS
  1
AGDICTIONARY
  2
AgDictionary
  3
AccelView
 90
        1
 91
        0
280
     0
281
     0
  0
CLASS
  1
LAYER_INDEX
  2
AcDbLayerIndex
  3
ObjectDBX Classes
 90
        0
 91
        1
280
     0
281
     0
  0
CLASS
  1
IDBUFFER
  2
AcDbIdBuffer
  3
ObjectDBX Classes
 90
        0
 91
       34
280
     0
281
     0
  0
CLASS
  1
ACDBDICTIONARYWDFLT
  2
AcDbDictionaryWithDefault
  3
ObjectDBX Classes
 90
        0
 91
        1
280
     0
281
     0
  0
CLASS
  1
ACME_DOCUMENT
  2
AcMeDbDoc
  3
AcMeServices
 90
        0
 91
        2
280
     0
281
     0
  0
CLASS
  1
AMGSETTINGSOBJ
  2
AmgSettingsObj
  3
"AcadM|Product Description: AutoCAD Mechanical|Company: Autodesk"
 90
        0
 91
        2
280
     0
281
     0
  0
CLASS
  1
GSMANAGER
  2
AcMeGSManager
  3
AcMeServices
 90
        0
 91
        1
280
     0
281
     0
  0
CLASS
  1
AMDTINTERNALREACTOR
  2
AmdtInternalReactor
  3
AcMeServices
 90
        0
 91
        2
280
     0
281
     0
  0
CLASS
  1
ACME_DATABASE
  2
AcMeDbDatabase
  3
AcMeServices
 90
        0
 91
        1
280
     0
281
     0
  0
CLASS
  1
ACGREFACADMASTER
  2
AcGrefacadMaster
  3
AcGrefServices
 90
        0
 91
        1
280
     0
281
     0
  0
CLASS
  1
AMDTMENUSTATEMGR
  2
AmdtMenuStateMgr
  3
McadcomServices
 90
        0
 91
        1
280
     0
281
     0
  0
CLASS
  1
AMDTMCOMMENUSTATE
  2
AmdtMcomMenuState
  3
McadcomServices
 90
        0
 91
        1
280
     0
281
     0
  0
CLASS
  1
MAPIAMMOUDLE
  2
MApiAmModule
  3
MApiAmServices
 90
        0
 91
        1
280
     0
281
     0
  0
CLASS
  1
AMDTDMMENUSTATE
  2
AmdtDmMenuState
  3
AcMechDwgViewMgmt
 90
        0
 91
        1
280
     0
281
     0
  0
CLASS
  1
AMDTADMENUSTATE
  2
AmdtAdMenuState
  3
DesignerServices
 90
        0
 91
        1
280
     0
281
     0
  0
CLASS
  1
AMDTAMMENUSTATE
  2
AmdtAmMenuState
  3
DesignerAssemblies
 90
        0
 91
        1
280
     0
281
     0
  0
CLASS
  1
MAPIADMODULE
  2
MApiAdModule
  3
MApiAdServices
 90
        0
 91
        1
280
     0
281
     0
  0
CLASS
  1
AMDTBROWSERDBTAB
  2
AmdtBrowserDbTab
  3
McadcomServices
 90
        0
 91
        1
280
     0
281
     0
  0
CLASS
  1
AMGOBJPROPCFG
  2
AmgObjPropCfg
  3
"AmgLay|Product Description: AutoCAD Mechanical|Company: Autodesk"
 90
        1
 91
        1
280
     0
281
     0
  0
CLASS
  1
ACAMGFILTERDAT
  2
AcAmgFilterDat
  3
"AcadM|Product Description: AutoCAD Mechanical|Company: Autodesk"
 90
        0
 91
        5
280
     0
281
     0
  0
CLASS
  1
ACCMBODY
  2
AcCmBody
  3
DesignerAssemblies
 90
        0
 91
        1
280
     0
281
     0
  0
CLASS
  1
ACAMCOMPENT
  2
AcAmCompEnt
  3
DesignerAssemblies
 90
        0
 91
        1
280
     0
281
     1
  0
CLASS
  1
ACAMCOMPFEEDBACK
  2
AcAmCompFeedback
  3
DesignerAssemblies
 90
        0
 91
        1
280
     0
281
     0
  0
CLASS
  1
ACAMCOMP
  2
AcAmComp
  3
DesignerAssemblies
 90
        0
 91
        1
280
     0
281
     0
  0
CLASS
  1
ACAMCOMPENTCLONE
  2
AcAmCompEntClone
  3
DesignerAssemblies
 90
        0
 91
        1
280
     0
281
     1
  0
CLASS
  1
ACAMCLONEREACTOR
  2
AcAmGrCompCloneReactor
  3
DesignerAssemblies
 90
        0
 91
        1
280
     0
281
     0
  0
CLASS
  1
ACDBLINERES
  2
AcDbLineRes
  3
AcGrefServices
 90
        0
 91
        0
280
     0
281
     0
  0
CLASS
  1
AMDTNOTE
  2
AmdtNote
  3
"AcmSymBB|Product Description: AutoCAD Mechanical|Company: Autodesk"
 90
     3071
 91
        0
280
     0
281
     1
  0
CLASS
  1
AMDTMAPISURFMOUDULE
  2
AmdtMApiSurfModule
  3
MApiSurfServices
 90
        0
 91
        1
280
     0
281
     0
  0
CLASS
  1
ACAMGTITLESTD
  2
AcAmgTitleStd
  3
"AmgTitle|Product Description: AutoCAD Mechanical|Company: Autodesk"
 90
        0
 91
        1
280
     0
281
     0
  0
CLASS
  1
ACMDETAILSTANDARDANSI
  2
AmdtDetailSymStdANSI
  3
"Amdt_StdImp|Product Description: AutoCAD Mechanical|Company: Autodesk"
 90
        0
 91
        1
280
     0
281
     0
  0
CLASS
  1
ACMSECTIONSTANDARDANSI
  2
AmdtSectionSymStdANSI
  3
"Amdt_StdImp|Product Description: AutoCAD Mechanical|Company: Autodesk"
 90
        0
 91
        1
280
     0
281
     0
  0
CLASS
  1
ACMCENTERLINESTANDARDANSI
  2
AmdtCenterLineStdANSI
  3
"Amdt_StdImp|Product Description: AutoCAD Mechanical|Company: Autodesk"
 90
        0
 91
        1
280
     0
281
     0
  0
CLASS
  1
ACMTHREADLINESTANDARDCSN
  2
AmdtThreadLineStdCSN
  3
"Amdt_StdImp|Product Description: AutoCAD Mechanical|Company: Autodesk"
 90
        0
 91
        1
280
     0
281
     0
  0
CLASS
  1
ACAMGLAYSTD
  2
AcAmgLayStd
  3
"AmgLay|Product Description: AutoCAD Mechanical|Company: Autodesk"
 90
        0
 91
        1
280
     0
281
     0
  0
CLASS
  1
ACAMGDIMSTD
  2
AcAmgDimStd
  3
"AmgDim|Product Description: AutoCAD Mechanical|Company: Autodesk"
 90
        0
 91
        1
280
     0
281
     0
  0
CLASS
  1
AMDTFORMULAUPDATEDISPATCHER
  2
AmdtFormulaUpdateDispatcher
  3
AcMeServices
 90
        0
 91
        1
280
     0
281
     0
  0
CLASS
  1
ACMNOTESTANDARDANSI
  2
AmdtNoteStdANSI
  3
"Amdt_StdImp|Product Description: AutoCAD Mechanical|Company: Autodesk"
 90
        0
 91
        1
280
     0
281
     0
  0
CLASS
  1
AMDTNOTETEMPLATEDB
  2
AmdtNoteTemplateDB
  3
AMDT_STDIMP_MODULE_NAME
 90
        0
 91
        4
280
     0
281
     0
  0
CLASS
  1
MATERIAL
  2
AcDbMaterial
  3
ObjectDBX Classes
 90
     1024
 91
        3
280
     0
281
     0
  0
CLASS
  1
VISUALSTYLE
  2
AcDbVisualStyle
  3
ObjectDBX Classes
 90
     4095
 91
       16
280
     0
281
     0
  0
CLASS
  1
TABLESTYLE
  2
AcDbTableStyle
  3
ObjectDBX Classes
 90
     4095
 91
        1
280
     0
281
     0
  0
CLASS
  1
ACRFOBJATTMGR
  2
AcRfObjAttGroupMgr
  3
AcAttribServices
 90
        0
 91
        2
280
     0
281
     0
  0
CLASS
  1
ACRFMCADAPIATTHOLDER
  2
AcRfMCADAPIAttHolder
  3
AcAttribServices
 90
        0
 91
        1
280
     0
281
     0
  0
CLASS
  1
AMDTSYSATTR
  2
AmdtSystemAttribute
  3
AcAttribServices
 90
        0
 91
        2
280
     0
281
     0
  0
CLASS
  1
ACMTAPERSTANDARDANSI
  2
AcmTaperStdANSI
  3
"Amdt_StdImp|Product Description: AutoCAD Mechanical|Company: Autodesk"
 90
        0
 91
        1
280
     0
281
     0
  0
ENDSEC
  0
SECTION
  2
TABLES
  0
TABLE
  2
VPORT
  5
8
330
0
100
AcDbSymbolTable
 70
     1
  0
VPORT
  5
1E92
330
8
100
AcDbSymbolTableRecord
100
AcDbViewportTableRecord
  2
*Active
 70
     0
 10
0.0
 20
0.0
 11
1.0
 21
1.0
 12
87.59797443112814
 22
146.0626414109587
 13
0.0
 23
0.0
 14
2.0
 24
2.0
 15
0.0
 25
0.0
 16
0.0
 26
0.0
 36
1.0
 17
0.0
 27
0.0
 37
0.0
 40
504.7718593238126
 41
1.622039134912461
 42
50.0
 43
0.0
 44
0.0
 50
0.0
 51
0.0
 71
     0
 72
   100
 73
     1
 74
     1
 75
     0
 76
     0
 77
     0
 78
     0
281
     0
 65
     1
110
0.0
120
0.0
130
0.0
111
1.0
121
0.0
131
0.0
112
0.0
122
1.0
132
0.0
 79
     0
146
0.0
348
1E9D
 60
     3
 61
     5
292
     1
282
     1
141
0.0
142
0.0
 63
   250
421
  3355443
  0
ENDTAB
  0
TABLE
  2
LTYPE
  5
5
330
0
100
AcDbSymbolTable
 70
    24
  0
LTYPE
  5
12
330
5
100
AcDbSymbolTableRecord
100
AcDbLinetypeTableRecord
  2
BYBLOCK
 70
     0
  3

 72
    65
 73
     0
 40
0.0
  0
LTYPE
  5
13
330
5
100
AcDbSymbolTableRecord
100
AcDbLinetypeTableRecord
  2
BYLAYER
 70
     0
  3

 72
    65
 73
     0
 40
0.0
  0
LTYPE
  5
14
330
5
100
AcDbSymbolTableRecord
100
AcDbLinetypeTableRecord
  2
CONTINUOUS
 70
     0
  3
Solid line
 72
    65
 73
     0
 40
0.0
  0
LTYPE
  5
20
330
5
100
AcDbSymbolTableRecord
100
AcDbLinetypeTableRecord
  2
BYBLOCK
 70
     0
  3

 72
    65
 73
     0
 40
0.0
  0
LTYPE
  5
21
330
5
100
AcDbSymbolTableRecord
100
AcDbLinetypeTableRecord
  2
BYLAYER
 70
     0
  3

 72
    65
 73
     0
 40
0.0
  0
LTYPE
  5
22
330
5
100
AcDbSymbolTableRecord
100
AcDbLinetypeTableRecord
  2
GEN7
 70
     0
  3
____ . ____ . ____ . ____ . ___
 72
    65
 73
     4
 40
13.75
 49
9.75
 74
     0
 49
-1.5
 74
     0
 49
1.0
 74
     0
 49
-1.5
 74
     0
  0
LTYPE
  5
23
330
5
100
AcDbSymbolTableRecord
100
AcDbLinetypeTableRecord
  2
GEN3
 70
     0
  3
-- -- -- -- -- -- -- -- -- -- -
 72
    65
 73
     2
 40
6.25
 49
4.75
 74
     0
 49
-1.5
 74
     0
  0
LTYPE
  5
24
330
5
100
AcDbSymbolTableRecord
100
AcDbLinetypeTableRecord
  2
GEN3A
 70
     0
  3
 - - - - -
 72
    65
 73
     2
 40
3.125
 49
2.25
 74
     0
 49
-0.875
 74
     0
  0
LTYPE
  5
25
330
5
100
AcDbSymbolTableRecord
100
AcDbLinetypeTableRecord
  2
GEN4A
 70
     0
  3
_____ . . _____ . . _____ . . _
 72
    65
 73
     6
 40
16.25
 49
9.75
 74
     0
 49
-1.5
 74
     0
 49
1.0
 74
     0
 49
-1.5
 74
     0
 49
1.0
 74
     0
 49
-1.5
 74
     0
  0
LTYPE
  5
26
330
5
100
AcDbSymbolTableRecord
100
AcDbLinetypeTableRecord
  2
GEN7A
 70
     0
  3
__ . __ . __
 72
    65
 73
     4
 40
6.875
 49
4.75
 74
     0
 49
-0.875
 74
     0
 49
0.375
 74
     0
 49
-0.875
 74
     0
  0
LTYPE
  5
27
330
5
100
AcDbSymbolTableRecord
100
AcDbLinetypeTableRecord
  2
CONTINU
 70
     0
  3

 72
    65
 73
     0
 40
0.0
  0
LTYPE
  5
28
330
5
100
AcDbSymbolTableRecord
100
AcDbLinetypeTableRecord
  2
CACHE
 70
     0
  3

 72
    65
 73
     2
 40
0.24
 49
0.12
 74
     0
 49
-0.12
 74
     0
  0
LTYPE
  5
29
330
5
100
AcDbSymbolTableRecord
100
AcDbLinetypeTableRecord
  2
AXES
 70
     0
  3

 72
    65
 73
     4
 40
0.5400000000000001
 49
0.3
 74
     0
 49
-0.08
 74
     0
 49
0.08
 74
     0
 49
-0.08
 74
     0
  0
LTYPE
  5
3A8
330
5
100
AcDbSymbolTableRecord
100
AcDbLinetypeTableRecord
  2
VERDECKT
 70
     0
  3
Verdeckt __ __ __ __ __ __ __ __ __ __ __ __ __
 72
    65
 73
     2
 40
9.524999999999998
 49
6.349999999999999
 74
     0
 49
-3.174999999999999
 74
     0
  0
LTYPE
  5
3AA
330
5
100
AcDbSymbolTableRecord
100
AcDbLinetypeTableRecord
  2
PHANTOM2
 70
     0
  3
Phantom (.5x) ___ _ _ ___ _ _ ___ _ _ ___ _ _
 72
    65
 73
     6
 40
31.75
 49
15.875
 74
     0
 49
-3.174999999999999
 74
     0
 49
3.174999999999999
 74
     0
 49
-3.174999999999999
 74
     0
 49
3.174999999999999
 74
     0
 49
-3.174999999999999
 74
     0
  0
LTYPE
  5
3B5
330
5
100
AcDbSymbolTableRecord
100
AcDbLinetypeTableRecord
  2
MITTE
 70
     0
  3
Mitte ____ _ ____ _ ____ _ ____ _ ____ _ ____
 72
    65
 73
     4
 40
50.8
 49
31.75
 74
     0
 49
-6.349999999999999
 74
     0
 49
6.349999999999999
 74
     0
 49
-6.349999999999999
 74
     0
  0
LTYPE
  5
411
330
5
100
AcDbSymbolTableRecord
100
AcDbLinetypeTableRecord
  2
ASULTYPE
 70
     0
  3
Ausgezogene Linie
 72
    65
 73
     2
 40
3.0
 49
2.5
 74
     0
 49
0.5
 74
     0
  0
LTYPE
  5
412
330
5
100
AcDbSymbolTableRecord
100
AcDbLinetypeTableRecord
  2
ASVLTYPE
 70
     0
  3
__ __ __ __ __ __ __ __ __ __ __ __ __ __ __ __ __ __ __ __ __
 72
    65
 73
     2
 40
0.75
 49
0.5
 74
     0
 49
-0.25
 74
     0
  0
LTYPE
  5
426
330
5
100
AcDbSymbolTableRecord
100
AcDbLinetypeTableRecord
  2
ACANSTGBM
 70
     0
  3
__ . . __ . .
 72
    65
 73
     6
 40
9.0
 49
4.0
 74
     0
 49
-1.0
 74
     0
 49
1.0
 74
     0
 49
-1.0
 74
     0
 49
1.0
 74
     0
 49
-1.0
 74
     0
  0
LTYPE
  5
427
330
5
100
AcDbSymbolTableRecord
100
AcDbLinetypeTableRecord
  2
ACANSTGLM
 70
     0
  3
_ _ _ _ _
 72
    65
 73
     2
 40
3.0
 49
2.0
 74
     0
 49
-1.0
 74
     0
  0
LTYPE
  5
637
330
5
100
AcDbSymbolTableRecord
100
AcDbLinetypeTableRecord
  2
HIDDEN
 70
     0
  3
Verdeckt
 72
    65
 73
     2
 40
9.525
 49
6.349999999999999
 74
     0
 49
-3.174999999999999
 74
     0
  0
LTYPE
  5
638
330
5
100
AcDbSymbolTableRecord
100
AcDbLinetypeTableRecord
  2
CENTER
 70
     0
  3
Mitte ____ _ ____ _ ____ _ ____ _ ____ _ ____
 72
    65
 73
     4
 40
50.8
 49
31.75
 74
     0
 49
-6.349999999999999
 74
     0
 49
6.349999999999999
 74
     0
 49
-6.349999999999999
 74
     0
  0
LTYPE
  5
645
330
5
100
AcDbSymbolTableRecord
100
AcDbLinetypeTableRecord
  2
genzigzag
 70
     0
  3
/\/-/\/-/\/-/\/-/\/-/\/
 72
    65
 73
     2
 40
12.0001
 49
0.0001
 74
     4
 75
   135
340
644
 46
2.0
 50
0.0
 44
0.0
 45
0.0
 49
-12.0
 74
     0
  0
LTYPE
  5
646
330
5
100
AcDbSymbolTableRecord
100
AcDbLinetypeTableRecord
  2
AM_ISO02W050
 70
     0
  3
__ __ __ __ __ __ __ __ __ __ __ __ __ __ __
 72
    65
 73
     2
 40
7.5
 49
6.0
 74
     0
 49
-1.5
 74
     0
  0
LTYPE
  5
1B16
330
5
100
AcDbSymbolTableRecord
100
AcDbLinetypeTableRecord
  2
ACANSTGB
 70
     0
  3
__ . . __ . .
 72
    65
 73
     6
 40
0.35433070866
 49
0.15748031496
 74
     0
 49
-0.03937007874
 74
     0
 49
0.03937007874
 74
     0
 49
-0.03937007874
 74
     0
 49
0.03937007874
 74
     0
 49
-0.03937007874
 74
     0
  0
LTYPE
  5
1B17
330
5
100
AcDbSymbolTableRecord
100
AcDbLinetypeTableRecord
  2
ACANSTGL
 70
     0
  3
_ _ _ _ _
 72
    65
 73
     2
 40
0.11811023622
 49
0.07874015748
 74
     0
 49
-0.03937007874
 74
     0
  0
ENDTAB
  0
TABLE
  2
LAYER
  5
2
330
0
100
AcDbSymbolTable
 70
    34
  0
LAYER
  5
E
330
2
100
AcDbSymbolTableRecord
100
AcDbLayerTableRecord
  2
0
 70
     0
 62
     7
  6
CONTINUOUS
370
     0
390
604
347
1E96
  0
LAYER
  5
1F
330
2
100
AcDbSymbolTableRecord
100
AcDbLayerTableRecord
  2
5
 70
     0
 62
     3
  6
CONTINUOUS
370
    -3
390
604
347
1E96
  0
LAYER
  5
2A
330
2
100
AcDbSymbolTableRecord
100
AcDbLayerTableRecord
  2
1
 70
     0
 62
     4
  6
CONTINUOUS
370
    -3
390
604
347
1E96
  0
LAYER
  5
2B
330
2
100
AcDbSymbolTableRecord
100
AcDbLayerTableRecord
  2
Defpoints
 70
     0
 62
     7
  6
CONTINUOUS
290
     0
370
    -3
390
604
347
1E96
  0
LAYER
  5
2C
330
2
100
AcDbSymbolTableRecord
100
AcDbLayerTableRecord
  2
GEVACTIVE
 70
     0
 62
     2
  6
CONTINUOUS
370
    -3
390
604
347
1E96
  0
LAYER
  5
2D
330
2
100
AcDbSymbolTableRecord
100
AcDbLayerTableRecord
  2
GEVINACTIVE
 70
     0
 62
     8
  6
CONTINUOUS
370
    -3
390
604
347
1E96
  0
LAYER
  5
2E
330
2
100
AcDbSymbolTableRecord
100
AcDbLayerTableRecord
  2
VCCNULL
 70
     0
 62
    -5
  6
CONTINUOUS
370
    -3
390
604
347
1E96
  0
LAYER
  5
2F
330
2
100
AcDbSymbolTableRecord
100
AcDbLayerTableRecord
  2
2
 70
     0
 62
     5
  6
CONTINUOUS
370
    -3
390
604
347
1E96
  0
LAYER
  5
30
330
2
100
AcDbSymbolTableRecord
100
AcDbLayerTableRecord
  2
2A
 70
     0
 62
     7
  6
GEN7
370
    -3
390
604
347
1E96
  0
LAYER
  5
31
330
2
100
AcDbSymbolTableRecord
100
AcDbLayerTableRecord
  2
3
 70
     0
 62
     6
  6
GEN3
370
    -3
390
604
347
1E96
  0
LAYER
  5
32
330
2
100
AcDbSymbolTableRecord
100
AcDbLayerTableRecord
  2
3A
 70
     0
 62
     6
  6
GEN3A
370
    -3
390
604
347
1E96
  0
LAYER
  5
33
330
2
100
AcDbSymbolTableRecord
100
AcDbLayerTableRecord
  2
4
 70
     0
 62
     3
  6
CONTINUOUS
370
    -3
390
604
347
1E96
  0
LAYER
  5
34
330
2
100
AcDbSymbolTableRecord
100
AcDbLayerTableRecord
  2
4A
 70
     0
 62
     3
  6
GEN4A
370
    -3
390
604
347
1E96
  0
LAYER
  5
35
330
2
100
AcDbSymbolTableRecord
100
AcDbLayerTableRecord
  2
6
 70
     0
 62
     2
  6
CONTINUOUS
370
     0
390
604
347
1E96
  0
LAYER
  5
36
330
2
100
AcDbSymbolTableRecord
100
AcDbLayerTableRecord
  2
7
 70
     0
 62
     1
  6
GEN7
370
    -3
390
604
347
1E96
  0
LAYER
  5
37
330
2
100
AcDbSymbolTableRecord
100
AcDbLayerTableRecord
  2
7A
 70
     0
 62
     1
  6
GEN7A
370
    -3
390
604
347
1E96
  0
LAYER
  5
38
330
2
100
AcDbSymbolTableRecord
100
AcDbLayerTableRecord
  2
8
 70
     0
 62
     1
  6
CONTINUOUS
370
    -3
390
604
347
1E96
  0
LAYER
  5
12B
330
2
100
AcDbSymbolTableRecord
100
AcDbLayerTableRecord
  2
TEXT
 70
     0
 62
     7
  6
CONTINUOUS
370
    -3
390
604
347
1E96
  0
LAYER
  5
269
330
2
100
AcDbSymbolTableRecord
100
AcDbLayerTableRecord
  2
RAHM5
 70
     0
 62
     7
  6
CONTINUOUS
370
     0
390
604
347
1E96
  0
LAYER
  5
26E
330
2
100
AcDbSymbolTableRecord
100
AcDbLayerTableRecord
  2
RAHM3
 70
     0
 62
     2
  6
CONTINUOUS
370
     0
390
604
347
1E96
  0
LAYER
  5
37E
330
2
100
AcDbSymbolTableRecord
100
AcDbLayerTableRecord
  2
AM_TR
 70
     0
 62
     7
  6
CONTINUOUS
370
    25
390
604
347
1E96
  0
LAYER
  5
37F
330
2
100
AcDbSymbolTableRecord
100
AcDbLayerTableRecord
  2
AM_BM
 70
     0
 62
     7
  6
CONTINUOUS
370
    -3
390
604
347
1E96
  0
LAYER
  5
380
330
2
100
AcDbSymbolTableRecord
100
AcDbLayerTableRecord
  2
AM_BL
 70
     0
 62
     7
  6
CONTINUOUS
370
    -3
390
604
347
1E96
  0
LAYER
  5
3B9
330
2
100
AcDbSymbolTableRecord
100
AcDbLayerTableRecord
  2
AM_VIEWS
 70
     0
 62
    -7
  6
CONTINUOUS
370
    -3
390
604
347
1E96
  0
LAYER
  5
3BA
330
2
100
AcDbSymbolTableRecord
100
AcDbLayerTableRecord
  2
AM_PARDIM
 70
     0
 62
     3
  6
CONTINUOUS
370
    25
390
604
347
1E96
  0
LAYER
  5
3BB
330
2
100
AcDbSymbolTableRecord
100
AcDbLayerTableRecord
  2
AM_REFDIM
 70
     0
 62
     1
  6
CONTINUOUS
370
    25
390
604
347
1E96
  0
LAYER
  5
3BC
330
2
100
AcDbSymbolTableRecord
100
AcDbLayerTableRecord
  2
AM_VIS
 70
     0
 62
     7
  6
CONTINUOUS
370
    50
390
604
347
1E96
  0
LAYER
  5
3BD
330
2
100
AcDbSymbolTableRecord
100
AcDbLayerTableRecord
  2
AM_HID
 70
     0
 62
     6
  6
GEN3
370
    25
390
604
347
1E96
  0
LAYER
  5
3DF
330
2
100
AcDbSymbolTableRecord
100
AcDbLayerTableRecord
  2
AM_SUPPR
 70
     0
 62
     6
  6
CONTINUOUS
370
    -3
390
604
347
1E96
  0
LAYER
  5
647
330
2
100
AcDbSymbolTableRecord
100
AcDbLayerTableRecord
  2
VIEW
 70
     1
 62
    -1
  6
CONTINUOUS
370
     0
390
604
347
1E96
  0
LAYER
  5
661
330
2
100
AcDbSymbolTableRecord
100
AcDbLayerTableRecord
  2
KLIN
 70
     0
 62
     1
  6
CONTINUOUS
370
     0
390
604
347
1E96
  0
LAYER
  5
14AE
330
2
100
AcDbSymbolTableRecord
100
AcDbLayerTableRecord
  2
RAHM2
 70
     0
 62
     1
  6
CONTINUOUS
370
     0
390
604
347
1E96
  0
LAYER
  5
14AF
330
2
100
AcDbSymbolTableRecord
100
AcDbLayerTableRecord
  2
KOPF
 70
     0
 62
     7
  6
CONTINUOUS
370
    -3
390
604
347
1E96
  0
LAYER
  5
1525
330
2
100
AcDbSymbolTableRecord
100
AcDbLayerTableRecord
  2
AM_FR
 70
     5
 62
     7
  6
CONTINUOUS
370
    -3
390
604
347
1E96
  0
ENDTAB
  0
TABLE
  2
STYLE
  5
3
330
0
100
AcDbSymbolTable
 70
    11
  0
STYLE
  5
F
330
3
100
AcDbSymbolTableRecord
100
AcDbTextStyleTableRecord
  2
STANDARD
 70
     0
 40
0.0
 41
1.0
 50
0.0
 71
     0
 42
23.58119994238515
  3
ISOCP
  4

  0
STYLE
  5
39
330
3
100
AcDbSymbolTableRecord
100
AcDbTextStyleTableRecord
  2
EUCLID01
 70
     0
 40
0.0
 41
1.0
 50
0.0
 71
     0
 42
3.5
  3
simplex.shx
  4

  0
STYLE
  5
3A
330
3
100
AcDbSymbolTableRecord
100
AcDbTextStyleTableRecord
  2
EUCLID02
 70
     0
 40
0.0
 41
1.0
 50
0.0
 71
     0
 42
3.5
  3
simplex.shx
  4

  0
STYLE
  5
3B
330
3
100
AcDbSymbolTableRecord
100
AcDbTextStyleTableRecord
  2
EUCLID03
 70
     0
 40
0.0
 41
1.0
 50
0.0
 71
     0
 42
3.5
  3
simplex.shx
  4

  0
STYLE
  5
3C
330
3
100
AcDbSymbolTableRecord
100
AcDbTextStyleTableRecord
  2
EUCLID04
 70
     0
 40
0.0
 41
1.0
 50
0.0
 71
     0
 42
3.5
  3
simplex.shx
  4

  0
STYLE
  5
3D
330
3
100
AcDbSymbolTableRecord
100
AcDbTextStyleTableRecord
  2
EUCLID05
 70
     0
 40
0.0
 41
1.0
 50
0.0
 71
     0
 42
3.5
  3
simplex.shx
  4

  0
STYLE
  5
3E
330
3
100
AcDbSymbolTableRecord
100
AcDbTextStyleTableRecord
  2
EUCLID06
 70
     0
 40
0.0
 41
1.0
 50
0.0
 71
     0
 42
3.5
  3
simplex.shx
  4

  0
STYLE
  5
3F
330
3
100
AcDbSymbolTableRecord
100
AcDbTextStyleTableRecord
  2
EUCLID07
 70
     0
 40
0.0
 41
1.0
 50
0.0
 71
     0
 42
3.5
  3
simplex.shx
  4

  0
STYLE
  5
41E
330
3
100
AcDbSymbolTableRecord
100
AcDbTextStyleTableRecord
  2
ACANSTS
 70
     0
 40
1.0
 41
1.0
 50
0.0
 71
     0
 42
2.5
  3
romans.shx
  4

  0
STYLE
  5
425
330
3
100
AcDbSymbolTableRecord
100
AcDbTextStyleTableRecord
  2
ACANSGDT
 70
     0
 40
0.0
 41
1.0
 50
0.0
 71
     0
 42
2.5
  3
amgdtans.shx
  4

  0
STYLE
  5
644
330
3
100
AcDbSymbolTableRecord
100
AcDbTextStyleTableRecord
  2

 70
     1
 40
0.0
 41
1.0
 50
0.0
 71
     0
 42
23.58119994238515
  3
genltshp.shx
  4

  0
ENDTAB
  0
TABLE
  2
VIEW
  5
6
330
0
100
AcDbSymbolTable
 70
     6
  0
VIEW
  5
14CC
330
6
100
AcDbSymbolTableRecord
100
AcDbViewTableRecord
  2
AM_VIEW1
 70
     0
 40
283.0
 10
-29.39760595537862
 20
93.44207901704704
 41
367.0100628930817
 11
0.0
 21
0.0
 31
1.0
 12
0.0
 22
0.0
 32
0.0
 42
50.0
 43
0.0
 44
0.0
 50
0.0
 71
     0
281
     0
 72
     0
 73
     0
348
1E9D
  0
VIEW
  5
14CD
330
6
100
AcDbSymbolTableRecord
100
AcDbViewTableRecord
  2
AM_VIEW2
 70
     0
 40
283.0
 10
-30.64766884846037
 20
93.44207901704704
 41
367.0100628930817
 11
0.0
 21
0.0
 31
1.0
 12
0.0
 22
0.0
 32
0.0
 42
50.0
 43
0.0
 44
0.0
 50
0.0
 71
     0
281
     0
 72
     0
 73
     0
348
1E9D
  0
VIEW
  5
14CE
330
6
100
AcDbSymbolTableRecord
100
AcDbViewTableRecord
  2
AM_VIEW3
 70
     0
 40
283.0
 10
-29.39760595537862
 20
-189.5579209829529
 41
367.0100628930817
 11
0.0
 21
0.0
 31
1.0
 12
0.0
 22
0.0
 32
0.0
 42
50.0
 43
0.0
 44
0.0
 50
0.0
 71
     0
281
     0
 72
     0
 73
     0
348
1E9D
  0
VIEW
  5
14CF
330
6
100
AcDbSymbolTableRecord
100
AcDbViewTableRecord
  2
AM_VIEW4
 70
     0
 40
283.0
 10
-30.64766884846037
 20
-189.5579209829529
 41
367.0100628930817
 11
0.0
 21
0.0
 31
1.0
 12
0.0
 22
0.0
 32
0.0
 42
50.0
 43
0.0
 44
0.0
 50
0.0
 71
     0
281
     0
 72
     0
 73
     0
348
1E9D
  0
VIEW
  5
14D0
330
6
100
AcDbSymbolTableRecord
100
AcDbViewTableRecord
  2
AM_VIEW5
 70
     0
 40
283.0
 10
-30.0226374019195
 20
-48.05792098295296
 41
367.0100628930817
 11
0.0
 21
0.0
 31
1.0
 12
0.0
 22
0.0
 32
0.0
 42
50.0
 43
0.0
 44
0.0
 50
0.0
 71
     0
281
     0
 72
     0
 73
     0
348
1E9D
  0
VIEW
  5
14D1
330
6
100
AcDbSymbolTableRecord
100
AcDbViewTableRecord
  2
AM_VIEW6
 70
     0
 40
565.9943400000001
 10
-30.0226374019195
 20
-48.05792098295296
 41
734.0127855849056
 11
0.0
 21
0.0
 31
1.0
 12
0.0
 22
0.0
 32
0.0
 42
50.0
 43
0.0
 44
0.0
 50
0.0
 71
     0
281
     0
 72
     0
 73
     0
348
1E9D
  0
ENDTAB
  0
TABLE
  2
UCS
  5
7
330
0
100
AcDbSymbolTable
 70
     0
  0
ENDTAB
  0
TABLE
  2
APPID
  5
9
330
0
100
AcDbSymbolTable
 70
    41
  0
APPID
  5
10
330
9
100
AcDbSymbolTableRecord
100
AcDbRegAppTableRecord
  2
ACAD
 70
     0
  0
APPID
  5
363
330
9
100
AcDbSymbolTableRecord
100
AcDbRegAppTableRecord
  2
GENIUS_GENCFG_13
 70
     0
1001
GENIUS_GENCFG0_13
1000
GEN@INFO_POS@XLATE
1001
GENIUS_GENCFG1_13
1000
GEN@INFO_POS
1001
GENIUS_GENCFG2_13
1000
GEN@LAYER@DEFS
1001
GENIUS_GENCFG3_13
1000
GEN@LAYER@ENTSORT
1001
GENIUS_GENCFG4_13
1000
GEN
1001
GENIUS_GE3CFG0_13
1000
GE3
1001
GENIUS_GEVCFG0_13
1000
GEV
  0
APPID
  5
364
330
9
100
AcDbSymbolTableRecord
100
AcDbRegAppTableRecord
  2
GENIUS_GENCFG0_13
 70
     0
1001
GENIUS_GENCFG_13
1071
939720540
1000
364
1000
GEN@INFO_POS@XLATE
1070
     7
1000
GenCfgObject
1000
GenCfgShort
1000
GenCfgReal
1000
GenCfgBool
1000
GenCfgString
1000
GenCfgDim
1000
GenCfgAttrInf
1000
ACADM_BOM
1070
     0
1002
{
1000
ACADM_BOM1
1070
     0
1002
{
1000
ITEM
1070
     4
1000
1
1002
{
1002
}
1000
QTY
1070
     4
1000
2
1002
{
1002
}
1000
PALINAME
1070
     4
1000
3
1002
{
1002
}
1000
DESCR
1070
     4
1000
5
1002
{
1002
}
1000
STANDARD
1070
     4
1000
7
1002
{
1002
}
1000
MATERIAL
1070
     4
1000
9
1002
{
1002
}
1000
MASS
1070
     4
1000
12
1002
{
1002
}
1000
NOTE
1070
     4
1000
24
1002
{
1002
}
1000
VENDOR
1070
     4
1000
25
1002
{
1002
}
1000
NAME
1070
     4
1000
28
1002
{
1002
}
1002
}
1002
}
1000
INFOPOINTS
1070
     0
1002
{
1000
GENINF14
1070
     0
1002
{
1000
2GENINF
1070
     4
1000
2
1002
{
1002
}
1000
3GENINF
1070
     4
1000
3
1002
{
1002
}
1000
4GENINF
1070
     4
1000
4
1002
{
1002
}
1000
5GENINF
1070
     4
1000
5
1002
{
1002
}
1000
6GENINF
1070
     4
1000
6
1002
{
1002
}
1000
7GENINF
1070
     4
1000
7
1002
{
1002
}
1000
8GENINF
1070
     4
1000
8
1002
{
1002
}
1000
9GENINF
1070
     4
1000
9
1002
{
1002
}
1000
10GENINF
1070
     4
1000
10
1002
{
1002
}
1000
11GENINF
1070
     4
1000
11
1002
{
1002
}
1000
12GENINF
1070
     4
1000
12
1002
{
1002
}
1000
13GENINF
1070
     4
1000
13
1002
{
1002
}
1000
14GENINF
1070
     4
1000
14
1002
{
1002
}
1000
15GENINF
1070
     4
1000
15
1002
{
1002
}
1000
16GENINF
1070
     4
1000
16
1002
{
1002
}
1000
17GENINF
1070
     4
1000
17
1002
{
1002
}
1000
18GENINF
1070
     4
1000
18
1002
{
1002
}
1000
19GENINF
1070
     4
1000
19
1002
{
1002
}
1000
20GENINF
1070
     4
1000
20
1002
{
1002
}
1000
21GENINF
1070
     4
1000
21
1002
{
1002
}
1000
22GENINF
1070
     4
1000
22
1002
{
1002
}
1000
23GENINF
1070
     4
1000
23
1002
{
1002
}
1000
24GENINF
1070
     4
1000
24
1002
{
1002
}
1000
25GENINF
1070
     4
1000
25
1002
{
1002
}
1000
26GENINF
1070
     4
1000
26
1002
{
1002
}
1000
27GENINF
1070
     4
1000
27
1002
{
1002
}
1000
0GENINF
1070
     4
1000
0
1002
{
1002
}
1002
}
1000
GENINF13
1070
     0
1002
{
1000
2GENINF
1070
     4
1000
2
1002
{
1002
}
1000
3GENINF
1070
     4
1000
3
1002
{
1002
}
1000
4GENINF
1070
     4
1000
4
1002
{
1002
}
1000
5GENINF
1070
     4
1000
5
1002
{
1002
}
1000
6GENINF
1070
     4
1000
6
1002
{
1002
}
1000
7GENINF
1070
     4
1000
7
1002
{
1002
}
1000
8GENINF
1070
     4
1000
8
1002
{
1002
}
1000
9GENINF
1070
     4
1000
9
1002
{
1002
}
1000
10GENINF
1070
     4
1000
10
1002
{
1002
}
1000
11GENINF
1070
     4
1000
11
1002
{
1002
}
1000
12GENINF
1070
     4
1000
12
1002
{
1002
}
1000
13GENINF
1070
     4
1000
13
1002
{
1002
}
1000
14GENINF
1070
     4
1000
14
1002
{
1002
}
1000
15GENINF
1070
     4
1000
15
1002
{
1002
}
1000
16GENINF
1070
     4
1000
16
1002
{
1002
}
1000
17GENINF
1070
     4
1000
17
1002
{
1002
}
1000
18GENINF
1070
     4
1000
18
1002
{
1002
}
1000
19GENINF
1070
     4
1000
19
1002
{
1002
}
1000
20GENINF
1070
     4
1000
20
1002
{
1002
}
1000
21GENINF
1070
     4
1000
21
1002
{
1002
}
1000
22GENINF
1070
     4
1000
22
1002
{
1002
}
1000
23GENINF
1070
     4
1000
23
1002
{
1002
}
1000
24GENINF
1070
     4
1000
24
1002
{
1002
}
1000
0GENINF
1070
     4
1000
0
1002
{
1002
}
1002
}
1000
GENINFO
1070
     0
1002
{
1000
3GENINF
1070
     4
1000
3
1002
{
1002
}
1000
4GENINF
1070
     4
1000
4
1002
{
1002
}
1000
5GENINF
1070
     4
1000
5
1002
{
1002
}
1000
6GENINF
1070
     4
1000
6
1002
{
1002
}
1000
7GENINF
1070
     4
1000
7
1002
{
1002
}
1000
8GENINF
1070
     4
1000
8
1002
{
1002
}
1000
9GENINF
1070
     4
1000
9
1002
{
1002
}
1000
10GENINF
1070
     4
1000
10
1002
{
1002
}
1000
11GENINF
1070
     4
1000
11
1002
{
1002
}
1000
12GENINF
1070
     4
1000
12
1002
{
1002
}
1000
13GENINF
1070
     4
1000
13
1002
{
1002
}
1000
14GENINF
1070
     4
1000
14
1002
{
1002
}
1000
15GENINF
1070
     4
1000
15
1002
{
1002
}
1000
16GENINF
1070
     4
1000
16
1002
{
1002
}
1000
17GENINF
1070
     4
1000
17
1002
{
1002
}
1000
18GENINF
1070
     4
1000
18
1002
{
1002
}
1000
19GENINF
1070
     4
1000
19
1002
{
1002
}
1000
20GENINF
1070
     4
1000
20
1002
{
1002
}
1000
21GENINF
1070
     4
1000
21
1002
{
1002
}
1000
22GENINF
1070
     4
1000
22
1002
{
1002
}
1002
}
1000
DININFO
1070
     0
1002
{
1000
ST-NAME1
1070
     4
1000
5
1002
{
1002
}
1000
ST-NAME2
1070
     4
1000
6
1002
{
1002
}
1000
ST-NORM1
1070
     4
1000
7
1002
{
1002
}
1000
ST-NORM2
1070
     4
1000
8
1002
{
1002
}
1000
ST-MAT1
1070
     4
1000
9
1002
{
1002
}
1000
ST-MAT2
1070
     4
1000
10
1002
{
1002
}
1002
}
1002
}
1000
POS_NUMBERS
1070
     0
1002
{
1000
GENPOS14
1070
     0
1002
{
1000
1GENPOS
1070
     4
1000
1
1002
{
1002
}
1000
2GENPOS
1070
     4
1000
2
1002
{
1002
}
1000
3GENPOS
1070
     4
1000
3
1002
{
1002
}
1000
4GENPOS
1070
     4
1000
4
1002
{
1002
}
1000
5GENPOS
1070
     4
1000
5
1002
{
1002
}
1000
6GENPOS
1070
     4
1000
6
1002
{
1002
}
1000
7GENPOS
1070
     4
1000
7
1002
{
1002
}
1000
8GENPOS
1070
     4
1000
8
1002
{
1002
}
1000
9GENPOS
1070
     4
1000
9
1002
{
1002
}
1000
10GENPOS
1070
     4
1000
10
1002
{
1002
}
1000
11GENPOS
1070
     4
1000
11
1002
{
1002
}
1000
12GENPOS
1070
     4
1000
12
1002
{
1002
}
1000
13GENPOS
1070
     4
1000
13
1002
{
1002
}
1000
14GENPOS
1070
     4
1000
14
1002
{
1002
}
1000
15GENPOS
1070
     4
1000
15
1002
{
1002
}
1000
16GENPOS
1070
     4
1000
16
1002
{
1002
}
1000
17GENPOS
1070
     4
1000
17
1002
{
1002
}
1000
18GENPOS
1070
     4
1000
18
1002
{
1002
}
1000
19GENPOS
1070
     4
1000
19
1002
{
1002
}
1000
20GENPOS
1070
     4
1000
20
1002
{
1002
}
1000
21GENPOS
1070
     4
1000
21
1002
{
1002
}
1000
22GENPOS
1070
     4
1000
22
1002
{
1002
}
1000
23GENPOS
1070
     4
1000
23
1002
{
1002
}
1000
24GENPOS
1070
     4
1000
24
1002
{
1002
}
1000
25GENPOS
1070
     4
1000
25
1002
{
1002
}
1000
26GENPOS
1070
     4
1000
26
1002
{
1002
}
1000
27GENPOS
1070
     4
1000
27
1002
{
1002
}
1000
0GENPOS
1070
     4
1000
0
1002
{
1002
}
1002
}
1000
GENPOS13
1070
     0
1002
{
1000
1GENPOS
1070
     4
1000
1
1002
{
1002
}
1000
2GENPOS
1070
     4
1000
2
1002
{
1002
}
1000
3GENPOS
1070
     4
1000
3
1002
{
1002
}
1000
4GENPOS
1070
     4
1000
4
1002
{
1002
}
1000
5GENPOS
1070
     4
1000
5
1002
{
1002
}
1000
6GENPOS
1070
     4
1000
6
1002
{
1002
}
1000
7GENPOS
1070
     4
1000
7
1002
{
1002
}
1000
8GENPOS
1070
     4
1000
8
1002
{
1002
}
1000
9GENPOS
1070
     4
1000
9
1002
{
1002
}
1000
10GENPOS
1070
     4
1000
10
1002
{
1002
}
1000
11GENPOS
1070
     4
1000
11
1002
{
1002
}
1000
12GENPOS
1070
     4
1000
12
1002
{
1002
}
1000
13GENPOS
1070
     4
1000
13
1002
{
1002
}
1000
14GENPOS
1070
     4
1000
14
1002
{
1002
}
1000
15GENPOS
1070
     4
1000
15
1002
{
1002
}
1000
16GENPOS
1070
     4
1000
16
1002
{
1002
}
1000
17GENPOS
1070
     4
1000
17
1002
{
1002
}
1000
18GENPOS
1070
     4
1000
18
1002
{
1002
}
1000
19GENPOS
1070
     4
1000
19
1002
{
1002
}
1000
20GENPOS
1070
     4
1000
20
1002
{
1002
}
1000
21GENPOS
1070
     4
1000
21
1002
{
1002
}
1000
22GENPOS
1070
     4
1000
22
1002
{
1002
}
1000
23GENPOS
1070
     4
1000
23
1002
{
1002
}
1000
24GENPOS
1070
     4
1000
24
1002
{
1002
}
1000
0GENPOS
1070
     4
1000
0
1002
{
1002
}
1002
}
1000
GENPOS
1070
     0
1002
{
1000
1GENPOS
1070
     4
1000
1
1002
{
1002
}
1000
2GENPOS
1070
     4
1000
2
1002
{
1002
}
1000
3GENPOS
1070
     4
1000
3
1002
{
1002
}
1000
4GENPOS
1070
     4
1000
4
1002
{
1002
}
1000
5GENPOS
1070
     4
1000
5
1002
{
1002
}
1000
6GENPOS
1070
     4
1000
6
1002
{
1002
}
1000
7GENPOS
1070
     4
1000
7
1002
{
1002
}
1000
8GENPOS
1070
     4
1000
8
1002
{
1002
}
1000
9GENPOS
1070
     4
1000
9
1002
{
1002
}
1000
10GENPOS
1070
     4
1000
10
1002
{
1002
}
1000
11GENPOS
1070
     4
1000
11
1002
{
1002
}
1000
12GENPOS
1070
     4
1000
12
1002
{
1002
}
1000
13GENPOS
1070
     4
1000
13
1002
{
1002
}
1000
14GENPOS
1070
     4
1000
14
1002
{
1002
}
1000
15GENPOS
1070
     4
1000
15
1002
{
1002
}
1000
16GENPOS
1070
     4
1000
16
1002
{
1002
}
1000
17GENPOS
1070
     4
1000
17
1002
{
1002
}
1000
18GENPOS
1070
     4
1000
18
1002
{
1002
}
1000
19GENPOS
1070
     4
1000
19
1002
{
1002
}
1000
20GENPOS
1070
     4
1000
20
1002
{
1002
}
1000
21GENPOS
1070
     4
1000
21
1002
{
1002
}
1000
22GENPOS
1070
     4
1000
22
1002
{
1002
}
1000
23GENPOS
1070
     4
1000
23
1002
{
1002
}
1002
}
1000
DIN985
1070
     0
1002
{
1000
POSITION
1070
     4
1000
1
1002
{
1002
}
1000
MENGE
1070
     4
1000
2
1002
{
1002
}
1000
BLATT
1070
     4
1000
3
1002
{
1002
}
1000
BENENN
1070
     4
1000
5
1002
{
1002
}
1000
BENENN2
1070
     4
1000
6
1002
{
1002
}
1000
NORM
1070
     4
1000
7
1002
{
1002
}
1000
NORM2
1070
     4
1000
8
1002
{
1002
}
1000
WERKSTOFF
1070
     4
1000
9
1002
{
1002
}
1000
WERKSTOFF2
1070
     4
1000
10
1002
{
1002
}
1002
}
1000
DIN986
1070
     0
1002
{
1000
POSITION
1070
     4
1000
1
1002
{
1002
}
1000
MENGE
1070
     4
1000
2
1002
{
1002
}
1000
BLATT
1070
     4
1000
3
1002
{
1002
}
1000
BENENN
1070
     4
1000
5
1002
{
1002
}
1000
BENENN2
1070
     4
1000
6
1002
{
1002
}
1000
NORM
1070
     4
1000
7
1002
{
1002
}
1000
NORM2
1070
     4
1000
8
1002
{
1002
}
1000
WERKSTOFF
1070
     4
1000
9
1002
{
1002
}
1000
WERKSTOFF2
1070
     4
1000
10
1002
{
1002
}
1002
}
1000
DIN987
1070
     0
1002
{
1000
POSITION
1070
     4
1000
1
1002
{
1002
}
1000
MENGE
1070
     4
1000
2
1002
{
1002
}
1000
BLATT
1070
     4
1000
3
1002
{
1002
}
1000
BENENN
1070
     4
1000
5
1002
{
1002
}
1000
BENENN2
1070
     4
1000
6
1002
{
1002
}
1000
NORM
1070
     4
1000
7
1002
{
1002
}
1000
NORM2
1070
     4
1000
8
1002
{
1002
}
1000
WERKSTOFF
1070
     4
1000
9
1002
{
1002
}
1000
WERKSTOFF2
1070
     4
1000
10
1002
{
1002
}
1002
}
1002
}
  0
APPID
  5
365
330
9
100
AcDbSymbolTableRecord
100
AcDbRegAppTableRecord
  2
GENIUS_GENCFG1_13
 70
     0
1001
GENIUS_GENCFG_13
1071
939720540
1000
365
1000
GEN@INFO_POS
1070
     7
1000
GenCfgObject
1000
GenCfgShort
1000
GenCfgReal
1000
GenCfgBool
1000
GenCfgString
1000
GenCfgDim
1000
GenCfgAttrInf
1000
DescrText
1070
     4
1000
5, ,6, ,7, ,8
1002
{
1002
}
1000
DescrText2
1070
     4
1000
26
1002
{
1002
}
1000
VisibleAttr1
1070
     4
1000
1
1002
{
1002
}
1000
VisibleAttr2
1070
     4
1000
26
1002
{
1002
}
1000
UpdateBlock
1070
     3
1070
     1
1002
{
1002
}
1000
UsedAcadMBom
1070
     4
1000
ACADM_BOM1
1002
{
1002
}
1000
AutoUpdAcadMBom
1070
     3
1070
     1
1002
{
1002
}
1000
Attrib
1070
     0
1002
{
1000
0
1070
     6
1002
{
1000
Prompt
1070
     4
1000
(genmsg gendwg 103)
1002
{
1002
}
1000
Value
1070
     4
1000

1002
{
1002
}
1000
EditFlag
1070
     1
1070
     0
1002
{
1002
}
1000
PosInDDATTE
1070
     1
1070
    27
1002
{
1002
}
1000
FieldLen
1070
     1
1070
    -1
1002
{
1002
}
1002
}
1000
1
1070
     6
1002
{
1000
Prompt
1070
     4
1000
(genmsg gendwg 31)
1002
{
1002
}
1000
Value
1070
     4
1000
1
1002
{
1002
}
1000
EditFlag
1070
     1
1070
     1
1002
{
1002
}
1000
PosInDDATTE
1070
     1
1070
     1
1002
{
1002
}
1000
FieldLen
1070
     1
1070
    -1
1002
{
1002
}
1002
}
1000
2
1070
     6
1002
{
1000
Prompt
1070
     4
1000
(genmsg gendwg 32)
1002
{
1002
}
1000
Value
1070
     4
1000
1
1002
{
1002
}
1000
EditFlag
1070
     1
1070
     1
1002
{
1002
}
1000
PosInDDATTE
1070
     1
1070
     2
1002
{
1002
}
1000
FieldLen
1070
     1
1070
    -1
1002
{
1002
}
1002
}
1000
3
1070
     6
1002
{
1000
Prompt
1070
     4
1000
(genmsg gendwg 33)
1002
{
1002
}
1000
Value
1070
     4
1000

1002
{
1002
}
1000
EditFlag
1070
     1
1070
     1
1002
{
1002
}
1000
PosInDDATTE
1070
     1
1070
     3
1002
{
1002
}
1000
FieldLen
1070
     1
1070
    -1
1002
{
1002
}
1002
}
1000
4
1070
     6
1002
{
1000
Prompt
1070
     4
1000
(genmsg gendwg 34)
1002
{
1002
}
1000
Value
1070
     4
1000

1002
{
1002
}
1000
EditFlag
1070
     1
1070
     1
1002
{
1002
}
1000
PosInDDATTE
1070
     1
1070
     4
1002
{
1002
}
1000
FieldLen
1070
     1
1070
    -1
1002
{
1002
}
1002
}
1000
5
1070
     6
1002
{
1000
Prompt
1070
     4
1000
(genmsg gendwg 35)
1002
{
1002
}
1000
Value
1070
     4
1000

1002
{
1002
}
1000
EditFlag
1070
     1
1070
     1
1002
{
1002
}
1000
PosInDDATTE
1070
     1
1070
     5
1002
{
1002
}
1000
FieldLen
1070
     1
1070
    -1
1002
{
1002
}
1002
}
1000
6
1070
     6
1002
{
1000
Prompt
1070
     4
1000
(genmsg gendwg 36)
1002
{
1002
}
1000
Value
1070
     4
1000

1002
{
1002
}
1000
EditFlag
1070
     1
1070
     1
1002
{
1002
}
1000
PosInDDATTE
1070
     1
1070
     6
1002
{
1002
}
1000
FieldLen
1070
     1
1070
    -1
1002
{
1002
}
1002
}
1000
7
1070
     6
1002
{
1000
Prompt
1070
     4
1000
(genmsg gendwg 37)
1002
{
1002
}
1000
Value
1070
     4
1000

1002
{
1002
}
1000
EditFlag
1070
     1
1070
     1
1002
{
1002
}
1000
PosInDDATTE
1070
     1
1070
     7
1002
{
1002
}
1000
FieldLen
1070
     1
1070
    -1
1002
{
1002
}
1002
}
1000
8
1070
     6
1002
{
1000
Prompt
1070
     4
1000
(genmsg gendwg 38)
1002
{
1002
}
1000
Value
1070
     4
1000

1002
{
1002
}
1000
EditFlag
1070
     1
1070
     1
1002
{
1002
}
1000
PosInDDATTE
1070
     1
1070
     8
1002
{
1002
}
1000
FieldLen
1070
     1
1070
    -1
1002
{
1002
}
1002
}
1000
9
1070
     6
1002
{
1000
Prompt
1070
     4
1000
(genmsg gendwg 39)
1002
{
1002
}
1000
Value
1070
     4
1000

1002
{
1002
}
1000
EditFlag
1070
     1
1070
     1
1002
{
1002
}
1000
PosInDDATTE
1070
     1
1070
     9
1002
{
1002
}
1000
FieldLen
1070
     1
1070
    -1
1002
{
1002
}
1002
}
1000
10
1070
     6
1002
{
1000
Prompt
1070
     4
1000
(genmsg gendwg 40)
1002
{
1002
}
1000
Value
1070
     4
1000

1002
{
1002
}
1000
EditFlag
1070
     1
1070
     1
1002
{
1002
}
1000
PosInDDATTE
1070
     1
1070
    10
1002
{
1002
}
1000
FieldLen
1070
     1
1070
    -1
1002
{
1002
}
1002
}
1000
11
1070
     6
1002
{
1000
Prompt
1070
     4
1000
(genmsg gendwg 41)
1002
{
1002
}
1000
Value
1070
     4
1000

1002
{
1002
}
1000
EditFlag
1070
     1
1070
     1
1002
{
1002
}
1000
PosInDDATTE
1070
     1
1070
    11
1002
{
1002
}
1000
FieldLen
1070
     1
1070
    -1
1002
{
1002
}
1002
}
1000
12
1070
     6
1002
{
1000
Prompt
1070
     4
1000
(genmsg gendwg 42)
1002
{
1002
}
1000
Value
1070
     4
1000

1002
{
1002
}
1000
EditFlag
1070
     1
1070
     1
1002
{
1002
}
1000
PosInDDATTE
1070
     1
1070
    12
1002
{
1002
}
1000
FieldLen
1070
     1
1070
    -1
1002
{
1002
}
1002
}
1000
13
1070
     6
1002
{
1000
Prompt
1070
     4
1000
(genmsg gendwg 43)
1002
{
1002
}
1000
Value
1070
     4
1000

1002
{
1002
}
1000
EditFlag
1070
     1
1070
     1
1002
{
1002
}
1000
PosInDDATTE
1070
     1
1070
    13
1002
{
1002
}
1000
FieldLen
1070
     1
1070
    -1
1002
{
1002
}
1002
}
1000
14
1070
     6
1002
{
1000
Prompt
1070
     4
1000
(genmsg gendwg 44)
1002
{
1002
}
1000
Value
1070
     4
1000

1002
{
1002
}
1000
EditFlag
1070
     1
1070
     1
1002
{
1002
}
1000
PosInDDATTE
1070
     1
1070
    14
1002
{
1002
}
1000
FieldLen
1070
     1
1070
    -1
1002
{
1002
}
1002
}
1000
15
1070
     6
1002
{
1000
Prompt
1070
     4
1000
(genmsg gendwg 45)
1002
{
1002
}
1000
Value
1070
     4
1000

1002
{
1002
}
1000
EditFlag
1070
     1
1070
     1
1002
{
1002
}
1000
PosInDDATTE
1070
     1
1070
    15
1002
{
1002
}
1000
FieldLen
1070
     1
1070
    -1
1002
{
1002
}
1002
}
1000
16
1070
     6
1002
{
1000
Prompt
1070
     4
1000
(genmsg gendwg 46)
1002
{
1002
}
1000
Value
1070
     4
1000

1002
{
1002
}
1000
EditFlag
1070
     1
1070
     1
1002
{
1002
}
1000
PosInDDATTE
1070
     1
1070
    16
1002
{
1002
}
1000
FieldLen
1070
     1
1070
    -1
1002
{
1002
}
1002
}
1000
17
1070
     6
1002
{
1000
Prompt
1070
     4
1000
(genmsg gendwg 47)
1002
{
1002
}
1000
Value
1070
     4
1000

1002
{
1002
}
1000
EditFlag
1070
     1
1070
     1
1002
{
1002
}
1000
PosInDDATTE
1070
     1
1070
    17
1002
{
1002
}
1000
FieldLen
1070
     1
1070
    -1
1002
{
1002
}
1002
}
1000
18
1070
     6
1002
{
1000
Prompt
1070
     4
1000
(genmsg gendwg 48)
1002
{
1002
}
1000
Value
1070
     4
1000

1002
{
1002
}
1000
EditFlag
1070
     1
1070
     1
1002
{
1002
}
1000
PosInDDATTE
1070
     1
1070
    18
1002
{
1002
}
1000
FieldLen
1070
     1
1070
    -1
1002
{
1002
}
1002
}
1000
19
1070
     6
1002
{
1000
Prompt
1070
     4
1000
(genmsg gendwg 99)
1002
{
1002
}
1000
Value
1070
     4
1000

1002
{
1002
}
1000
EditFlag
1070
     1
1070
     1
1002
{
1002
}
1000
PosInDDATTE
1070
     1
1070
    19
1002
{
1002
}
1000
FieldLen
1070
     1
1070
    -1
1002
{
1002
}
1002
}
1000
20
1070
     6
1002
{
1000
Prompt
1070
     4
1000
(genmsg gendwg 100)
1002
{
1002
}
1000
Value
1070
     4
1000

1002
{
1002
}
1000
EditFlag
1070
     1
1070
     1
1002
{
1002
}
1000
PosInDDATTE
1070
     1
1070
    20
1002
{
1002
}
1000
FieldLen
1070
     1
1070
    -1
1002
{
1002
}
1002
}
1000
21
1070
     6
1002
{
1000
Prompt
1070
     4
1000
(genmsg gendwg 101)
1002
{
1002
}
1000
Value
1070
     4
1000

1002
{
1002
}
1000
EditFlag
1070
     1
1070
     1
1002
{
1002
}
1000
PosInDDATTE
1070
     1
1070
    21
1002
{
1002
}
1000
FieldLen
1070
     1
1070
    -1
1002
{
1002
}
1002
}
1000
22
1070
     6
1002
{
1000
Prompt
1070
     4
1000
(genmsg gendwg 102)
1002
{
1002
}
1000
Value
1070
     4
1000

1002
{
1002
}
1000
EditFlag
1070
     1
1070
     1
1002
{
1002
}
1000
PosInDDATTE
1070
     1
1070
    22
1002
{
1002
}
1000
FieldLen
1070
     1
1070
    -1
1002
{
1002
}
1002
}
1000
23
1070
     6
1002
{
1000
Prompt
1070
     4
1000
(genmsg gendwg 30)
1002
{
1002
}
1000
Value
1070
     4
1000

1002
{
1002
}
1000
EditFlag
1070
     1
1070
     1
1002
{
1002
}
1000
PosInDDATTE
1070
     1
1070
    23
1002
{
1002
}
1000
FieldLen
1070
     1
1070
    -1
1002
{
1002
}
1002
}
1000
24
1070
     6
1002
{
1000
Prompt
1070
     4
1000
(genmsg gendwg 104)
1002
{
1002
}
1000
Value
1070
     4
1000

1002
{
1002
}
1000
EditFlag
1070
     1
1070
     1
1002
{
1002
}
1000
PosInDDATTE
1070
     1
1070
    24
1002
{
1002
}
1000
FieldLen
1070
     1
1070
    -1
1002
{
1002
}
1002
}
1000
25
1070
     6
1002
{
1000
Prompt
1070
     4
1000
(genmsg gendwg 105)
1002
{
1002
}
1000
Value
1070
     4
1000

1002
{
1002
}
1000
EditFlag
1070
     1
1070
     1
1002
{
1002
}
1000
PosInDDATTE
1070
     1
1070
    25
1002
{
1002
}
1000
FieldLen
1070
     1
1070
    -1
1002
{
1002
}
1002
}
1000
26
1070
     6
1002
{
1000
Prompt
1070
     4
1000
(genmsg gendwg 106)
1002
{
1002
}
1000
Value
1070
     4
1000

1002
{
1002
}
1000
EditFlag
1070
     1
1070
     1
1002
{
1002
}
1000
PosInDDATTE
1070
     1
1070
    26
1002
{
1002
}
1000
FieldLen
1070
     1
1070
    -1
1002
{
1002
}
1002
}
1000
27
1070
     6
1002
{
1000
Prompt
1070
     4
1000
(genmsg gendwg 109)
1002
{
1002
}
1000
Value
1070
     4
1000

1002
{
1002
}
1000
EditFlag
1070
     1
1070
     2
1002
{
1002
}
1000
PosInDDATTE
1070
     1
1070
    27
1002
{
1002
}
1000
FieldLen
1070
     1
1070
    -1
1002
{
1002
}
1002
}
1000
28
1070
     6
1002
{
1000
Prompt
1070
     4
1000
(genmsg gendwg 110)
1002
{
1002
}
1000
Value
1070
     4
1000

1002
{
1002
}
1000
EditFlag
1070
     1
1070
     1
1002
{
1002
}
1000
PosInDDATTE
1070
     1
1070
    28
1002
{
1002
}
1000
FieldLen
1070
     1
1070
    -1
1002
{
1002
}
1002
}
1002
}
1000
Xlate
1070
     0
1002
{
1000
>
1002
}
  0
APPID
  5
366
330
9
100
AcDbSymbolTableRecord
100
AcDbRegAppTableRecord
  2
GENIUS_GENCFG2_13
 70
     0
1001
GENIUS_GENCFG_13
1071
939720540
1000
366
1000
GEN@LAYER@DEFS
1070
     9
1000
GenCfgObject
1000
GenCfgShort
1000
GenCfgReal
1000
GenCfgBool
1000
GenCfgString
1000
GenCfgDim
1000
GenCfgAttrInf
1000
GenCfgLaySection
1000
GenCfgLayer
1000
Basic
1070
     0
1002
{
1000
0
1070
     8
1000
0
1002
{
1000
Color
1070
     1
1070
     7
1002
{
1002
}
1000
LType
1070
     4
1000
CONTINUOUS
1002
{
1002
}
1000
Base
1070
     3
1070
     0
1002
{
1002
}
1002
}
1000
1
1070
     8
1000
1
1002
{
1000
Color
1070
     1
1070
     4
1002
{
1002
}
1000
LType
1070
     4
1000
CONTINUOUS
1002
{
1002
}
1000
Base
1070
     3
1070
     0
1002
{
1002
}
1002
}
1000
2
1070
     8
1000
2
1002
{
1000
Color
1070
     1
1070
     5
1002
{
1002
}
1000
LType
1070
     4
1000
CONTINUOUS
1002
{
1002
}
1000
Base
1070
     3
1070
     0
1002
{
1002
}
1002
}
1000
3
1070
     8
1000
3
1002
{
1000
Color
1070
     1
1070
     6
1002
{
1002
}
1000
LType
1070
     4
1000
GEN3
1002
{
1002
}
1000
Base
1070
     3
1070
     0
1002
{
1002
}
1002
}
1000
4
1070
     8
1000
4
1002
{
1000
Color
1070
     1
1070
     3
1002
{
1002
}
1000
LType
1070
     4
1000
CONTINUOUS
1002
{
1002
}
1000
Base
1070
     3
1070
     0
1002
{
1002
}
1002
}
1000
5
1070
     8
1000
5
1002
{
1000
Color
1070
     1
1070
     3
1002
{
1002
}
1000
LType
1070
     4
1000
CONTINUOUS
1002
{
1002
}
1000
Base
1070
     3
1070
     0
1002
{
1002
}
1002
}
1000
6
1070
     8
1000
6
1002
{
1000
Color
1070
     1
1070
     2
1002
{
1002
}
1000
LType
1070
     4
1000
CONTINUOUS
1002
{
1002
}
1000
Base
1070
     3
1070
     0
1002
{
1002
}
1002
}
1000
7
1070
     8
1000
7
1002
{
1000
Color
1070
     1
1070
     1
1002
{
1002
}
1000
LType
1070
     4
1000
GEN7
1002
{
1002
}
1000
Base
1070
     3
1070
     0
1002
{
1002
}
1002
}
1000
8
1070
     8
1000
8
1002
{
1000
Color
1070
     1
1070
     1
1002
{
1002
}
1000
LType
1070
     4
1000
CONTINUOUS
1002
{
1002
}
1000
Base
1070
     3
1070
     0
1002
{
1002
}
1002
}
1000
3A
1070
     8
1000
3A
1002
{
1000
Color
1070
     1
1070
     6
1002
{
1002
}
1000
LType
1070
     4
1000
GEN3A
1002
{
1002
}
1000
Base
1070
     3
1070
     0
1002
{
1002
}
1002
}
1000
7A
1070
     8
1000
7A
1002
{
1000
Color
1070
     1
1070
     1
1002
{
1002
}
1000
LType
1070
     4
1000
GEN7A
1002
{
1002
}
1000
Base
1070
     3
1070
     0
1002
{
1002
}
1002
}
1000
2A
1070
     8
1000
2A
1002
{
1000
Color
1070
     1
1070
     7
1002
{
1002
}
1000
LType
1070
     4
1000
GEN7
1002
{
1002
}
1000
Base
1070
     3
1070
     0
1002
{
1002
}
1002
}
1000
4A
1070
     8
1000
4A
1002
{
1000
Color
1070
     1
1070
     3
1002
{
1002
}
1000
LType
1070
     4
1000
GEN4A
1002
{
1002
}
1000
Base
1070
     3
1070
     0
1002
{
1002
}
1002
}
1000
9
1070
     8
1000
9
1002
{
1000
Color
1070
     1
1070
   253
1002
{
1002
}
1000
LType
1070
     4
1000
CONTINUOUS
1002
{
1002
}
1000
Base
1070
     3
1070
     0
1002
{
1002
}
1002
}
1000
IP
1070
     8
1000
IP
1002
{
1000
Color
1070
     1
1070
     7
1002
{
1002
}
1000
LType
1070
     4
1000
CONTINUOUS
1002
{
1002
}
1000
Base
1070
     3
1070
     0
1002
{
1002
}
1002
}
1002
}
1000
Standard
1070
     0
1002
{
1000
0N
1070
     8
1000
0N
1002
{
1000
Color
1070
     1
1070
     7
1002
{
1002
}
1000
LType
1070
     4
1000
CONTINUOUS
1002
{
1002
}
1000
Base
1070
     3
1070
     0
1002
{
1002
}
1002
}
1000
1N
1070
     8
1000
1N
1002
{
1000
Color
1070
     1
1070
     4
1002
{
1002
}
1000
LType
1070
     4
1000
CONTINUOUS
1002
{
1002
}
1000
Base
1070
     3
1070
     0
1002
{
1002
}
1002
}
1000
2N
1070
     8
1000
2N
1002
{
1000
Color
1070
     1
1070
     5
1002
{
1002
}
1000
LType
1070
     4
1000
CONTINUOUS
1002
{
1002
}
1000
Base
1070
     3
1070
     0
1002
{
1002
}
1002
}
1000
3N
1070
     8
1000
3N
1002
{
1000
Color
1070
     1
1070
     6
1002
{
1002
}
1000
LType
1070
     4
1000
GEN3
1002
{
1002
}
1000
Base
1070
     3
1070
     0
1002
{
1002
}
1002
}
1000
4N
1070
     8
1000
4N
1002
{
1000
Color
1070
     1
1070
     3
1002
{
1002
}
1000
LType
1070
     4
1000
CONTINUOUS
1002
{
1002
}
1000
Base
1070
     3
1070
     0
1002
{
1002
}
1002
}
1000
5N
1070
     8
1000
5N
1002
{
1000
Color
1070
     1
1070
     3
1002
{
1002
}
1000
LType
1070
     4
1000
CONTINUOUS
1002
{
1002
}
1000
Base
1070
     3
1070
     0
1002
{
1002
}
1002
}
1000
6N
1070
     8
1000
6N
1002
{
1000
Color
1070
     1
1070
     2
1002
{
1002
}
1000
LType
1070
     4
1000
CONTINUOUS
1002
{
1002
}
1000
Base
1070
     3
1070
     0
1002
{
1002
}
1002
}
1000
7N
1070
     8
1000
7N
1002
{
1000
Color
1070
     1
1070
     1
1002
{
1002
}
1000
LType
1070
     4
1000
GEN7
1002
{
1002
}
1000
Base
1070
     3
1070
     0
1002
{
1002
}
1002
}
1000
8N
1070
     8
1000
8N
1002
{
1000
Color
1070
     1
1070
     1
1002
{
1002
}
1000
LType
1070
     4
1000
CONTINUOUS
1002
{
1002
}
1000
Base
1070
     3
1070
     0
1002
{
1002
}
1002
}
1000
3AN
1070
     8
1000
3AN
1002
{
1000
Color
1070
     1
1070
     6
1002
{
1002
}
1000
LType
1070
     4
1000
GEN3A
1002
{
1002
}
1000
Base
1070
     3
1070
     0
1002
{
1002
}
1002
}
1000
7AN
1070
     8
1000
7AN
1002
{
1000
Color
1070
     1
1070
     1
1002
{
1002
}
1000
LType
1070
     4
1000
GEN7A
1002
{
1002
}
1000
Base
1070
     3
1070
     0
1002
{
1002
}
1002
}
1000
2AN
1070
     8
1000
2AN
1002
{
1000
Color
1070
     1
1070
     7
1002
{
1002
}
1000
LType
1070
     4
1000
GEN7
1002
{
1002
}
1000
Base
1070
     3
1070
     0
1002
{
1002
}
1002
}
1000
4AN
1070
     8
1000
4AN
1002
{
1000
Color
1070
     1
1070
     3
1002
{
1002
}
1000
LType
1070
     4
1000
GEN4A
1002
{
1002
}
1000
Base
1070
     3
1070
     0
1002
{
1002
}
1002
}
1000
9N
1070
     8
1000
9N
1002
{
1000
Color
1070
     1
1070
   253
1002
{
1002
}
1000
LType
1070
     4
1000
CONTINUOUS
1002
{
1002
}
1000
Base
1070
     3
1070
     0
1002
{
1002
}
1002
}
1000
IPN
1070
     8
1000
IPN
1002
{
1000
Color
1070
     1
1070
     7
1002
{
1002
}
1000
LType
1070
     4
1000
CONTINUOUS
1002
{
1002
}
1000
Base
1070
     3
1070
     0
1002
{
1002
}
1002
}
1002
}
1000
Extra
1070
     0
1002
{
1000
Klin
1070
     8
1000
KLIN
1002
{
1000
Color
1070
     1
1070
     1
1002
{
1002
}
1000
LType
1070
     4
1000
CONTINUOUS
1002
{
1002
}
1000
Base
1070
     3
1070
     1
1002
{
1002
}
1002
}
1000
Info
1070
     8
1000
INFO
1002
{
1000
Color
1070
     1
1070
     4
1002
{
1002
}
1000
LType
1070
     4
1000
CONTINUOUS
1002
{
1002
}
1000
Base
1070
     3
1070
     1
1002
{
1002
}
1002
}
1000
Rahm2
1070
     8
1000
RAHM2
1002
{
1000
Color
1070
     1
1070
     1
1002
{
1002
}
1000
LType
1070
     4
1000
CONTINUOUS
1002
{
1002
}
1000
Base
1070
     3
1070
     1
1002
{
1002
}
1002
}
1000
Rahm3
1070
     8
1000
RAHM3
1002
{
1000
Color
1070
     1
1070
     2
1002
{
1002
}
1000
LType
1070
     4
1000
CONTINUOUS
1002
{
1002
}
1000
Base
1070
     3
1070
     1
1002
{
1002
}
1002
}
1000
Rahm5
1070
     8
1000
RAHM5
1002
{
1000
Color
1070
     1
1070
     7
1002
{
1002
}
1000
LType
1070
     4
1000
CONTINUOUS
1002
{
1002
}
1000
Base
1070
     3
1070
     1
1002
{
1002
}
1002
}
1000
View
1070
     8
1000
VIEW
1002
{
1000
Color
1070
     1
1070
     1
1002
{
1002
}
1000
LType
1070
     4
1000
CONTINUOUS
1002
{
1002
}
1000
Base
1070
     3
1070
     1
1002
{
1002
}
1002
}
1000
Behind
1070
     8
1000
BEHIND
1002
{
1000
Color
1070
     1
1070
   253
1002
{
1002
}
1000
LType
1070
     4
1000
CONTINUOUS
1002
{
1002
}
1000
Base
1070
     3
1070
     1
1002
{
1002
}
1002
}
1002
}
  0
APPID
  5
367
330
9
100
AcDbSymbolTableRecord
100
AcDbRegAppTableRecord
  2
GENIUS_GENCFG3_13
 70
     0
1001
GENIUS_GENCFG_13
1071
939720540
1000
367
1000
GEN@LAYER@ENTSORT
1070
    10
1000
GenCfgObject
1000
GenCfgShort
1000
GenCfgReal
1000
GenCfgBool
1000
GenCfgString
1000
GenCfgDim
1000
GenCfgAttrInf
1000
GenCfgLaySection
1000
GenCfgLayer
1000
GenCfgEntSort
1000
ADDL
1070
     9
1000
5
1002
{
1000
Class
1070
     4
1000
SYM
1002
{
1002
}
1000
Color
1070
     1
1070
     1
1002
{
1002
}
1000
LType
1070
     4
1000
BYLAYER
1002
{
1002
}
1002
}
1000
ALTR
1070
     9
1000
4
1002
{
1000
Class
1070
     4
1000

1002
{
1002
}
1000
Color
1070
     1
1070
     7
1002
{
1002
}
1000
LType
1070
     4
1000
GEN3A
1002
{
1002
}
1002
}
1000
BELI
1070
     9
1000
4
1002
{
1000
Class
1070
     4
1000

1002
{
1002
}
1000
Color
1070
     1
1070
   256
1002
{
1002
}
1000
LType
1070
     4
1000
BYLAYER
1002
{
1002
}
1002
}
1000
BHNV
1070
     9
1000
9
1002
{
1000
Class
1070
     4
1000
INV
1002
{
1002
}
1000
Color
1070
     1
1070
   256
1002
{
1002
}
1000
LType
1070
     4
1000
BYLAYER
1002
{
1002
}
1002
}
1000
BHNVS
1070
     9
1000
BEHIND
1002
{
1000
Class
1070
     4
1000
INV
1002
{
1002
}
1000
Color
1070
     1
1070
   256
1002
{
1002
}
1000
LType
1070
     4
1000
BYLAYER
1002
{
1002
}
1002
}
1000
BLID
1070
     9
1000
4A
1002
{
1000
Class
1070
     4
1000

1002
{
1002
}
1000
Color
1070
     1
1070
   256
1002
{
1002
}
1000
LType
1070
     4
1000
BYLAYER
1002
{
1002
}
1002
}
1000
BOAP
1070
     9
1000
4A
1002
{
1000
Class
1070
     4
1000

1002
{
1002
}
1000
Color
1070
     1
1070
   256
1002
{
1002
}
1000
LType
1070
     4
1000
BYLAYER
1002
{
1002
}
1002
}
1000
BOR2
1070
     9
1000
RAHM2
1002
{
1000
Class
1070
     4
1000
SPZ,SYM
1002
{
1002
}
1000
Color
1070
     1
1070
   256
1002
{
1002
}
1000
LType
1070
     4
1000
BYLAYER
1002
{
1002
}
1002
}
1000
BOR3
1070
     9
1000
RAHM3
1002
{
1000
Class
1070
     4
1000
SPZ,SYM
1002
{
1002
}
1000
Color
1070
     1
1070
   256
1002
{
1002
}
1000
LType
1070
     4
1000
BYLAYER
1002
{
1002
}
1002
}
1000
BOR5
1070
     9
1000
RAHM5
1002
{
1000
Class
1070
     4
1000
SPZ,SYM
1002
{
1002
}
1000
Color
1070
     1
1070
   256
1002
{
1002
}
1000
LType
1070
     4
1000
BYLAYER
1002
{
1002
}
1002
}
1000
BOR7
1070
     9
1000
RAHM5
1002
{
1000
Class
1070
     4
1000
SPZ,SYM
1002
{
1002
}
1000
Color
1070
     1
1070
     7
1002
{
1002
}
1000
LType
1070
     4
1000
CONTINUOUS
1002
{
1002
}
1002
}
1000
BPAP
1070
     9
1000
4A
1002
{
1000
Class
1070
     4
1000

1002
{
1002
}
1000
Color
1070
     1
1070
   256
1002
{
1002
}
1000
LType
1070
     4
1000
BYLAYER
1002
{
1002
}
1002
}
1000
BPEX
1070
     9
1000
4A
1002
{
1000
Class
1070
     4
1000

1002
{
1002
}
1000
Color
1070
     1
1070
   256
1002
{
1002
}
1000
LType
1070
     4
1000
BYLAYER
1002
{
1002
}
1002
}
1000
BTDI
1070
     9
1000
5
1002
{
1000
Class
1070
     4
1000
DIM,SYM
1002
{
1002
}
1000
Color
1070
     1
1070
   256
1002
{
1002
}
1000
LType
1070
     4
1000
BYLAYER
1002
{
1002
}
1002
}
1000
CAL2
1070
     9
1000
4
1002
{
1000
Class
1070
     4
1000
SYM
1002
{
1002
}
1000
Color
1070
     1
1070
   256
1002
{
1002
}
1000
LType
1070
     4
1000
BYLAYER
1002
{
1002
}
1002
}
1000
CAL3
1070
     9
1000
4
1002
{
1000
Class
1070
     4
1000
SYM
1002
{
1002
}
1000
Color
1070
     1
1070
     2
1002
{
1002
}
1000
LType
1070
     4
1000
BYLAYER
1002
{
1002
}
1002
}
1000
CAL5
1070
     9
1000
4
1002
{
1000
Class
1070
     4
1000
SYM
1002
{
1002
}
1000
Color
1070
     1
1070
     7
1002
{
1002
}
1000
LType
1070
     4
1000
BYLAYER
1002
{
1002
}
1002
}
1000
CAL7
1070
     9
1000
4
1002
{
1000
Class
1070
     4
1000
SYM
1002
{
1002
}
1000
Color
1070
     1
1070
     5
1002
{
1002
}
1000
LType
1070
     4
1000
BYLAYER
1002
{
1002
}
1002
}
1000
CENN
1070
     9
1000
7A
1002
{
1000
Class
1070
     4
1000
CEN
1002
{
1002
}
1000
Color
1070
     1
1070
   256
1002
{
1002
}
1000
LType
1070
     4
1000
BYLAYER
1002
{
1002
}
1002
}
1000
CENW
1070
     9
1000
7
1002
{
1000
Class
1070
     4
1000
CEN
1002
{
1002
}
1000
Color
1070
     1
1070
   256
1002
{
1002
}
1000
LType
1070
     4
1000
BYLAYER
1002
{
1002
}
1002
}
1000
CLIN
1070
     9
1000
KLIN
1002
{
1000
Class
1070
     4
1000
SPZ
1002
{
1002
}
1000
Color
1070
     1
1070
   256
1002
{
1002
}
1000
LType
1070
     4
1000
BYLAYER
1002
{
1002
}
1002
}
1000
CON1
1070
     9
1000
0
1002
{
1000
Class
1070
     4
1000
CON,BGD
1002
{
1002
}
1000
Color
1070
     1
1070
   256
1002
{
1002
}
1000
LType
1070
     4
1000
BYLAYER
1002
{
1002
}
1002
}
1000
CON2
1070
     9
1000
1
1002
{
1000
Class
1070
     4
1000
CON,BGD
1002
{
1002
}
1000
Color
1070
     1
1070
   256
1002
{
1002
}
1000
LType
1070
     4
1000
BYLAYER
1002
{
1002
}
1002
}
1000
CON3
1070
     9
1000
2
1002
{
1000
Class
1070
     4
1000
CON,BGD
1002
{
1002
}
1000
Color
1070
     1
1070
   256
1002
{
1002
}
1000
LType
1070
     4
1000
BYLAYER
1002
{
1002
}
1002
}
1000
CON4
1070
     9
1000
2
1002
{
1000
Class
1070
     4
1000
CON,BGD
1002
{
1002
}
1000
Color
1070
     1
1070
   256
1002
{
1002
}
1000
LType
1070
     4
1000
BYLAYER
1002
{
1002
}
1002
}
1000
DERP
1070
     9
1000
4
1002
{
1000
Class
1070
     4
1000

1002
{
1002
}
1000
Color
1070
     1
1070
   256
1002
{
1002
}
1000
LType
1070
     4
1000
BYLAYER
1002
{
1002
}
1002
}
1000
DETA
1070
     9
1000
4
1002
{
1000
Class
1070
     4
1000

1002
{
1002
}
1000
Color
1070
     1
1070
   256
1002
{
1002
}
1000
LType
1070
     4
1000
BYLAYER
1002
{
1002
}
1002
}
1000
DIAG
1070
     9
1000
5
1002
{
1000
Class
1070
     4
1000
SYM
1002
{
1002
}
1000
Color
1070
     1
1070
   256
1002
{
1002
}
1000
LType
1070
     4
1000
BYLAYER
1002
{
1002
}
1002
}
1000
DILI
1070
     9
1000
5
1002
{
1000
Class
1070
     4
1000
DIM,SYM
1002
{
1002
}
1000
Color
1070
     1
1070
   256
1002
{
1002
}
1000
LType
1070
     4
1000
BYLAYER
1002
{
1002
}
1002
}
1000
DITO2
1070
     9
1000
5
1002
{
1000
Class
1070
     4
1000
DIM,SYM
1002
{
1002
}
1000
Color
1070
     1
1070
     3
1002
{
1002
}
1000
LType
1070
     4
1000
BYLAYER
1002
{
1002
}
1002
}
1000
DITO3
1070
     9
1000
5
1002
{
1000
Class
1070
     4
1000
DIM,SYM
1002
{
1002
}
1000
Color
1070
     1
1070
     2
1002
{
1002
}
1000
LType
1070
     4
1000
BYLAYER
1002
{
1002
}
1002
}
1000
DITX
1070
     9
1000
5
1002
{
1000
Class
1070
     4
1000
DIM,SYM
1002
{
1002
}
1000
Color
1070
     1
1070
     2
1002
{
1002
}
1000
LType
1070
     4
1000
CONTINUOUS
1002
{
1002
}
1002
}
1000
DIXL
1070
     9
1000
5
1002
{
1000
Class
1070
     4
1000
DIM,SYM
1002
{
1002
}
1000
Color
1070
     1
1070
   256
1002
{
1002
}
1000
LType
1070
     4
1000
BYLAYER
1002
{
1002
}
1002
}
1000
EXMP
1070
     9
1000
4A
1002
{
1000
Class
1070
     4
1000

1002
{
1002
}
1000
Color
1070
     1
1070
   256
1002
{
1002
}
1000
LType
1070
     4
1000
BYLAYER
1002
{
1002
}
1002
}
1000
FEMN
1070
     9
1000
8
1002
{
1000
Class
1070
     4
1000

1002
{
1002
}
1000
Color
1070
     1
1070
   256
1002
{
1002
}
1000
LType
1070
     4
1000
BYLAYER
1002
{
1002
}
1002
}
1000
FEMPN
1070
     9
1000
8
1002
{
1000
Class
1070
     4
1000
SYM
1002
{
1002
}
1000
Color
1070
     1
1070
     3
1002
{
1002
}
1000
LType
1070
     4
1000
BYLAYER
1002
{
1002
}
1002
}
1000
FEMSP
1070
     9
1000
4A
1002
{
1000
Class
1070
     4
1000

1002
{
1002
}
1000
Color
1070
     1
1070
   256
1002
{
1002
}
1000
LType
1070
     4
1000
CONTINUOUS
1002
{
1002
}
1002
}
1000
FEMST
1070
     9
1000
4A
1002
{
1000
Class
1070
     4
1000
SYM
1002
{
1002
}
1000
Color
1070
     1
1070
     3
1002
{
1002
}
1000
LType
1070
     4
1000
BYLAYER
1002
{
1002
}
1002
}
1000
FEMVN
1070
     9
1000
2
1002
{
1000
Class
1070
     4
1000
CON
1002
{
1002
}
1000
Color
1070
     1
1070
   256
1002
{
1002
}
1000
LType
1070
     4
1000
BYLAYER
1002
{
1002
}
1002
}
1000
FEMVT
1070
     9
1000
2
1002
{
1000
Class
1070
     4
1000
SYM
1002
{
1002
}
1000
Color
1070
     1
1070
     3
1002
{
1002
}
1000
LType
1070
     4
1000
BYLAYER
1002
{
1002
}
1002
}
1000
FLAT
1070
     9
1000
0
1002
{
1000
Class
1070
     4
1000

1002
{
1002
}
1000
Color
1070
     1
1070
   256
1002
{
1002
}
1000
LType
1070
     4
1000
BYLAYER
1002
{
1002
}
1002
}
1000
FRAR
1070
     9
1000
4A
1002
{
1000
Class
1070
     4
1000

1002
{
1002
}
1000
Color
1070
     1
1070
   256
1002
{
1002
}
1000
LType
1070
     4
1000
BYLAYER
1002
{
1002
}
1002
}
1000
GRLI
1070
     9
1000
5
1002
{
1000
Class
1070
     4
1000
SYM
1002
{
1002
}
1000
Color
1070
     1
1070
   256
1002
{
1002
}
1000
LType
1070
     4
1000
BYLAYER
1002
{
1002
}
1002
}
1000
GVLI
1070
     9
1000
4A
1002
{
1000
Class
1070
     4
1000

1002
{
1002
}
1000
Color
1070
     1
1070
   256
1002
{
1002
}
1000
LType
1070
     4
1000
BYLAYER
1002
{
1002
}
1002
}
1000
HATC
1070
     9
1000
8
1002
{
1000
Class
1070
     4
1000
HTC,BGD
1002
{
1002
}
1000
Color
1070
     1
1070
   256
1002
{
1002
}
1000
LType
1070
     4
1000
BYLAYER
1002
{
1002
}
1002
}
1000
HIDN
1070
     9
1000
3A
1002
{
1000
Class
1070
     4
1000
HID,BGD
1002
{
1002
}
1000
Color
1070
     1
1070
   256
1002
{
1002
}
1000
LType
1070
     4
1000
BYLAYER
1002
{
1002
}
1002
}
1000
HIDW
1070
     9
1000
3
1002
{
1000
Class
1070
     4
1000
HID,BGD
1002
{
1002
}
1000
Color
1070
     1
1070
   256
1002
{
1002
}
1000
LType
1070
     4
1000
BYLAYER
1002
{
1002
}
1002
}
1000
HLIN
1070
     9
1000
4
1002
{
1000
Class
1070
     4
1000
BGD
1002
{
1002
}
1000
Color
1070
     1
1070
   256
1002
{
1002
}
1000
LType
1070
     4
1000
BYLAYER
1002
{
1002
}
1002
}
1000
HOCN
1070
     9
1000
7A
1002
{
1000
Class
1070
     4
1000
CEN
1002
{
1002
}
1000
Color
1070
     1
1070
   256
1002
{
1002
}
1000
LType
1070
     4
1000
BYLAYER
1002
{
1002
}
1002
}
1000
HOCW
1070
     9
1000
7
1002
{
1000
Class
1070
     4
1000
CEN
1002
{
1002
}
1000
Color
1070
     1
1070
   256
1002
{
1002
}
1000
LType
1070
     4
1000
BYLAYER
1002
{
1002
}
1002
}
1000
INFO
1070
     9
1000
INFO
1002
{
1000
Class
1070
     4
1000
SPZ,SYM
1002
{
1002
}
1000
Color
1070
     1
1070
   256
1002
{
1002
}
1000
LType
1070
     4
1000
BYLAYER
1002
{
1002
}
1002
}
1000
LADI
1070
     9
1000
4
1002
{
1000
Class
1070
     4
1000
BGD
1002
{
1002
}
1000
Color
1070
     1
1070
   256
1002
{
1002
}
1000
LType
1070
     4
1000
BYLAYER
1002
{
1002
}
1002
}
1000
LEAD
1070
     9
1000
5
1002
{
1000
Class
1070
     4
1000
SYM
1002
{
1002
}
1000
Color
1070
     1
1070
   256
1002
{
1002
}
1000
LType
1070
     4
1000
BYLAYER
1002
{
1002
}
1002
}
1000
N_ADDL
1070
     9
1000
5N
1002
{
1000
Class
1070
     4
1000
SYM
1002
{
1002
}
1000
Color
1070
     1
1070
     1
1002
{
1002
}
1000
LType
1070
     4
1000
BYLAYER
1002
{
1002
}
1002
}
1000
N_BHNV
1070
     9
1000
9N
1002
{
1000
Class
1070
     4
1000
INV
1002
{
1002
}
1000
Color
1070
     1
1070
   256
1002
{
1002
}
1000
LType
1070
     4
1000
BYLAYER
1002
{
1002
}
1002
}
1000
N_CON1
1070
     9
1000
0N
1002
{
1000
Class
1070
     4
1000
CON,BGD
1002
{
1002
}
1000
Color
1070
     1
1070
   256
1002
{
1002
}
1000
LType
1070
     4
1000
BYLAYER
1002
{
1002
}
1002
}
1000
N_CON2
1070
     9
1000
1N
1002
{
1000
Class
1070
     4
1000
CON,BGD
1002
{
1002
}
1000
Color
1070
     1
1070
   256
1002
{
1002
}
1000
LType
1070
     4
1000
BYLAYER
1002
{
1002
}
1002
}
1000
N_CON3
1070
     9
1000
2N
1002
{
1000
Class
1070
     4
1000
CON,BGD
1002
{
1002
}
1000
Color
1070
     1
1070
   256
1002
{
1002
}
1000
LType
1070
     4
1000
BYLAYER
1002
{
1002
}
1002
}
1000
N_CON4
1070
     9
1000
2N
1002
{
1000
Class
1070
     4
1000
CON,BGD
1002
{
1002
}
1000
Color
1070
     1
1070
   256
1002
{
1002
}
1000
LType
1070
     4
1000
BYLAYER
1002
{
1002
}
1002
}
1000
N_CENN
1070
     9
1000
7AN
1002
{
1000
Class
1070
     4
1000
CEN
1002
{
1002
}
1000
Color
1070
     1
1070
   256
1002
{
1002
}
1000
LType
1070
     4
1000
BYLAYER
1002
{
1002
}
1002
}
1000
N_CENW
1070
     9
1000
7N
1002
{
1000
Class
1070
     4
1000
CEN
1002
{
1002
}
1000
Color
1070
     1
1070
   256
1002
{
1002
}
1000
LType
1070
     4
1000
BYLAYER
1002
{
1002
}
1002
}
1000
N_DILI
1070
     9
1000
5N
1002
{
1000
Class
1070
     4
1000
DIM,SYM
1002
{
1002
}
1000
Color
1070
     1
1070
   256
1002
{
1002
}
1000
LType
1070
     4
1000
BYLAYER
1002
{
1002
}
1002
}
1000
N_DITX
1070
     9
1000
5N
1002
{
1000
Class
1070
     4
1000
DIM,SYM
1002
{
1002
}
1000
Color
1070
     1
1070
     2
1002
{
1002
}
1000
LType
1070
     4
1000
CONTINUOUS
1002
{
1002
}
1002
}
1000
N_DIXL
1070
     9
1000
5N
1002
{
1000
Class
1070
     4
1000
DIM,SYM
1002
{
1002
}
1000
Color
1070
     1
1070
   256
1002
{
1002
}
1000
LType
1070
     4
1000
BYLAYER
1002
{
1002
}
1002
}
1000
N_HATC
1070
     9
1000
8N
1002
{
1000
Class
1070
     4
1000
HTC,BGD
1002
{
1002
}
1000
Color
1070
     1
1070
   256
1002
{
1002
}
1000
LType
1070
     4
1000
BYLAYER
1002
{
1002
}
1002
}
1000
N_HIDN
1070
     9
1000
3AN
1002
{
1000
Class
1070
     4
1000
HID,BGD
1002
{
1002
}
1000
Color
1070
     1
1070
   256
1002
{
1002
}
1000
LType
1070
     4
1000
BYLAYER
1002
{
1002
}
1002
}
1000
N_HIDW
1070
     9
1000
3N
1002
{
1000
Class
1070
     4
1000
HID,BGD
1002
{
1002
}
1000
Color
1070
     1
1070
   256
1002
{
1002
}
1000
LType
1070
     4
1000
BYLAYER
1002
{
1002
}
1002
}
1000
N_NGIP
1070
     9
1000
IPN
1002
{
1000
Class
1070
     4
1000

1002
{
1002
}
1000
Color
1070
     1
1070
   256
1002
{
1002
}
1000
LType
1070
     4
1000
BYLAYER
1002
{
1002
}
1002
}
1000
N_PHAN
1070
     9
1000
4AN
1002
{
1000
Class
1070
     4
1000

1002
{
1002
}
1000
Color
1070
     1
1070
   256
1002
{
1002
}
1000
LType
1070
     4
1000
BYLAYER
1002
{
1002
}
1002
}
1000
N_POSL
1070
     9
1000
5N
1002
{
1000
Class
1070
     4
1000
SYM
1002
{
1002
}
1000
Color
1070
     1
1070
   256
1002
{
1002
}
1000
LType
1070
     4
1000
BYLAYER
1002
{
1002
}
1002
}
1000
N_TCON
1070
     9
1000
0N
1002
{
1000
Class
1070
     4
1000
CON,BGD
1002
{
1002
}
1000
Color
1070
     1
1070
   256
1002
{
1002
}
1000
LType
1070
     4
1000
BYLAYER
1002
{
1002
}
1002
}
1000
N_THLI
1070
     9
1000
4N
1002
{
1000
Class
1070
     4
1000
BGD
1002
{
1002
}
1000
Color
1070
     1
1070
   256
1002
{
1002
}
1000
LType
1070
     4
1000
BYLAYER
1002
{
1002
}
1002
}
1000
N_TLEN
1070
     9
1000
0N
1002
{
1000
Class
1070
     4
1000
CON,BGD
1002
{
1002
}
1000
Color
1070
     1
1070
   256
1002
{
1002
}
1000
LType
1070
     4
1000
BYLAYER
1002
{
1002
}
1002
}
1000
N_TXT3
1070
     9
1000
6N
1002
{
1000
Class
1070
     4
1000
SYM
1002
{
1002
}
1000
Color
1070
     1
1070
   256
1002
{
1002
}
1000
LType
1070
     4
1000
BYLAYER
1002
{
1002
}
1002
}
1000
N_VPLI
1070
     9
1000
2AN
1002
{
1000
Class
1070
     4
1000

1002
{
1002
}
1000
Color
1070
     1
1070
   256
1002
{
1002
}
1000
LType
1070
     4
1000
BYLAYER
1002
{
1002
}
1002
}
1000
NGIP
1070
     9
1000
IP
1002
{
1000
Class
1070
     4
1000

1002
{
1002
}
1000
Color
1070
     1
1070
   256
1002
{
1002
}
1000
LType
1070
     4
1000
BYLAYER
1002
{
1002
}
1002
}
1000
PAL2
1070
     9
1000
RAHM2
1002
{
1000
Class
1070
     4
1000
SPZ,SYM
1002
{
1002
}
1000
Color
1070
     1
1070
   256
1002
{
1002
}
1000
LType
1070
     4
1000
BYLAYER
1002
{
1002
}
1002
}
1000
PAL3
1070
     9
1000
RAHM3
1002
{
1000
Class
1070
     4
1000
SPZ,SYM
1002
{
1002
}
1000
Color
1070
     1
1070
   256
1002
{
1002
}
1000
LType
1070
     4
1000
BYLAYER
1002
{
1002
}
1002
}
1000
PAL5
1070
     9
1000
RAHM5
1002
{
1000
Class
1070
     4
1000
SPZ,SYM
1002
{
1002
}
1000
Color
1070
     1
1070
   256
1002
{
1002
}
1000
LType
1070
     4
1000
BYLAYER
1002
{
1002
}
1002
}
1000
PAL7
1070
     9
1000
RAHM5
1002
{
1000
Class
1070
     4
1000
SPZ,SYM
1002
{
1002
}
1000
Color
1070
     1
1070
     7
1002
{
1002
}
1000
LType
1070
     4
1000
CONTINUOUS
1002
{
1002
}
1002
}
1000
PHAN
1070
     9
1000
4A
1002
{
1000
Class
1070
     4
1000

1002
{
1002
}
1000
Color
1070
     1
1070
   256
1002
{
1002
}
1000
LType
1070
     4
1000
BYLAYER
1002
{
1002
}
1002
}
1000
POSL
1070
     9
1000
5
1002
{
1000
Class
1070
     4
1000
SYM
1002
{
1002
}
1000
Color
1070
     1
1070
   256
1002
{
1002
}
1000
LType
1070
     4
1000
BYLAYER
1002
{
1002
}
1002
}
1000
POSN
1070
     9
1000
6
1002
{
1000
Class
1070
     4
1000
SYM
1002
{
1002
}
1000
Color
1070
     1
1070
     7
1002
{
1002
}
1000
LType
1070
     4
1000
BYLAYER
1002
{
1002
}
1002
}
1000
POSREF
1070
     9
1000
6
1002
{
1000
Class
1070
     4
1000
SYM
1002
{
1002
}
1000
Color
1070
     1
1070
     5
1002
{
1002
}
1000
LType
1070
     4
1000
BYLAYER
1002
{
1002
}
1002
}
1000
POSX
1070
     9
1000
5
1002
{
1000
Class
1070
     4
1000
SYM
1002
{
1002
}
1000
Color
1070
     1
1070
     2
1002
{
1002
}
1000
LType
1070
     4
1000
CONTINUOUS
1002
{
1002
}
1002
}
1000
PSEC
1070
     9
1000
4A
1002
{
1000
Class
1070
     4
1000

1002
{
1002
}
1000
Color
1070
     1
1070
   256
1002
{
1002
}
1000
LType
1070
     4
1000
BYLAYER
1002
{
1002
}
1002
}
1000
RCGN
1070
     9
1000
7A
1002
{
1000
Class
1070
     4
1000
CEN
1002
{
1002
}
1000
Color
1070
     1
1070
   256
1002
{
1002
}
1000
LType
1070
     4
1000
BYLAYER
1002
{
1002
}
1002
}
1000
RCGW
1070
     9
1000
7
1002
{
1000
Class
1070
     4
1000
CEN
1002
{
1002
}
1000
Color
1070
     1
1070
   256
1002
{
1002
}
1000
LType
1070
     4
1000
BYLAYER
1002
{
1002
}
1002
}
1000
RFDI
1070
     9
1000
4
1002
{
1000
Class
1070
     4
1000
BGD
1002
{
1002
}
1000
Color
1070
     1
1070
   256
1002
{
1002
}
1000
LType
1070
     4
1000
BYLAYER
1002
{
1002
}
1002
}
1000
RQTR
1070
     9
1000
4
1002
{
1000
Class
1070
     4
1000

1002
{
1002
}
1000
Color
1070
     1
1070
     7
1002
{
1002
}
1000
LType
1070
     4
1000
GEN7A
1002
{
1002
}
1002
}
1000
RSBO
1070
     9
1000
4
1002
{
1000
Class
1070
     4
1000
BGD
1002
{
1002
}
1000
Color
1070
     1
1070
   256
1002
{
1002
}
1000
LType
1070
     4
1000
BYLAYER
1002
{
1002
}
1002
}
1000
SBRK
1070
     9
1000
4
1002
{
1000
Class
1070
     4
1000
BGD
1002
{
1002
}
1000
Color
1070
     1
1070
   256
1002
{
1002
}
1000
LType
1070
     4
1000
BYLAYER
1002
{
1002
}
1002
}
1000
SCEN
1070
     9
1000
7
1002
{
1000
Class
1070
     4
1000

1002
{
1002
}
1000
Color
1070
     1
1070
   256
1002
{
1002
}
1000
LType
1070
     4
1000
CONTINUOUS
1002
{
1002
}
1002
}
1000
SECT
1070
     9
1000
4
1002
{
1000
Class
1070
     4
1000
BGD
1002
{
1002
}
1000
Color
1070
     1
1070
   256
1002
{
1002
}
1000
LType
1070
     4
1000
BYLAYER
1002
{
1002
}
1002
}
1000
SELN
1070
     9
1000
7A
1002
{
1000
Class
1070
     4
1000

1002
{
1002
}
1000
Color
1070
     1
1070
   256
1002
{
1002
}
1000
LType
1070
     4
1000
BYLAYER
1002
{
1002
}
1002
}
1000
SELW
1070
     9
1000
7
1002
{
1000
Class
1070
     4
1000

1002
{
1002
}
1000
Color
1070
     1
1070
   256
1002
{
1002
}
1000
LType
1070
     4
1000
BYLAYER
1002
{
1002
}
1002
}
1000
SSYS
1070
     9
1000
0
1002
{
1000
Class
1070
     4
1000

1002
{
1002
}
1000
Color
1070
     1
1070
   256
1002
{
1002
}
1000
LType
1070
     4
1000
BYLAYER
1002
{
1002
}
1002
}
1000
STLI
1070
     9
1000
4
1002
{
1000
Class
1070
     4
1000

1002
{
1002
}
1000
Color
1070
     1
1070
     7
1002
{
1002
}
1000
LType
1070
     4
1000
GEN3A
1002
{
1002
}
1002
}
1000
SYB1
1070
     9
1000
5
1002
{
1000
Class
1070
     4
1000
SYM
1002
{
1002
}
1000
Color
1070
     1
1070
   256
1002
{
1002
}
1000
LType
1070
     4
1000
BYLAYER
1002
{
1002
}
1002
}
1000
SYB2
1070
     9
1000
5
1002
{
1000
Class
1070
     4
1000
SYM
1002
{
1002
}
1000
Color
1070
     1
1070
   256
1002
{
1002
}
1000
LType
1070
     4
1000
BYLAYER
1002
{
1002
}
1002
}
1000
SYB3
1070
     9
1000
6
1002
{
1000
Class
1070
     4
1000
SYM
1002
{
1002
}
1000
Color
1070
     1
1070
   256
1002
{
1002
}
1000
LType
1070
     4
1000
CONTINUOUS
1002
{
1002
}
1002
}
1000
SYB5
1070
     9
1000
5
1002
{
1000
Class
1070
     4
1000
SYM
1002
{
1002
}
1000
Color
1070
     1
1070
     7
1002
{
1002
}
1000
LType
1070
     4
1000
BYLAYER
1002
{
1002
}
1002
}
1000
SYMN
1070
     9
1000
7A
1002
{
1000
Class
1070
     4
1000
CEN
1002
{
1002
}
1000
Color
1070
     1
1070
   256
1002
{
1002
}
1000
LType
1070
     4
1000
BYLAYER
1002
{
1002
}
1002
}
1000
SYMW
1070
     9
1000
7
1002
{
1000
Class
1070
     4
1000
CEN
1002
{
1002
}
1000
Color
1070
     1
1070
   256
1002
{
1002
}
1000
LType
1070
     4
1000
BYLAYER
1002
{
1002
}
1002
}
1000
TCON
1070
     9
1000
0
1002
{
1000
Class
1070
     4
1000
CON,BGD
1002
{
1002
}
1000
Color
1070
     1
1070
   256
1002
{
1002
}
1000
LType
1070
     4
1000
BYLAYER
1002
{
1002
}
1002
}
1000
THLI
1070
     9
1000
4
1002
{
1000
Class
1070
     4
1000
BGD
1002
{
1002
}
1000
Color
1070
     1
1070
   256
1002
{
1002
}
1000
LType
1070
     4
1000
BYLAYER
1002
{
1002
}
1002
}
1000
TIT2
1070
     9
1000
RAHM2
1002
{
1000
Class
1070
     4
1000
SPZ,SYM
1002
{
1002
}
1000
Color
1070
     1
1070
   256
1002
{
1002
}
1000
LType
1070
     4
1000
BYLAYER
1002
{
1002
}
1002
}
1000
TIT3
1070
     9
1000
RAHM3
1002
{
1000
Class
1070
     4
1000
SPZ,SYM
1002
{
1002
}
1000
Color
1070
     1
1070
   256
1002
{
1002
}
1000
LType
1070
     4
1000
BYLAYER
1002
{
1002
}
1002
}
1000
TIT5
1070
     9
1000
RAHM5
1002
{
1000
Class
1070
     4
1000
SPZ,SYM
1002
{
1002
}
1000
Color
1070
     1
1070
   256
1002
{
1002
}
1000
LType
1070
     4
1000
BYLAYER
1002
{
1002
}
1002
}
1000
TIT7
1070
     9
1000
RAHM5
1002
{
1000
Class
1070
     4
1000
SPZ,SYM
1002
{
1002
}
1000
Color
1070
     1
1070
     7
1002
{
1002
}
1000
LType
1070
     4
1000
CONTINUOUS
1002
{
1002
}
1002
}
1000
TLEN
1070
     9
1000
0
1002
{
1000
Class
1070
     4
1000
CON,BGD
1002
{
1002
}
1000
Color
1070
     1
1070
   256
1002
{
1002
}
1000
LType
1070
     4
1000
BYLAYER
1002
{
1002
}
1002
}
1000
TRKN
1070
     9
1000
7A
1002
{
1000
Class
1070
     4
1000

1002
{
1002
}
1000
Color
1070
     1
1070
   256
1002
{
1002
}
1000
LType
1070
     4
1000
BYLAYER
1002
{
1002
}
1002
}
1000
TRKW
1070
     9
1000
7
1002
{
1000
Class
1070
     4
1000

1002
{
1002
}
1000
Color
1070
     1
1070
   256
1002
{
1002
}
1000
LType
1070
     4
1000
BYLAYER
1002
{
1002
}
1002
}
1000
TRLI
1070
     9
1000
4
1002
{
1000
Class
1070
     4
1000
BGD
1002
{
1002
}
1000
Color
1070
     1
1070
   256
1002
{
1002
}
1000
LType
1070
     4
1000
BYLAYER
1002
{
1002
}
1002
}
1000
TXT1
1070
     9
1000
6
1002
{
1000
Class
1070
     4
1000
SYM
1002
{
1002
}
1000
Color
1070
     1
1070
     2
1002
{
1002
}
1000
LType
1070
     4
1000
BYLAYER
1002
{
1002
}
1002
}
1000
TXT2
1070
     9
1000
6
1002
{
1000
Class
1070
     4
1000
SYM
1002
{
1002
}
1000
Color
1070
     1
1070
     2
1002
{
1002
}
1000
LType
1070
     4
1000
BYLAYER
1002
{
1002
}
1002
}
1000
TXT3
1070
     9
1000
6
1002
{
1000
Class
1070
     4
1000
SYM
1002
{
1002
}
1000
Color
1070
     1
1070
   256
1002
{
1002
}
1000
LType
1070
     4
1000
BYLAYER
1002
{
1002
}
1002
}
1000
TXT5
1070
     9
1000
6
1002
{
1000
Class
1070
     4
1000
SYM
1002
{
1002
}
1000
Color
1070
     1
1070
     7
1002
{
1002
}
1000
LType
1070
     4
1000
BYLAYER
1002
{
1002
}
1002
}
1000
TXT7
1070
     9
1000
6
1002
{
1000
Class
1070
     4
1000
SYM
1002
{
1002
}
1000
Color
1070
     1
1070
     7
1002
{
1002
}
1000
LType
1070
     4
1000
BYLAYER
1002
{
1002
}
1002
}
1000
VIEW
1070
     9
1000
VIEW
1002
{
1000
Class
1070
     4
1000
SPZ
1002
{
1002
}
1000
Color
1070
     1
1070
   256
1002
{
1002
}
1000
LType
1070
     4
1000
BYLAYER
1002
{
1002
}
1002
}
1000
VPLI
1070
     9
1000
2A
1002
{
1000
Class
1070
     4
1000

1002
{
1002
}
1000
Color
1070
     1
1070
   256
1002
{
1002
}
1000
LType
1070
     4
1000
BYLAYER
1002
{
1002
}
1002
}
1000
ZIZA
1070
     9
1000
4
1002
{
1000
Class
1070
     4
1000
BGD
1002
{
1002
}
1000
Color
1070
     1
1070
   256
1002
{
1002
}
1000
LType
1070
     4
1000
GENZIGZAG
1002
{
1002
}
1002
}
  0
APPID
  5
368
330
9
100
AcDbSymbolTableRecord
100
AcDbRegAppTableRecord
  2
GENIUS_GENCFG4_13
 70
     0
1001
GENIUS_GENCFG_13
1071
939720540
1000
368
1000
GEN
1070
    12
1000
GenCfgObject
1000
GenCfgShort
1000
GenCfgReal
1000
GenCfgBool
1000
GenCfgString
1000
GenCfgDim
1000
GenCfgAttrInf
1000
GenCfgLaySection
1000
GenCfgLayer
1000
GenCfgEntSort
1000
GenCfgLType
1000
GenCfgFilter
1000
Balloon
1070
     0
1002
{
1000
GenIF
1070
     1
1070
     0
1002
{
1002
}
1000
GenPosInc
1070
     1
1070
     1
1002
{
1002
}
1000
GenPosBlk
1070
     1
1070
     8
1002
{
1002
}
1000
GenPosVar
1070
     1
1070
     0
1002
{
1002
}
1000
GenZiCir
1070
     2
1040
1.5
1002
{
1002
}
1000
MaxCharForCenteredText
1070
     1
1070
    30
1002
{
1002
}
1000
Snap
1070
     0
1002
{
1000
ActivationRadius
1070
     2
1040
1.0
1002
{
1002
}
1000
M
1070
     0
1002
{
1000
SnapStepX
1070
     2
1040
20.0
1002
{
1002
}
1000
SnapStepY
1070
     2
1040
10.0
1002
{
1002
}
1002
}
1000
I
1070
     0
1002
{
1000
SnapStepX
1070
     2
1040
1.0
1002
{
1002
}
1000
SnapStepY
1070
     2
1040
0.5
1002
{
1002
}
1002
}
1002
}
1002
}
1000
Centerline
1070
     0
1002
{
1000
ScaleNot
1070
     3
1070
     0
1002
{
1002
}
1000
M
1070
     0
1002
{
1000
GenCenAng
1070
     4
1000
45|90|135
1002
{
1002
}
1000
GenCenDia
1070
     2
1040
10.0
1002
{
1002
}
1000
GenCenDias
1070
     4
1000
5
1002
{
1002
}
1000
GenCenDist
1070
     2
1040
3.0
1002
{
1002
}
1000
GenCenLen
1070
     2
1040
5.0
1002
{
1002
}
1000
GenCenOff
1070
     2
1040
10.0
1002
{
1002
}
1002
}
1000
I
1070
     0
1002
{
1000
GenCenAng
1070
     4
1000
45|90|135
1002
{
1002
}
1000
GenCenDia
1070
     2
1040
0.5
1002
{
1002
}
1000
GenCenDias
1070
     4
1000
0.5|1.0|1.5
1002
{
1002
}
1000
GenCenDist
1070
     2
1040
0.125
1002
{
1002
}
1000
GenCenLen
1070
     2
1040
0.5
1002
{
1002
}
1000
GenCenOff
1070
     2
1040
0.5
1002
{
1002
}
1002
}
1002
}
1000
CLine
1070
     0
1002
{
1000
CAngArray
1070
     4
1000
30|45|60
1002
{
1002
}
1000
Typ
1070
     4
1000
XLINE
1002
{
1002
}
1000
M
1070
     0
1002
{
1000
CLinArray
1070
     4
1000
.3
1002
{
1002
}
1002
}
1000
I
1070
     0
1002
{
1000
CLinArray
1070
     4
1000
0.125|0.25|0.5
1002
{
1002
}
1002
}
1002
}
1000
Detail
1070
     0
1002
{
1002
}
1000
Dimension
1070
     5
1002
{
1000
DIMALT
1070
     1
1070
     0
1002
{
1002
}
1000
DIMALTD
1070
     1
1070
     2
1002
{
1002
}
1000
DIMALTTD
1070
     1
1070
     4
1002
{
1002
}
1000
DIMALTTZ
1070
     1
1070
     0
1002
{
1002
}
1000
DIMALTU
1070
     1
1070
     2
1002
{
1002
}
1000
DIMALTZ
1070
     1
1070
     0
1002
{
1002
}
1000
DIMAUNIT
1070
     1
1070
     0
1002
{
1002
}
1000
DIMBLK
1070
     4
1000

1002
{
1002
}
1000
DIMBLK1
1070
     4
1000

1002
{
1002
}
1000
DIMBLK2
1070
     4
1000

1002
{
1002
}
1000
DIMCLRD
1070
     1
1070
   256
1002
{
1002
}
1000
DIMCLRE
1070
     1
1070
   256
1002
{
1002
}
1000
DIMCLRT
1070
     1
1070
     2
1002
{
1002
}
1000
DIMDLE
1070
     2
1040
0.0
1002
{
1002
}
1000
DIMFIT
1070
     1
1070
     3
1002
{
1002
}
1000
DIMJUST
1070
     1
1070
     0
1002
{
1002
}
1000
DIMLFAC
1070
     2
1040
2.0
1002
{
1002
}
1000
DIMLIM
1070
     1
1070
     0
1002
{
1002
}
1000
DIMPOST
1070
     4
1000
<>
1002
{
1002
}
1000
DIMRND
1070
     2
1040
0.0
1002
{
1002
}
1000
DIMSAH
1070
     1
1070
     0
1002
{
1002
}
1000
DIMSCALE
1070
     2
1040
1.0
1002
{
1002
}
1000
DIMSD1
1070
     1
1070
     0
1002
{
1002
}
1000
DIMSD2
1070
     1
1070
     0
1002
{
1002
}
1000
DIMSE1
1070
     1
1070
     0
1002
{
1002
}
1000
DIMSE2
1070
     1
1070
     0
1002
{
1002
}
1000
DIMSOXD
1070
     1
1070
     0
1002
{
1002
}
1000
DIMTAD
1070
     1
1070
     1
1002
{
1002
}
1000
DIMTFAC
1070
     2
1040
0.71
1002
{
1002
}
1000
DIMTIH
1070
     1
1070
     0
1002
{
1002
}
1000
DIMTIX
1070
     1
1070
     0
1002
{
1002
}
1000
DIMTM
1070
     2
1040
0.1
1002
{
1002
}
1000
DIMTOFL
1070
     1
1070
     0
1002
{
1002
}
1000
DIMTOH
1070
     1
1070
     0
1002
{
1002
}
1000
DIMTOL
1070
     1
1070
     0
1002
{
1002
}
1000
DIMTOLJ
1070
     1
1070
     1
1002
{
1002
}
1000
DIMTP
1070
     2
1040
0.1
1002
{
1002
}
1000
DIMTSZ
1070
     2
1040
0.0
1002
{
1002
}
1000
DIMTVP
1070
     2
1040
0.0
1002
{
1002
}
1000
DIMTXSTY
1070
     4
1000
STANDARD
1002
{
1002
}
1000
DIMTZIN
1070
     1
1070
     0
1002
{
1002
}
1000
DIMUNIT
1070
     1
1070
     2
1002
{
1002
}
1000
DIMUPT
1070
     1
1070
     0
1002
{
1002
}
1000
M
1070
     0
1002
{
1000
DIMALTF
1070
     2
1040
0.0393701
1002
{
1002
}
1000
DIMAPOST
1070
     4
1000
"
1002
{
1002
}
1000
DIMASZ
1070
     2
1040
3.0
1002
{
1002
}
1000
DIMCEN
1070
     2
1040
0.0
1002
{
1002
}
1000
DIMDEC
1070
     1
1070
     2
1002
{
1002
}
1000
DIMDLI
1070
     2
1040
10.0
1002
{
1002
}
1000
DIMEXE
1070
     2
1040
1.0
1002
{
1002
}
1000
DIMEXO
1070
     2
1040
0.0
1002
{
1002
}
1000
DIMGAP
1070
     2
1040
1.0
1002
{
1002
}
1000
DIMTDEC
1070
     1
1070
     3
1002
{
1002
}
1000
DIMTXT
1070
     2
1040
3.5
1002
{
1002
}
1000
DIMZIN
1070
     1
1070
     8
1002
{
1002
}
1002
}
1000
I
1070
     0
1002
{
1000
DIMALTF
1070
     2
1040
25.4
1002
{
1002
}
1000
DIMAPOST
1070
     4
1000
mm
1002
{
1002
}
1000
DIMASZ
1070
     2
1040
0.1
1002
{
1002
}
1000
DIMCEN
1070
     2
1040
0.0
1002
{
1002
}
1000
DIMDEC
1070
     1
1070
     4
1002
{
1002
}
1000
DIMDLI
1070
     2
1040
0.5
1002
{
1002
}
1000
DIMEXE
1070
     2
1040
0.1
1002
{
1002
}
1000
DIMEXO
1070
     2
1040
0.05
1002
{
1002
}
1000
DIMGAP
1070
     2
1040
0.06
1002
{
1002
}
1000
DIMTDEC
1070
     1
1070
     4
1002
{
1002
}
1000
DIMTXT
1070
     2
1040
0.12
1002
{
1002
}
1000
DIMZIN
1070
     1
1070
     7
1002
{
1002
}
1002
}
1000
GEN-ISO
1070
     5
1002
{
1000
NAME
1070
     4
1000
GEN-ISO
1002
{
1002
}
1000
DIMTOLJ
1070
     1
1070
     0
1002
{
1002
}
1000
DIMTOFL
1070
     1
1070
     1
1002
{
1002
}
1000
M
1070
     0
1002
{
1002
}
1000
I
1070
     0
1002
{
1002
}
1002
}
1000
GEN-ISO-POS
1070
     5
1002
{
1000
NAME
1070
     4
1000
GEN-ISO-POS
1002
{
1002
}
1000
DIMTOLJ
1070
     1
1070
     0
1002
{
1002
}
1000
DIMTXSTY
1070
     4
1000
STANDARD
1002
{
1002
}
1000
M
1070
     0
1002
{
1000
DIMASZ
1070
     2
1040
2.5
1002
{
1002
}
1000
DIMGAP
1070
     2
1040
1.5
1002
{
1002
}
1000
DIMTXT
1070
     2
1040
5.0
1002
{
1002
}
1002
}
1000
I
1070
     0
1002
{
1000
DIMASZ
1070
     2
1040
0.1
1002
{
1002
}
1000
DIMGAP
1070
     2
1040
0.06
1002
{
1002
}
1000
DIMTXT
1070
     2
1040
0.2
1002
{
1002
}
1002
}
1002
}
1000
GEN-ISO-CIR
1070
     5
1002
{
1000
NAME
1070
     4
1000
GEN-ISO$3
1002
{
1002
}
1000
DIMFIT
1070
     1
1070
     0
1002
{
1002
}
1000
DIMTOLJ
1070
     1
1070
     0
1002
{
1002
}
1000
DIMUPT
1070
     1
1070
     1
1002
{
1002
}
1000
M
1070
     0
1002
{
1002
}
1000
I
1070
     0
1002
{
1002
}
1000
DIMTAD
1070
     1
1070
     1
1002
{
1002
}
1002
}
1000
GEN-ISO-RAD
1070
     5
1002
{
1000
NAME
1070
     4
1000
GEN-ISO$4
1002
{
1002
}
1000
DIMFIT
1070
     1
1070
     0
1002
{
1002
}
1000
DIMTOH
1070
     1
1070
     1
1002
{
1002
}
1000
DIMTOLJ
1070
     1
1070
     0
1002
{
1002
}
1000
DIMUPT
1070
     1
1070
     1
1002
{
1002
}
1000
M
1070
     0
1002
{
1002
}
1000
I
1070
     0
1002
{
1002
}
1002
}
1000
GEN-ISO-ORD
1070
     5
1002
{
1000
NAME
1070
     4
1000
GEN-ISO$6
1002
{
1002
}
1000
DIMTOLJ
1070
     1
1070
     0
1002
{
1002
}
1000
M
1070
     0
1002
{
1002
}
1000
I
1070
     0
1002
{
1002
}
1002
}
1000
GEN-ISO-AXE-F
1070
     5
1002
{
1000
NAME
1070
     4
1000
GEN-ISO-AXE-F
1002
{
1002
}
1000
DIMSE1
1070
     1
1070
     1
1002
{
1002
}
1000
DIMSE2
1070
     1
1070
     1
1002
{
1002
}
1000
DIMTOLJ
1070
     1
1070
     0
1002
{
1002
}
1000
DIMTOFL
1070
     1
1070
     1
1002
{
1002
}
1000
M
1070
     0
1002
{
1002
}
1000
I
1070
     0
1002
{
1002
}
1000
DIMTAD
1070
     1
1070
     1
1002
{
1002
}
1002
}
1000
GEN-ISO-AXE-H
1070
     5
1002
{
1000
NAME
1070
     4
1000
GEN-ISO-AXE-H
1002
{
1002
}
1000
DIMBLK1
1070
     4
1000
GENAXEH
1002
{
1002
}
1000
DIMLFAC
1070
     2
1040
2.0
1002
{
1002
}
1000
DIMSAH
1070
     1
1070
     1
1002
{
1002
}
1000
DIMSE1
1070
     1
1070
     1
1002
{
1002
}
1000
DIMSE2
1070
     1
1070
     1
1002
{
1002
}
1000
DIMTAD
1070
     1
1070
     1
1002
{
1002
}
1000
DIMTOLJ
1070
     1
1070
     0
1002
{
1002
}
1000
DIMTOFL
1070
     1
1070
     1
1002
{
1002
}
1000
M
1070
     0
1002
{
1002
}
1000
I
1070
     0
1002
{
1002
}
1002
}
1000
GEN-ANSI
1070
     5
1002
{
1000
NAME
1070
     4
1000
GEN-ANSI
1002
{
1002
}
1000
DIMTIH
1070
     1
1070
     1
1002
{
1002
}
1000
DIMTOH
1070
     1
1070
     1
1002
{
1002
}
1000
DIMTAD
1070
     1
1070
     0
1002
{
1002
}
1000
DIMTOLJ
1070
     1
1070
     1
1002
{
1002
}
1000
M
1070
     0
1002
{
1002
}
1000
I
1070
     0
1002
{
1002
}
1002
}
1000
GEN-ANSI-POS
1070
     5
1002
{
1000
NAME
1070
     4
1000
GEN-ANSI-POS
1002
{
1002
}
1000
DIMTOLJ
1070
     1
1070
     1
1002
{
1002
}
1000
DIMTXSTY
1070
     4
1000
STANDARD
1002
{
1002
}
1000
M
1070
     0
1002
{
1000
DIMASZ
1070
     2
1040
2.5
1002
{
1002
}
1000
DIMGAP
1070
     2
1040
1.5
1002
{
1002
}
1000
DIMTXT
1070
     2
1040
5.0
1002
{
1002
}
1002
}
1000
I
1070
     0
1002
{
1000
DIMASZ
1070
     2
1040
0.1
1002
{
1002
}
1000
DIMGAP
1070
     2
1040
0.06
1002
{
1002
}
1000
DIMTXT
1070
     2
1040
0.2
1002
{
1002
}
1002
}
1002
}
1000
GEN-ANSI-CIR
1070
     5
1002
{
1000
NAME
1070
     4
1000
GEN-ANSI$3
1002
{
1002
}
1000
DIMFIT
1070
     1
1070
     0
1002
{
1002
}
1000
DIMTAD
1070
     1
1070
     0
1002
{
1002
}
1000
DIMTIH
1070
     1
1070
     1
1002
{
1002
}
1000
DIMTIX
1070
     1
1070
     0
1002
{
1002
}
1000
DIMTOFL
1070
     1
1070
     0
1002
{
1002
}
1000
DIMTOH
1070
     1
1070
     1
1002
{
1002
}
1000
DIMTOLJ
1070
     1
1070
     1
1002
{
1002
}
1000
DIMUPT
1070
     1
1070
     1
1002
{
1002
}
1000
M
1070
     0
1002
{
1002
}
1000
I
1070
     0
1002
{
1002
}
1002
}
1000
GEN-ANSI-RAD
1070
     5
1002
{
1000
NAME
1070
     4
1000
GEN-ANSI$4
1002
{
1002
}
1000
DIMFIT
1070
     1
1070
     0
1002
{
1002
}
1000
DIMTAD
1070
     1
1070
     0
1002
{
1002
}
1000
DIMTIH
1070
     1
1070
     1
1002
{
1002
}
1000
DIMTIX
1070
     1
1070
     0
1002
{
1002
}
1000
DIMTOFL
1070
     1
1070
     0
1002
{
1002
}
1000
DIMTOH
1070
     1
1070
     1
1002
{
1002
}
1000
DIMTOLJ
1070
     1
1070
     1
1002
{
1002
}
1000
DIMUPT
1070
     1
1070
     1
1002
{
1002
}
1000
M
1070
     0
1002
{
1002
}
1000
I
1070
     0
1002
{
1002
}
1002
}
1000
GEN-ANSI-ORD
1070
     5
1002
{
1000
NAME
1070
     4
1000
GEN-ANSI$6
1002
{
1002
}
1000
DIMTAD
1070
     1
1070
     0
1002
{
1002
}
1000
DIMTIH
1070
     1
1070
     1
1002
{
1002
}
1000
DIMTOH
1070
     1
1070
     1
1002
{
1002
}
1000
DIMTOLJ
1070
     1
1070
     1
1002
{
1002
}
1000
M
1070
     0
1002
{
1002
}
1000
I
1070
     0
1002
{
1002
}
1002
}
1000
GEN-ANSI-AXE-F
1070
     5
1002
{
1000
NAME
1070
     4
1000
GEN-ANSI-AXE-F
1002
{
1002
}
1000
DIMBLK1
1070
     4
1000
GENAXEH
1002
{
1002
}
1000
DIMSAH
1070
     1
1070
     1
1002
{
1002
}
1000
DIMSE1
1070
     1
1070
     1
1002
{
1002
}
1000
DIMSE2
1070
     1
1070
     1
1002
{
1002
}
1000
DIMTAD
1070
     1
1070
     0
1002
{
1002
}
1000
DIMTIH
1070
     1
1070
     1
1002
{
1002
}
1000
DIMTOH
1070
     1
1070
     1
1002
{
1002
}
1000
DIMTOLJ
1070
     1
1070
     1
1002
{
1002
}
1000
M
1070
     0
1002
{
1002
}
1000
I
1070
     0
1002
{
1002
}
1002
}
1000
GEN-ANSI-AXE-H
1070
     5
1002
{
1000
NAME
1070
     4
1000
GEN-ANSI-AXE-H
1002
{
1002
}
1000
DIMBLK1
1070
     4
1000
GENAXEH
1002
{
1002
}
1000
DIMLFAC
1070
     2
1040
2.0
1002
{
1002
}
1000
DIMSAH
1070
     1
1070
     1
1002
{
1002
}
1000
DIMSE1
1070
     1
1070
     1
1002
{
1002
}
1000
DIMSE2
1070
     1
1070
     1
1002
{
1002
}
1000
DIMTAD
1070
     1
1070
     0
1002
{
1002
}
1000
DIMTOFL
1070
     1
1070
     1
1002
{
1002
}
1000
DIMTOLJ
1070
     1
1070
     1
1002
{
1002
}
1000
M
1070
     0
1002
{
1002
}
1000
I
1070
     0
1002
{
1002
}
1002
}
1002
}
1000
DimSet
1070
     0
1002
{
1000
ChainSum
1070
     3
1070
     0
1002
{
1002
}
1000
DIMDCLTYP0
1070
     4
1000
dim23
1002
{
1002
}
1000
HorBra
1070
     3
1070
     0
1002
{
1002
}
1000
StrDia
1070
     4
1000
%%c<>
1002
{
1002
}
1000
StrRad
1070
     4
1000
R<>
1002
{
1002
}
1000
TextMinus
1070
     4
1000
<>
1002
{
1002
}
1000
TextPlus
1070
     4
1000
<>
1002
{
1002
}
1000
M
1070
     0
1002
{
1000
DimdliFirst
1070
     2
1040
10.0
1002
{
1002
}
1000
PointMakeDist
1070
     2
1040
10.0
1002
{
1002
}
1002
}
1000
I
1070
     0
1002
{
1000
DimdliFirst
1070
     2
1040
0.5
1002
{
1002
}
1000
PointMakeDist
1070
     2
1040
0.5
1002
{
1002
}
1002
}
1000
FitGrade
1070
     4
1000
h7
1002
{
1002
}
1002
}
1000
Drawing
1070
     0
1002
{
1000
ChamferDimMode
1070
     1
1070
     2
1002
{
1002
}
1000
Gen_Fiso
1070
    -3
1040
1.0
1002
{
1002
}
1000
GenDimStil
1070
     4
1000
ISO
1002
{
1002
}
1000
GenDwgUScale
1070
     2
1040
1.0
1002
{
1002
}
1000
GenInch
1070
     4
1000
M
1002
{
1002
}
1000
GenPlotScale
1070
     4
1000
1:1
1002
{
1002
}
1000
Revisi
1070
     4
1000
0
1002
{
1002
}
1000
Version
1070
    -5
1000
14.01a/Sep 23 1998
1002
{
1002
}
1000
Platform
1070
    -5
1000
WINNT
1002
{
1002
}
1002
}
1000
DwgVar
1070
     0
1002
{
1000
M
1070
     0
1002
{
1002
}
1000
I
1070
     0
1002
{
1002
}
1002
}
1000
Hatch
1070
     0
1002
{
1000
GenHtcFlag
1070
     3
1070
     0
1002
{
1002
}
1002
}
1000
Info_Pos
1070
     0
1002
{
1000
>
1002
}
1000
Layer
1070
     7
1002
{
1000
Defs
1070
     0
1002
{
1000
>
1002
}
1000
EntSort
1070
     0
1002
{
1000
>
1002
}
1000
Match
1070
     0
1002
{
1002
}
1000
Settings
1070
     0
1002
{
1000
FocGrNC
1070
     3
1070
     0
1002
{
1002
}
1000
FocGrLo
1070
     3
1070
     0
1002
{
1002
}
1000
FocLoNC
1070
     3
1070
     0
1002
{
1002
}
1000
FocusCol
1070
     1
1070
   253
1002
{
1002
}
1000
GenStdLG
1070
     4
1000

1002
{
1002
}
1000
LayMatch
1070
     3
1070
     0
1002
{
1002
}
1000
LgOff
1070
     3
1070
     0
1002
{
1002
}
1000
CurLG
1070
    -5
1000

1002
{
1002
}
1002
}
1002
}
1000
LType
1070
     0
1002
{
1000
GEN3
1070
    10
1000
genius.lin
1002
{
1002
}
1000
GEN7
1070
    10
1000
genius.lin
1002
{
1002
}
1000
GEN4A
1070
    10
1000
genius.lin
1002
{
1002
}
1000
GEN3A
1070
    10
1000
genius.lin
1002
{
1002
}
1000
GEN7A
1070
    10
1000
genius.lin
1002
{
1002
}
1000
GENZIGZAG
1070
    10
1000
genius.lin
1002
{
1002
}
1002
}
1000
Objecter
1070
     0
1002
{
1000
CreateGroups
1070
     3
1070
     0
1002
{
1002
}
1000
LaySwitch
1070
     3
1070
     1
1002
{
1002
}
1000
LastObj
1070
    -5
1000
0
1002
{
1002
}
1000
TimeStamp
1070
    -5
1000
19991012.11285274
1002
{
1002
}
1002
}
1000
OSWiz
1070
     0
1002
{
1000
Filter
1070
     0
1002
{
1000
HATCH
1070
    11
1002
{
1000
EntityType
1070
     4
1000
LINE
1002
{
1002
}
1000
Layer
1070
     4
1000
8,8N,*-8,*-8N
1002
{
1002
}
1000
Linetype
1070
     4
1000
*
1002
{
1002
}
1000
Color
1070
     4
1000
*
1002
{
1002
}
1000
ApplyInDims
1070
     3
1070
     1
1002
{
1002
}
1002
}
1000
SYMBOLS
1070
    11
1002
{
1000
EntityType
1070
     4
1000
*
1002
{
1002
}
1000
Layer
1070
     4
1000
[5-6],[5-6]N,*-[5-6],*-[5-6]N,AM_PARDIM,AM_REFDIM
1002
{
1002
}
1000
Linetype
1070
     4
1000
*
1002
{
1002
}
1000
Color
1070
     4
1000
*
1002
{
1002
}
1000
ApplyInDims
1070
     3
1070
     1
1002
{
1002
}
1002
}
1000
FEM
1070
    11
1002
{
1000
EntityType
1070
     4
1000
*
1002
{
1002
}
1000
Layer
1070
     4
1000
4A,4AN,*-4A,*-4AN
1002
{
1002
}
1000
Linetype
1070
     4
1000
*
1002
{
1002
}
1000
Color
1070
     4
1000
*
1002
{
1002
}
1000
ApplyInDims
1070
     3
1070
     1
1002
{
1002
}
1002
}
1002
}
1002
}
1000
PaList
1070
     0
1002
{
1000
AcadMBomWarning
1070
     3
1070
     1
1002
{
1002
}
1000
AutoUpdatePartList
1070
     1
1070
     0
1002
{
1002
}
1000
ReadInfoPoint
1070
     3
1070
     0
1002
{
1002
}
1000
ReadPosNr
1070
     3
1070
     1
1002
{
1002
}
1000
RevStr
1070
     4
1000
0
1002
{
1002
}
1002
}
1000
Paper
1070
     0
1002
{
1002
}
1000
PartDB
1070
     0
1002
{
1000
GenDbOwner
1070
     4
1000

1002
{
1002
}
1002
}
1000
System
1070
     0
1002
{
1000
Menu
1070
     4
1000
GEV
1002
{
1002
}
1002
}
1000
Title
1070
     0
1002
{
1000
MakeView
1070
     1
1070
     2
1002
{
1002
}
1002
}
1000
Tools
1070
     0
1002
{
1000
Trans
1070
     0
1002
{
1000
Drawingtranslation
1070
    -4
1070
     1
1002
{
1002
}
1000
upreserve
1070
     3
1070
     0
1002
{
1002
}
1000
originally_on
1070
    -4
1070
     0
1002
{
1002
}
1000
sourcelang
1070
    -5
1000
d
1002
{
1002
}
1002
}
1002
}
  0
APPID
  5
372
330
9
100
AcDbSymbolTableRecord
100
AcDbRegAppTableRecord
  2
MCAD_NO_VIS
 70
     0
  0
APPID
  5
373
330
9
100
AcDbSymbolTableRecord
100
AcDbRegAppTableRecord
  2
ACAD_TEMP_GRAPHIC
 70
     0
  0
APPID
  5
3B8
330
9
100
AcDbSymbolTableRecord
100
AcDbRegAppTableRecord
  2
AD_DRAW
 70
     0
  0
APPID
  5
3D3
330
9
100
AcDbSymbolTableRecord
100
AcDbRegAppTableRecord
  2
DESIGNERASSEMBLIES
 70
     0
  0
APPID
  5
413
330
9
100
AcDbSymbolTableRecord
100
AcDbRegAppTableRecord
  2
ASURF_PCURVE_APPNAME
 70
     0
  0
APPID
  5
454
330
9
100
AcDbSymbolTableRecord
100
AcDbRegAppTableRecord
  2
GEV_VCCNULL_SWITCH_OFF
 70
     0
  0
APPID
  5
460
330
9
100
AcDbSymbolTableRecord
100
AcDbRegAppTableRecord
  2
GENIUS_GENDTOL_13
 70
     0
  0
APPID
  5
46D
330
9
100
AcDbSymbolTableRecord
100
AcDbRegAppTableRecord
  2
GENIUS_GE3CFG0_13
 70
     0
1001
GENIUS_GENCFG_13
1071
939720540
1000
46D
1000
GE3
1070
     2
1000
GenCfgObject
1000
GenCfgShort
1000
Dimension
1070
     0
1002
{
1000
RefDimEnhance
1070
     1
1070
     1
1002
{
1002
}
1000
RefDim
1070
     0
1002
{
1000
DIMCLRD
1070
     1
1070
     1
1002
{
1002
}
1002
}
1002
}
1000
Drawing
1070
     0
1002
{
1000
MSpace3D
1070
     1
1070
     1
1002
{
1002
}
1000
UpdateList
1070
     1
1070
     1
1002
{
1002
}
1002
}
1000
Shaft
1070
     0
1002
{
1002
}
1000
View
1070
     0
1002
{
1002
}
  0
APPID
  5
46E
330
9
100
AcDbSymbolTableRecord
100
AcDbRegAppTableRecord
  2
GENIUS_GEVCFG0_13
 70
     0
1001
GENIUS_GENCFG_13
1071
939720540
1000
46E
1000
GEV
1070
     1
1000
GenCfgObject
1000
VED
1070
     0
1002
{
1002
}
  0
APPID
  5
495
330
9
100
AcDbSymbolTableRecord
100
AcDbRegAppTableRecord
  2
GENIUS_GENOENT_13
 70
     0
  0
APPID
  5
611
330
9
100
AcDbSymbolTableRecord
100
AcDbRegAppTableRecord
  2
GENIUS_GENDIM_13
 70
     0
  0
APPID
  5
613
330
9
100
AcDbSymbolTableRecord
100
AcDbRegAppTableRecord
  2
GENIUS_GE3DTOL_13
 70
     0
  0
APPID
  5
61B
330
9
100
AcDbSymbolTableRecord
100
AcDbRegAppTableRecord
  2
ACATTRIBSERVICES
 70
     0
  0
APPID
  5
639
330
9
100
AcDbSymbolTableRecord
100
AcDbRegAppTableRecord
  2
ACADM_DIM_EDIT
 70
     0
  0
APPID
  5
648
330
9
100
AcDbSymbolTableRecord
100
AcDbRegAppTableRecord
  2
GENIUS_GENSCREG_15
 70
     0
  0
APPID
  5
64A
330
9
100
AcDbSymbolTableRecord
100
AcDbRegAppTableRecord
  2
GENIUS_GENODEF_13
 70
     0
  0
APPID
  5
64B
330
9
100
AcDbSymbolTableRecord
100
AcDbRegAppTableRecord
  2
GENIUS_GENOBJ-N-SDF_13
 70
     0
  0
APPID
  5
64C
330
9
100
AcDbSymbolTableRecord
100
AcDbRegAppTableRecord
  2
GENIUS_GENOREF_13
 70
     0
  0
APPID
  5
64D
330
9
100
AcDbSymbolTableRecord
100
AcDbRegAppTableRecord
  2
GENIUS_GENOLIS_13
 70
     0
  0
APPID
  5
717
330
9
100
AcDbSymbolTableRecord
100
AcDbRegAppTableRecord
  2
GENIUS_GENDIMSH_14
 70
     0
  0
APPID
  5
14B0
330
9
100
AcDbSymbolTableRecord
100
AcDbRegAppTableRecord
  2
GENIUS_GENBLLY_14
 70
     0
  0
APPID
  5
14B1
330
9
100
AcDbSymbolTableRecord
100
AcDbRegAppTableRecord
  2
GENIUS_GENREC_14
 70
     0
  0
APPID
  5
14B2
330
9
100
AcDbSymbolTableRecord
100
AcDbRegAppTableRecord
  2
GENIUS_GENOBJ-N-REC_13
 70
     0
  0
APPID
  5
14B3
330
9
100
AcDbSymbolTableRecord
100
AcDbRegAppTableRecord
  2
GENIUS_GENTRA_14
 70
     0
  0
APPID
  5
14B4
330
9
100
AcDbSymbolTableRecord
100
AcDbRegAppTableRecord
  2
GENIUS_GENOBJ-N-CRS_13
 70
     0
  0
APPID
  5
14B5
330
9
100
AcDbSymbolTableRecord
100
AcDbRegAppTableRecord
  2
GENIUS_GENOBJ-N-HTC_13
 70
     0
  0
APPID
  5
14B6
330
9
100
AcDbSymbolTableRecord
100
AcDbRegAppTableRecord
  2
GENIUS_GENHATCH_13
 70
     0
  0
APPID
  5
14B7
330
9
100
AcDbSymbolTableRecord
100
AcDbRegAppTableRecord
  2
GENIUS_GENOBJ-N-TIT_13
 70
     0
  0
APPID
  5
14B8
330
9
100
AcDbSymbolTableRecord
100
AcDbRegAppTableRecord
  2
GENIUS_GENTITLE_13
 70
     0
  0
APPID
  5
14B9
330
9
100
AcDbSymbolTableRecord
100
AcDbRegAppTableRecord
  2
GENIUS_GENZVEED_13
 70
     0
  0
APPID
  5
14BA
330
9
100
AcDbSymbolTableRecord
100
AcDbRegAppTableRecord
  2
GENIUS_GENSCREG_13
 70
     0
  0
APPID
  5
1B09
330
9
100
AcDbSymbolTableRecord
100
AcDbRegAppTableRecord
  2
AMG_3D2D_5.0
 70
     0
  0
APPID
  5
1B24
330
9
100
AcDbSymbolTableRecord
100
AcDbRegAppTableRecord
  2
AMDT_DM_ADJ
 70
     0
  0
APPID
  5
1B31
330
9
100
AcDbSymbolTableRecord
100
AcDbRegAppTableRecord
  2
GENIUS_AMGTXT_16
 70
     0
  0
ENDTAB
  0
TABLE
  2
DIMSTYLE
  5
A
330
0
100
AcDbSymbolTable
 70
     9
100
AcDbDimStyleTable
 71
     1
340
43
  0
DIMSTYLE
105
40
330
A
100
AcDbSymbolTableRecord
100
AcDbDimStyleTableRecord
  2
STANDARD
 70
     0
 41
3.0
 42
0.0
 43
10.0
 44
1.0
 73
     0
 74
     0
 77
     1
 78
     8
140
3.5
141
0.0
143
0.0394
146
0.71
147
1.0
171
     4
172
     1
176
   256
177
   256
178
     2
340
F
  0
DIMSTYLE
105
41
330
A
100
AcDbSymbolTableRecord
100
AcDbDimStyleTableRecord
  2
GEN-ISO$4
 70
     0
  3
<>
  4
"
 41
3.0
 42
0.0
 43
10.0
 44
1.0
 47
0.1
 48
0.1
 73
     0
 77
     1
 78
     8
140
3.5
141
0.0
143
0.0393701
144
2.0
146
0.71
147
1.0
176
   256
177
   256
178
     2
271
     2
272
     3
274
     4
283
     0
288
     1
289
     0
340
F
  0
DIMSTYLE
105
42
330
A
100
AcDbSymbolTableRecord
100
AcDbDimStyleTableRecord
  2
GEN-ISO$3
 70
     0
  3
<>
  4
"
 41
3.0
 42
0.0
 43
10.0
 44
1.0
 47
0.1
 48
0.1
 73
     0
 74
     0
 77
     1
 78
     8
140
3.5
141
0.0
143
0.0393701
144
2.0
146
0.71
147
1.0
176
   256
177
   256
178
     2
271
     2
272
     3
274
     4
283
     0
288
     1
289
     0
340
F
  0
DIMSTYLE
105
43
102
{ACAD_REACTORS
330
72C
330
7E4
330
8A6
330
936
330
A49
330
BAA
330
C5B
330
CE3
330
DA0
330
E87
330
F17
330
FB0
330
1038
330
189C
330
1D9A
102
}
330
A
100
AcDbSymbolTableRecord
100
AcDbDimStyleTableRecord
  2
GEN-ISO
 70
     0
  3
<>
  4
"
 41
3.0
 42
0.0
 43
10.0
 44
1.0
 47
0.1
 48
0.1
 73
     0
 74
     0
 77
     1
 78
     8
140
3.5
141
0.0
143
0.0393701
144
2.0
146
0.71
147
1.0
172
     1
176
   256
177
   256
178
     2
271
     2
272
     3
274
     4
283
     0
340
F
  0
DIMSTYLE
105
440
330
A
100
AcDbSymbolTableRecord
100
AcDbDimStyleTableRecord
  2
ISO-25
 70
     0
 41
2.5
 42
0.625
 43
3.75
 44
1.25
 74
     0
 77
     1
 78
     8
140
2.5
141
2.5
143
0.0394
145
1.0
147
0.625
172
     1
340
F
  0
DIMSTYLE
105
63E
330
A
100
AcDbSymbolTableRecord
100
AcDbDimStyleTableRecord
  2
GEN-ISO$6
 70
     0
  3
<>
  4
"
 41
3.0
 42
0.0
 43
10.0
 44
1.0
 47
0.1
 48
0.1
 73
     0
 74
     0
 77
     1
 78
     8
140
3.5
141
0.0
143
0.0393701
144
2.0
146
0.71
147
1.0
176
   256
177
   256
178
     2
271
     2
272
     3
274
     4
283
     0
340
F
  0
DIMSTYLE
105
63F
330
A
100
AcDbSymbolTableRecord
100
AcDbDimStyleTableRecord
  2
GEN-ISO-POS
 70
     0
  3
<>
  4
"
 41
2.5
 42
0.0
 43
10.0
 44
1.0
 47
0.1
 48
0.1
 73
     0
 74
     0
 77
     1
 78
     8
140
5.0
141
0.0
143
0.0393701
144
2.0
146
0.71
147
1.5
176
   256
177
   256
178
     2
271
     2
272
     3
274
     4
283
     0
340
F
  0
DIMSTYLE
105
640
330
A
100
AcDbSymbolTableRecord
100
AcDbDimStyleTableRecord
  2
GEN-ISO-AXE-F
 70
     0
  3
<>
  4
"
 41
3.0
 42
0.0
 43
10.0
 44
1.0
 47
0.1
 48
0.1
 73
     0
 74
     0
 75
     1
 76
     1
 77
     1
 78
     8
140
3.5
141
0.0
143
0.0393701
144
2.0
146
0.71
147
1.0
172
     1
176
   256
177
   256
178
     2
271
     2
272
     3
274
     4
283
     0
340
F
  0
DIMSTYLE
105
641
330
A
100
AcDbSymbolTableRecord
100
AcDbDimStyleTableRecord
  2
GEN-ISO-AXE-H
 70
     0
  3
<>
  4
"
 41
3.0
 42
0.0
 43
10.0
 44
1.0
 47
0.1
 48
0.1
 73
     0
 74
     0
 75
     1
 76
     1
 77
     1
 78
     8
140
3.5
141
0.0
143
0.0393701
144
2.0
146
0.71
147
1.0
172
     1
173
     1
176
   256
177
   256
178
     2
271
     2
272
     3
274
     4
283
     0
340
F
  0
ENDTAB
  0
TABLE
  2
BLOCK_RECORD
  5
1
330
0
100
AcDbSymbolTable
 70
    50
  0
BLOCK_RECORD
  5
18
102
{ACAD_XDICTIONARY
360
472
102
}
330
1
100
AcDbSymbolTableRecord
100
AcDbBlockTableRecord
  2
*MODEL_SPACE
340
607
 70
     0
280
     1
281
     0
  0
BLOCK_RECORD
  5
15
330
1
100
AcDbSymbolTableRecord
100
AcDbBlockTableRecord
  2
*PAPER_SPACE
340
608
 70
     0
280
     1
281
     0
  0
BLOCK_RECORD
  5
45
330
1
100
AcDbSymbolTableRecord
100
AcDbBlockTableRecord
  2
DXF_DUMMY
340
0
 70
     0
280
     1
281
     0
  0
BLOCK_RECORD
  5
126
330
1
100
AcDbSymbolTableRecord
100
AcDbBlockTableRecord
  2
BLK2
340
0
102
{BLKREFS
331
2EE
102
}
 70
     0
280
     1
281
     0
  0
BLOCK_RECORD
  5
129
330
1
100
AcDbSymbolTableRecord
100
AcDbBlockTableRecord
  2
BLK3
340
0
 70
     0
280
     1
281
     0
  0
BLOCK_RECORD
  5
12E
330
1
100
AcDbSymbolTableRecord
100
AcDbBlockTableRecord
  2
BLK4
340
0
 70
     0
280
     1
281
     0
  0
BLOCK_RECORD
  5
132
330
1
100
AcDbSymbolTableRecord
100
AcDbBlockTableRecord
  2
BLK5
340
0
 70
     0
280
     1
281
     0
  0
BLOCK_RECORD
  5
136
330
1
100
AcDbSymbolTableRecord
100
AcDbBlockTableRecord
  2
BLK6
340
0
 70
     0
280
     1
281
     0
  0
BLOCK_RECORD
  5
13A
330
1
100
AcDbSymbolTableRecord
100
AcDbBlockTableRecord
  2
BLK7
340
0
 70
     0
280
     1
281
     0
  0
BLOCK_RECORD
  5
13E
330
1
100
AcDbSymbolTableRecord
100
AcDbBlockTableRecord
  2
BLK8
340
0
 70
     0
280
     1
281
     0
  0
BLOCK_RECORD
  5
142
330
1
100
AcDbSymbolTableRecord
100
AcDbBlockTableRecord
  2
BLK9
340
0
 70
     0
280
     1
281
     0
  0
BLOCK_RECORD
  5
146
330
1
100
AcDbSymbolTableRecord
100
AcDbBlockTableRecord
  2
BLK10
340
0
 70
     0
280
     1
281
     0
  0
BLOCK_RECORD
  5
14A
330
1
100
AcDbSymbolTableRecord
100
AcDbBlockTableRecord
  2
BLK11
340
0
102
{BLKREFS
331
2F7
102
}
 70
     0
280
     1
281
     0
  0
BLOCK_RECORD
  5
14D
330
1
100
AcDbSymbolTableRecord
100
AcDbBlockTableRecord
  2
BLK12
340
0
102
{BLKREFS
331
2F8
102
}
 70
     0
280
     1
281
     0
  0
BLOCK_RECORD
  5
150
330
1
100
AcDbSymbolTableRecord
100
AcDbBlockTableRecord
  2
BLK13
340
0
 70
     0
280
     1
281
     0
  0
BLOCK_RECORD
  5
154
330
1
100
AcDbSymbolTableRecord
100
AcDbBlockTableRecord
  2
BLK14
340
0
 70
     0
280
     1
281
     0
  0
BLOCK_RECORD
  5
158
330
1
100
AcDbSymbolTableRecord
100
AcDbBlockTableRecord
  2
BLK15
340
0
102
{BLKREFS
331
2FB
102
}
 70
     0
280
     1
281
     0
  0
BLOCK_RECORD
  5
15B
330
1
100
AcDbSymbolTableRecord
100
AcDbBlockTableRecord
  2
BLK16
340
0
102
{BLKREFS
331
2FC
102
}
 70
     0
280
     1
281
     0
  0
BLOCK_RECORD
  5
15E
330
1
100
AcDbSymbolTableRecord
100
AcDbBlockTableRecord
  2
BLK17
340
0
102
{BLKREFS
331
2FD
102
}
 70
     0
280
     1
281
     0
  0
BLOCK_RECORD
  5
176
330
1
100
AcDbSymbolTableRecord
100
AcDbBlockTableRecord
  2
BLK19
340
0
 70
     0
280
     1
281
     0
  0
BLOCK_RECORD
  5
19B
330
1
100
AcDbSymbolTableRecord
100
AcDbBlockTableRecord
  2
BLK21
340
0
 70
     0
280
     1
281
     0
  0
BLOCK_RECORD
  5
1AE
330
1
100
AcDbSymbolTableRecord
100
AcDbBlockTableRecord
  2
BLK22
340
0
 70
     0
280
     1
281
     0
  0
BLOCK_RECORD
  5
1BE
330
1
100
AcDbSymbolTableRecord
100
AcDbBlockTableRecord
  2
BLK23
340
0
 70
     0
280
     1
281
     0
  0
BLOCK_RECORD
  5
1E5
330
1
100
AcDbSymbolTableRecord
100
AcDbBlockTableRecord
  2
BLK25
340
0
 70
     0
280
     1
281
     0
  0
BLOCK_RECORD
  5
1F8
330
1
100
AcDbSymbolTableRecord
100
AcDbBlockTableRecord
  2
BLK26
340
0
 70
     0
280
     1
281
     0
  0
BLOCK_RECORD
  5
20C
330
1
100
AcDbSymbolTableRecord
100
AcDbBlockTableRecord
  2
BLK27
340
0
 70
     0
280
     1
281
     0
  0
BLOCK_RECORD
  5
21C
330
1
100
AcDbSymbolTableRecord
100
AcDbBlockTableRecord
  2
BLK28
340
0
 70
     0
280
     1
281
     0
  0
BLOCK_RECORD
  5
244
330
1
100
AcDbSymbolTableRecord
100
AcDbBlockTableRecord
  2
BLK30
340
0
 70
     0
280
     1
281
     0
  0
BLOCK_RECORD
  5
3CA
330
1
100
AcDbSymbolTableRecord
100
AcDbBlockTableRecord
  2
*U26
340
0
 70
     0
280
     1
281
     0
  0
BLOCK_RECORD
  5
43D
330
1
100
AcDbSymbolTableRecord
100
AcDbBlockTableRecord
  2
GEVCON
340
0
 70
     0
280
     1
281
     0
  0
BLOCK_RECORD
  5
441
330
1
100
AcDbSymbolTableRecord
100
AcDbBlockTableRecord
  2
GEVEP
340
0
 70
     0
280
     1
281
     0
  0
BLOCK_RECORD
  5
44D
330
1
100
AcDbSymbolTableRecord
100
AcDbBlockTableRecord
  2
GEVFRAME
340
0
 70
     0
280
     1
281
     0
  0
BLOCK_RECORD
  5
72D
330
1
100
AcDbSymbolTableRecord
100
AcDbBlockTableRecord
  2
*D30
340
0
 70
     0
280
     1
281
     0
  0
BLOCK_RECORD
  5
7E5
330
1
100
AcDbSymbolTableRecord
100
AcDbBlockTableRecord
  2
*D31
340
0
 70
     0
280
     1
281
     0
  0
BLOCK_RECORD
  5
8A7
330
1
100
AcDbSymbolTableRecord
100
AcDbBlockTableRecord
  2
*D32
340
0
 70
     0
280
     1
281
     0
  0
BLOCK_RECORD
  5
937
330
1
100
AcDbSymbolTableRecord
100
AcDbBlockTableRecord
  2
*D33
340
0
 70
     0
280
     1
281
     0
  0
BLOCK_RECORD
  5
A4A
330
1
100
AcDbSymbolTableRecord
100
AcDbBlockTableRecord
  2
*D34
340
0
 70
     0
280
     1
281
     0
  0
BLOCK_RECORD
  5
BAB
330
1
100
AcDbSymbolTableRecord
100
AcDbBlockTableRecord
  2
*D35
340
0
 70
     0
280
     1
281
     0
  0
BLOCK_RECORD
  5
C5C
330
1
100
AcDbSymbolTableRecord
100
AcDbBlockTableRecord
  2
*D36
340
0
 70
     0
280
     1
281
     0
  0
BLOCK_RECORD
  5
CE4
330
1
100
AcDbSymbolTableRecord
100
AcDbBlockTableRecord
  2
*D37
340
0
 70
     0
280
     1
281
     0
  0
BLOCK_RECORD
  5
DA1
330
1
100
AcDbSymbolTableRecord
100
AcDbBlockTableRecord
  2
*D38
340
0
 70
     0
280
     1
281
     0
  0
BLOCK_RECORD
  5
E88
330
1
100
AcDbSymbolTableRecord
100
AcDbBlockTableRecord
  2
*D39
340
0
 70
     0
280
     1
281
     0
  0
BLOCK_RECORD
  5
F18
330
1
100
AcDbSymbolTableRecord
100
AcDbBlockTableRecord
  2
*D40
340
0
 70
     0
280
     1
281
     0
  0
BLOCK_RECORD
  5
FB1
330
1
100
AcDbSymbolTableRecord
100
AcDbBlockTableRecord
  2
*D41
340
0
 70
     0
280
     1
281
     0
  0
BLOCK_RECORD
  5
1039
330
1
100
AcDbSymbolTableRecord
100
AcDbBlockTableRecord
  2
*D42
340
0
 70
     0
280
     1
281
     0
  0
BLOCK_RECORD
  5
144E
330
1
100
AcDbSymbolTableRecord
100
AcDbBlockTableRecord
  2
SCHUTZR1
340
0
 70
     0
280
     1
281
     0
  0
BLOCK_RECORD
  5
1453
330
1
100
AcDbSymbolTableRecord
100
AcDbBlockTableRecord
  2
GLUTZ1
340
0
102
{BLKREFS
331
14EA
102
}
 70
     0
280
     1
281
     0
  0
BLOCK_RECORD
  5
14BB
330
1
100
AcDbSymbolTableRecord
100
AcDbBlockTableRecord
  2
GEN_A4
340
0
 70
     0
280
     1
281
     0
  0
BLOCK_RECORD
  5
14D4
330
1
100
AcDbSymbolTableRecord
100
AcDbBlockTableRecord
  2
*U46
340
0
102
{BLKREFS
331
1523
331
1520
102
}
 70
     0
280
     1
281
     0
  0
BLOCK_RECORD
  5
14D7
330
1
100
AcDbSymbolTableRecord
100
AcDbBlockTableRecord
  2
MASSBILD1
340
0
 70
     0
280
     1
281
     0
  0
BLOCK_RECORD
  5
189D
330
1
100
AcDbSymbolTableRecord
100
AcDbBlockTableRecord
  2
*D48
340
0
 70
     0
280
     1
281
     0
  0
BLOCK_RECORD
  5
1D9B
330
1
100
AcDbSymbolTableRecord
100
AcDbBlockTableRecord
  2
*D49
340
0
 70
     0
280
     1
281
     0
  0
ENDTAB
  0
ENDSEC
  0
SECTION
  2
BLOCKS
  0
BLOCK
  5
19
330
18
100
AcDbEntity
  8
0
100
AcDbBlockBegin
  2
*MODEL_SPACE
 70
     0
 10
0.0
 20
0.0
 30
0.0
  3
*MODEL_SPACE
  1

  0
ENDBLK
  5
1A
330
18
100
AcDbEntity
  8
0
100
AcDbBlockEnd
  0
BLOCK
  5
16
330
15
100
AcDbEntity
 67
     1
  8
0
100
AcDbBlockBegin
  2
*PAPER_SPACE
 70
     0
 10
0.0
 20
0.0
 30
0.0
  3
*PAPER_SPACE
  1

  0
ENDBLK
  5
17
330
15
100
AcDbEntity
 67
     1
  8
0
100
AcDbBlockEnd
  0
BLOCK
  5
46
330
45
100
AcDbEntity
  8
0
100
AcDbBlockBegin
  2
DXF_DUMMY
 70
     0
 10
0.0
 20
0.0
 30
0.0
  3
DXF_DUMMY
  1

  0
ENDBLK
  5
47
330
45
100
AcDbEntity
  8
0
100
AcDbBlockEnd
  0
BLOCK
  5
127
330
126
100
AcDbEntity
  8
0
100
AcDbBlockBegin
  2
BLK2
 70
     2
 10
0.0
 20
0.0
 30
0.0
  3
BLK2
  1

  0
ENDBLK
  5
128
330
126
100
AcDbEntity
  8
0
100
AcDbBlockEnd
  0
BLOCK
  5
12A
330
129
100
AcDbEntity
  8
0
100
AcDbBlockBegin
  2
BLK3
 70
     2
 10
0.0
 20
0.0
 30
0.0
  3
BLK3
  1

  0
TEXT
  5
12C
330
129
100
AcDbEntity
  8
TEXT
  6
Continuous
 62
     7
100
AcDbText
 10
-59.062496
 20
-115.5
 30
0.0
 40
5.0
  1
Drehgriff für Hebeschiebetür
 41
0.73042
  7
EUCLID03
100
AcDbText
  0
ENDBLK
  5
12D
330
129
100
AcDbEntity
  8
0
100
AcDbBlockEnd
  0
BLOCK
  5
12F
330
12E
100
AcDbEntity
  8
0
100
AcDbBlockBegin
  2
BLK4
 70
     2
 10
0.0
 20
0.0
 30
0.0
  3
BLK4
  1

  0
TEXT
  5
130
330
12E
100
AcDbEntity
  8
6
  6
Continuous
 62
     2
100
AcDbText
 10
-46.74218699999999
 20
-122.750008
 30
0.0
 40
3.5
  1
5155 spez. mit Rasterung u. RZ
 41
0.713406
  7
EUCLID03
100
AcDbText
  0
ENDBLK
  5
131
330
12E
100
AcDbEntity
  8
0
100
AcDbBlockEnd
  0
BLOCK
  5
133
330
132
100
AcDbEntity
  8
0
100
AcDbBlockBegin
  2
BLK5
 70
     2
 10
0.0
 20
0.0
 30
0.0
  3
BLK5
  1

  0
TEXT
  5
134
330
132
100
AcDbEntity
  8
TEXT
  6
Continuous
 62
     7
100
AcDbText
 10
39.0
 20
-138.5
 30
0.0
 40
5.0
  1
D-49497
 41
0.8443929999999999
  7
EUCLID03
100
AcDbText
  0
ENDBLK
  5
135
330
132
100
AcDbEntity
  8
0
100
AcDbBlockEnd
  0
BLOCK
  5
137
330
136
100
AcDbEntity
  8
0
100
AcDbBlockBegin
  2
BLK6
 70
     2
 10
0.0
 20
0.0
 30
0.0
  3
BLK6
  1

  0
TEXT
  5
138
330
136
100
AcDbEntity
  8
6
  6
Continuous
 62
     2
100
AcDbText
 10
39.170311
 20
-121.75
 30
0.0
 40
3.5
  1
1:2
 41
0.492563
  7
EUCLID03
100
AcDbText
  0
ENDBLK
  5
139
330
136
100
AcDbEntity
  8
0
100
AcDbBlockEnd
  0
BLOCK
  5
13B
330
13A
100
AcDbEntity
  8
0
100
AcDbBlockBegin
  2
BLK7
 70
     2
 10
0.0
 20
0.0
 30
0.0
  3
BLK7
  1

  0
TEXT
  5
13C
330
13A
100
AcDbEntity
  8
TEXT
  6
Continuous
 62
     1
100
AcDbText
 10
67.0
 20
-109.25
 30
0.0
 40
2.5
  1
bij
 41
0.52725
  7
EUCLID03
100
AcDbText
  0
ENDBLK
  5
13D
330
13A
100
AcDbEntity
  8
0
100
AcDbBlockEnd
  0
BLOCK
  5
13F
330
13E
100
AcDbEntity
  8
0
100
AcDbBlockBegin
  2
BLK8
 70
     2
 10
0.0
 20
0.0
 30
0.0
  3
BLK8
  1

  0
TEXT
  5
140
330
13E
100
AcDbEntity
  8
TEXT
  6
Continuous
 62
     1
100
AcDbText
 10
84.00000799999999
 20
-109.25
 30
0.0
 40
2.5
  1
1.7.99
 41
0.5619380000000001
  7
EUCLID03
100
AcDbText
  0
ENDBLK
  5
141
330
13E
100
AcDbEntity
  8
0
100
AcDbBlockEnd
  0
BLOCK
  5
143
330
142
100
AcDbEntity
  8
0
100
AcDbBlockBegin
  2
BLK9
 70
     2
 10
0.0
 20
0.0
 30
0.0
  3
BLK9
  1

  0
TEXT
  5
144
330
142
100
AcDbEntity
  8
TEXT
  6
Continuous
 62
     1
100
AcDbText
 10
67.0
 20
-115.250008
 30
0.0
 40
2.5
  1
alr
 41
0.596625
  7
EUCLID03
100
AcDbText
  0
ENDBLK
  5
145
330
142
100
AcDbEntity
  8
0
100
AcDbBlockEnd
  0
BLOCK
  5
147
330
146
100
AcDbEntity
  8
0
100
AcDbBlockBegin
  2
BLK10
 70
     2
 10
0.0
 20
0.0
 30
0.0
  3
BLK10
  1

  0
TEXT
  5
148
330
146
100
AcDbEntity
  8
TEXT
  6
Continuous
 62
     1
100
AcDbText
 10
84.00000799999999
 20
-115.250008
 30
0.0
 40
2.5
  1
1.7.99
 41
0.5619380000000001
  7
EUCLID03
100
AcDbText
  0
ENDBLK
  5
149
330
146
100
AcDbEntity
  8
0
100
AcDbBlockEnd
  0
BLOCK
  5
14B
330
14A
100
AcDbEntity
  8
0
100
AcDbBlockBegin
  2
BLK11
 70
     2
 10
0.0
 20
0.0
 30
0.0
  3
BLK11
  1

  0
ENDBLK
  5
14C
330
14A
100
AcDbEntity
  8
0
100
AcDbBlockEnd
  0
BLOCK
  5
14E
330
14D
100
AcDbEntity
  8
0
100
AcDbBlockBegin
  2
BLK12
 70
     2
 10
0.0
 20
0.0
 30
0.0
  3
BLK12
  1

  0
ENDBLK
  5
14F
330
14D
100
AcDbEntity
  8
0
100
AcDbBlockEnd
  0
BLOCK
  5
151
330
150
100
AcDbEntity
  8
0
100
AcDbBlockBegin
  2
BLK13
 70
     2
 10
0.0
 20
0.0
 30
0.0
  3
BLK13
  1

  0
TEXT
  5
152
330
150
100
AcDbEntity
  8
TEXT
  6
Continuous
 62
     1
100
AcDbText
 10
-82.0
 20
132.75
 30
0.0
 40
2.5
  1
Griffe u.Diverses
 41
0.688445
  7
EUCLID03
100
AcDbText
  0
ENDBLK
  5
153
330
150
100
AcDbEntity
  8
0
100
AcDbBlockEnd
  0
BLOCK
  5
155
330
154
100
AcDbEntity
  8
0
100
AcDbBlockBegin
  2
BLK14
 70
     2
 10
0.0
 20
0.0
 30
0.0
  3
BLK14
  1

  0
TEXT
  5
156
330
154
100
AcDbEntity
  8
TEXT
  6
Continuous
 62
     1
100
AcDbText
 10
-53.0
 20
132.75
 30
0.0
 40
2.5
  1
SL 1358
 41
0.710598
  7
EUCLID03
100
AcDbText
  0
ENDBLK
  5
157
330
154
100
AcDbEntity
  8
0
100
AcDbBlockEnd
  0
BLOCK
  5
159
330
158
100
AcDbEntity
  8
0
100
AcDbBlockBegin
  2
BLK15
 70
     2
 10
0.0
 20
0.0
 30
0.0
  3
BLK15
  1

  0
ENDBLK
  5
15A
330
158
100
AcDbEntity
  8
0
100
AcDbBlockEnd
  0
BLOCK
  5
15C
330
15B
100
AcDbEntity
  8
0
100
AcDbBlockBegin
  2
BLK16
 70
     2
 10
0.0
 20
0.0
 30
0.0
  3
BLK16
  1

  0
ENDBLK
  5
15D
330
15B
100
AcDbEntity
  8
0
100
AcDbBlockEnd
  0
BLOCK
  5
15F
330
15E
100
AcDbEntity
  8
0
100
AcDbBlockBegin
  2
BLK17
 70
     2
 10
0.0
 20
0.0
 30
0.0
  3
BLK17
  1

  0
ENDBLK
  5
160
330
15E
100
AcDbEntity
  8
0
100
AcDbBlockEnd
  0
BLOCK
  5
177
330
176
100
AcDbEntity
  8
0
100
AcDbBlockBegin
  2
BLK19
 70
     2
 10
0.0
 20
0.0
 30
0.0
  3
BLK19
  1

  0
TEXT
  5
178
330
176
100
AcDbEntity
  8
6
  6
Continuous
 62
     2
100
AcDbText
 10
4.345303999999999
 20
51.442005
 30
0.0
 40
3.5
  1
50
 41
0.683344
  7
EUCLID03
100
AcDbText
  0
LINE
  5
179
330
176
100
AcDbEntity
  8
5
  6
Continuous
 62
     3
100
AcDbLine
 10
18.999992
 20
50.042004
 30
0.0
 11
-6.000010999999999
 21
50.042004
 31
0.0
  0
LINE
  5
17A
330
176
100
AcDbEntity
  8
5
  6
Continuous
 62
     3
100
AcDbLine
 10
-6.000009999999999
 20
57.74999600000001
 30
0.0
 11
-6.000010999999999
 21
48.042004
 31
0.0
  0
POLYLINE
  5
17B
330
176
100
AcDbEntity
  8
5
  6
Continuous
 62
     3
100
AcDb2dPolyline
 66
     1
 10
0.0
 20
0.0
 30
0.0
 70
     1
  0
VERTEX
  5
17C
330
17B
100
AcDbEntity
  8
5
  6
Continuous
 62
     3
100
AcDbVertex
100
AcDb2dVertex
 10
17.0
 20
49.52438
 30
0.0
  0
VERTEX
  5
17D
330
17B
100
AcDbEntity
  8
5
  6
Continuous
 62
     3
100
AcDbVertex
100
AcDb2dVertex
 10
18.999989
 20
50.04199599999999
 30
0.0
  0
VERTEX
  5
17E
330
17B
100
AcDbEntity
  8
5
  6
Continuous
 62
     3
100
AcDbVertex
100
AcDb2dVertex
 10
17.0
 20
50.55965
 30
0.0
  0
SEQEND
  5
17F
330
17B
100
AcDbEntity
  8
5
  6
Continuous
 62
     3
  0
POLYLINE
  5
180
330
176
100
AcDbEntity
  8
5
  6
Continuous
 62
     3
100
AcDb2dPolyline
 66
     1
 10
0.0
 20
0.0
 30
0.0
 70
     1
  0
VERTEX
  5
181
330
180
100
AcDbEntity
  8
5
  6
Continuous
 62
     3
100
AcDbVertex
100
AcDb2dVertex
 10
-4.000003999999999
 20
50.55965
 30
0.0
  0
VERTEX
  5
182
330
180
100
AcDbEntity
  8
5
  6
Continuous
 62
     3
100
AcDbVertex
100
AcDb2dVertex
 10
-6.000010999999999
 20
50.04199599999999
 30
0.0
  0
VERTEX
  5
183
330
180
100
AcDbEntity
  8
5
  6
Continuous
 62
     3
100
AcDbVertex
100
AcDb2dVertex
 10
-4.000003999999999
 20
49.52438
 30
0.0
  0
SEQEND
  5
184
330
180
100
AcDbEntity
  8
5
  6
Continuous
 62
     3
  0
ENDBLK
  5
185
330
176
100
AcDbEntity
  8
0
100
AcDbBlockEnd
  0
BLOCK
  5
19C
330
19B
100
AcDbEntity
  8
0
100
AcDbBlockBegin
  2
BLK21
 70
     2
 10
0.0
 20
0.0
 30
0.0
  3
BLK21
  1

  0
TEXT
  5
19D
330
19B
100
AcDbEntity
  8
6
  6
Continuous
 62
     2
100
AcDbText
 10
-13.207077
 20
45.606247
 30
0.0
 40
3.5
  1
4kt
 50
90.0
  7
EUCLID03
100
AcDbText
  0
TEXT
  5
19E
330
19B
100
AcDbEntity
  8
6
  6
Continuous
 62
     2
100
AcDbText
 10
-13.207077
 20
51.424995
 30
0.0
 40
3.5
  1
9
 50
90.0
 41
0.596625
  7
EUCLID03
100
AcDbText
  0
TEXT
  5
19F
330
19B
100
AcDbEntity
  8
6
  6
Continuous
 62
     2
100
AcDbText
 10
-13.207077
 20
55.49374799999999
 30
0.0
 40
3.5
  1
oder 4kt 10
 50
90.0
 41
0.7430830000000001
  7
EUCLID03
100
AcDbText
  0
LINE
  5
1A0
330
19B
100
AcDbEntity
  8
5
  6
Continuous
 62
     3
100
AcDbLine
 10
-11.807077
 20
68.25
 30
0.0
 11
-11.807077
 21
51.749996
 31
0.0
  0
LINE
  5
1A1
330
19B
100
AcDbEntity
  8
5
  6
Continuous
 62
     3
100
AcDbLine
 10
-6.000009999999999
 20
62.249996
 30
0.0
 11
-13.207077
 21
62.249996
 31
0.0
  0
LINE
  5
1A2
330
19B
100
AcDbEntity
  8
5
  6
Continuous
 62
     3
100
AcDbLine
 10
-6.000009999999999
 20
57.74999600000001
 30
0.0
 11
-13.207077
 21
57.74999600000001
 31
0.0
  0
POLYLINE
  5
1A3
330
19B
100
AcDbEntity
  8
5
  6
Continuous
 62
     3
100
AcDb2dPolyline
 66
     1
 10
0.0
 20
0.0
 30
0.0
 70
     1
  0
VERTEX
  5
1A4
330
1A3
100
AcDbEntity
  8
5
  6
Continuous
 62
     3
100
AcDbVertex
100
AcDb2dVertex
 10
-12.324722
 20
64.249985
 30
0.0
  0
VERTEX
  5
1A5
330
1A3
100
AcDbEntity
  8
5
  6
Continuous
 62
     3
100
AcDbVertex
100
AcDb2dVertex
 10
-11.807068
 20
62.249981
 30
0.0
  0
VERTEX
  5
1A6
330
1A3
100
AcDbEntity
  8
5
  6
Continuous
 62
     3
100
AcDbVertex
100
AcDb2dVertex
 10
-11.289433
 20
64.249985
 30
0.0
  0
SEQEND
  5
1A7
330
1A3
100
AcDbEntity
  8
5
  6
Continuous
 62
     3
  0
POLYLINE
  5
1A8
330
19B
100
AcDbEntity
  8
5
  6
Continuous
 62
     3
100
AcDb2dPolyline
 66
     1
 10
0.0
 20
0.0
 30
0.0
 70
     1
  0
VERTEX
  5
1A9
330
1A8
100
AcDbEntity
  8
5
  6
Continuous
 62
     3
100
AcDbVertex
100
AcDb2dVertex
 10
-11.289433
 20
55.750004
 30
0.0
  0
VERTEX
  5
1AA
330
1A8
100
AcDbEntity
  8
5
  6
Continuous
 62
     3
100
AcDbVertex
100
AcDb2dVertex
 10
-11.807068
 20
57.750011
 30
0.0
  0
VERTEX
  5
1AB
330
1A8
100
AcDbEntity
  8
5
  6
Continuous
 62
     3
100
AcDbVertex
100
AcDb2dVertex
 10
-12.324722
 20
55.750004
 30
0.0
  0
SEQEND
  5
1AC
330
1A8
100
AcDbEntity
  8
5
  6
Continuous
 62
     3
  0
ENDBLK
  5
1AD
330
19B
100
AcDbEntity
  8
0
100
AcDbBlockEnd
  0
BLOCK
  5
1AF
330
1AE
100
AcDbEntity
  8
0
100
AcDbBlockBegin
  2
BLK22
 70
     2
 10
0.0
 20
0.0
 30
0.0
  3
BLK22
  1

  0
TEXT
  5
1B0
330
1AE
100
AcDbEntity
  8
6
  6
Continuous
 62
     2
100
AcDbText
 10
43.095306
 20
-1.391342
 30
0.0
 40
3.5
  1
75
 41
0.683344
  7
EUCLID03
100
AcDbText
  0
LINE
  5
1B1
330
1AE
100
AcDbEntity
  8
5
  6
Continuous
 62
     3
100
AcDbLine
 10
26.499992
 20
-2.791339999999999
 30
0.0
 11
63.99998899999999
 21
-2.791339999999999
 31
0.0
  0
LINE
  5
1B2
330
1AE
100
AcDbEntity
  8
5
  6
Continuous
 62
     3
100
AcDbLine
 10
26.499992
 20
6.998901
 30
0.0
 11
26.499992
 21
-4.791339999999999
 31
0.0
  0
POLYLINE
  5
1B3
330
1AE
100
AcDbEntity
  8
5
  6
Continuous
 62
     3
100
AcDb2dPolyline
 66
     1
 10
0.0
 20
0.0
 30
0.0
 70
     1
  0
VERTEX
  5
1B4
330
1B3
100
AcDbEntity
  8
5
  6
Continuous
 62
     3
100
AcDbVertex
100
AcDb2dVertex
 10
28.499996
 20
-2.273715999999999
 30
0.0
  0
VERTEX
  5
1B5
330
1B3
100
AcDbEntity
  8
5
  6
Continuous
 62
     3
100
AcDbVertex
100
AcDb2dVertex
 10
26.499989
 20
-2.791332
 30
0.0
  0
VERTEX
  5
1B6
330
1B3
100
AcDbEntity
  8
5
  6
Continuous
 62
     3
100
AcDbVertex
100
AcDb2dVertex
 10
28.499996
 20
-3.308987
 30
0.0
  0
SEQEND
  5
1B7
330
1B3
100
AcDbEntity
  8
5
  6
Continuous
 62
     3
  0
POLYLINE
  5
1B8
330
1AE
100
AcDbEntity
  8
5
  6
Continuous
 62
     3
100
AcDb2dPolyline
 66
     1
 10
0.0
 20
0.0
 30
0.0
 70
     1
  0
VERTEX
  5
1B9
330
1B8
100
AcDbEntity
  8
5
  6
Continuous
 62
     3
100
AcDbVertex
100
AcDb2dVertex
 10
62.0
 20
-3.308987
 30
0.0
  0
VERTEX
  5
1BA
330
1B8
100
AcDbEntity
  8
5
  6
Continuous
 62
     3
100
AcDbVertex
100
AcDb2dVertex
 10
63.99998899999999
 20
-2.791332
 30
0.0
  0
VERTEX
  5
1BB
330
1B8
100
AcDbEntity
  8
5
  6
Continuous
 62
     3
100
AcDbVertex
100
AcDb2dVertex
 10
62.0
 20
-2.273715999999999
 30
0.0
  0
SEQEND
  5
1BC
330
1B8
100
AcDbEntity
  8
5
  6
Continuous
 62
     3
  0
ENDBLK
  5
1BD
330
1AE
100
AcDbEntity
  8
0
100
AcDbBlockEnd
  0
BLOCK
  5
1BF
330
1BE
100
AcDbEntity
  8
0
100
AcDbBlockBegin
  2
BLK23
 70
     2
 10
0.0
 20
0.0
 30
0.0
  3
BLK23
  1

  0
TEXT
  5
1C0
330
1BE
100
AcDbEntity
  8
6
  6
Continuous
 62
     2
100
AcDbText
 10
9.636229
 20
-74.064072
 30
0.0
 40
3.5
  1
%%c
 50
90.0
  7
EUCLID03
100
AcDbText
  0
TEXT
  5
1C1
330
1BE
100
AcDbEntity
  8
6
  6
Continuous
 62
     2
100
AcDbText
 10
9.636229
 20
-68.245316
 30
0.0
 40
3.5
  1
22
 50
90.0
 41
0.683344
  7
EUCLID03
100
AcDbText
  0
LINE
  5
1C2
330
1BE
100
AcDbEntity
  8
5
  6
Continuous
 62
     3
100
AcDbLine
 10
11.036229
 20
-57.500011
 30
0.0
 11
11.036229
 21
-80.500015
 31
0.0
  0
LINE
  5
1C3
330
1BE
100
AcDbEntity
  8
5
  6
Continuous
 62
     3
100
AcDbLine
 10
33.999969
 20
-63.50000399999999
 30
0.0
 11
9.036227999999999
 21
-63.500019
 31
0.0
  0
LINE
  5
1C4
330
1BE
100
AcDbEntity
  8
5
  6
Continuous
 62
     3
100
AcDbLine
 10
33.999969
 20
-74.5
 30
0.0
 11
9.036227999999999
 21
-74.5
 31
0.0
  0
POLYLINE
  5
1C5
330
1BE
100
AcDbEntity
  8
5
  6
Continuous
 62
     3
100
AcDb2dPolyline
 66
     1
 10
0.0
 20
0.0
 30
0.0
 70
     1
  0
VERTEX
  5
1C6
330
1C5
100
AcDbEntity
  8
5
  6
Continuous
 62
     3
100
AcDbVertex
100
AcDb2dVertex
 10
10.5186
 20
-61.500019
 30
0.0
  0
VERTEX
  5
1C7
330
1C5
100
AcDbEntity
  8
5
  6
Continuous
 62
     3
100
AcDbVertex
100
AcDb2dVertex
 10
11.036236
 20
-63.500027
 30
0.0
  0
VERTEX
  5
1C8
330
1C5
100
AcDbEntity
  8
5
  6
Continuous
 62
     3
100
AcDbVertex
100
AcDb2dVertex
 10
11.553871
 20
-61.500019
 30
0.0
  0
SEQEND
  5
1C9
330
1C5
100
AcDbEntity
  8
5
  6
Continuous
 62
     3
  0
POLYLINE
  5
1CA
330
1BE
100
AcDbEntity
  8
5
  6
Continuous
 62
     3
100
AcDb2dPolyline
 66
     1
 10
0.0
 20
0.0
 30
0.0
 70
     1
  0
VERTEX
  5
1CB
330
1CA
100
AcDbEntity
  8
5
  6
Continuous
 62
     3
100
AcDbVertex
100
AcDb2dVertex
 10
11.553871
 20
-76.50001500000001
 30
0.0
  0
VERTEX
  5
1CC
330
1CA
100
AcDbEntity
  8
5
  6
Continuous
 62
     3
100
AcDbVertex
100
AcDb2dVertex
 10
11.036236
 20
-74.500015
 30
0.0
  0
VERTEX
  5
1CD
330
1CA
100
AcDbEntity
  8
5
  6
Continuous
 62
     3
100
AcDbVertex
100
AcDb2dVertex
 10
10.5186
 20
-76.50001500000001
 30
0.0
  0
SEQEND
  5
1CE
330
1CA
100
AcDbEntity
  8
5
  6
Continuous
 62
     3
  0
ENDBLK
  5
1CF
330
1BE
100
AcDbEntity
  8
0
100
AcDbBlockEnd
  0
BLOCK
  5
1E6
330
1E5
100
AcDbEntity
  8
0
100
AcDbBlockBegin
  2
BLK25
 70
     2
 10
0.0
 20
0.0
 30
0.0
  3
BLK25
  1

  0
TEXT
  5
1E7
330
1E5
100
AcDbEntity
  8
6
  6
Continuous
 62
     2
100
AcDbText
 10
4.214425999999999
 20
89.512482
 30
0.0
 40
3.5
  1
%%c
 50
90.0
  7
EUCLID03
100
AcDbText
  0
TEXT
  5
1E8
330
1E5
100
AcDbEntity
  8
6
  6
Continuous
 62
     2
100
AcDbText
 10
4.214425999999999
 20
95.331223
 30
0.0
 40
3.5
  1
5.3
 50
90.0
 41
0.5735000000000001
  7
EUCLID03
100
AcDbText
  0
LINE
  5
1E9
330
1E5
100
AcDbEntity
  8
5
  6
Continuous
 62
     3
100
AcDbLine
 10
5.614422
 20
87.324982
 30
0.0
 11
5.614416
 21
72.67497299999999
 31
0.0
  0
LINE
  5
1EA
330
1E5
100
AcDbEntity
  8
5
  6
Continuous
 62
     3
100
AcDbLine
 10
14.499992
 20
81.324974
 30
0.0
 11
3.614419999999999
 21
81.324974
 31
0.0
  0
LINE
  5
1EB
330
1E5
100
AcDbEntity
  8
5
  6
Continuous
 62
     3
100
AcDbLine
 10
14.499992
 20
78.674973
 30
0.0
 11
3.614418
 21
78.674973
 31
0.0
  0
LINE
  5
1EC
330
1E5
100
AcDbEntity
  8
5
  6
Continuous
 62
     3
100
AcDbLine
 10
5.614422
 20
87.324982
 30
0.0
 11
5.614428
 21
102.943726
 31
0.0
  0
POLYLINE
  5
1ED
330
1E5
100
AcDbEntity
  8
5
  6
Continuous
 62
     3
100
AcDb2dPolyline
 66
     1
 10
0.0
 20
0.0
 30
0.0
 70
     1
  0
VERTEX
  5
1EE
330
1ED
100
AcDbEntity
  8
5
  6
Continuous
 62
     3
100
AcDbVertex
100
AcDb2dVertex
 10
5.09679
 20
83.324966
 30
0.0
  0
VERTEX
  5
1EF
330
1ED
100
AcDbEntity
  8
5
  6
Continuous
 62
     3
100
AcDbVertex
100
AcDb2dVertex
 10
5.614425999999999
 20
81.324997
 30
0.0
  0
VERTEX
  5
1F0
330
1ED
100
AcDbEntity
  8
5
  6
Continuous
 62
     3
100
AcDbVertex
100
AcDb2dVertex
 10
6.132061
 20
83.324966
 30
0.0
  0
SEQEND
  5
1F1
330
1ED
100
AcDbEntity
  8
5
  6
Continuous
 62
     3
  0
POLYLINE
  5
1F2
330
1E5
100
AcDbEntity
  8
5
  6
Continuous
 62
     3
100
AcDb2dPolyline
 66
     1
 10
0.0
 20
0.0
 30
0.0
 70
     1
  0
VERTEX
  5
1F3
330
1F2
100
AcDbEntity
  8
5
  6
Continuous
 62
     3
100
AcDbVertex
100
AcDb2dVertex
 10
6.132061
 20
76.674988
 30
0.0
  0
VERTEX
  5
1F4
330
1F2
100
AcDbEntity
  8
5
  6
Continuous
 62
     3
100
AcDbVertex
100
AcDb2dVertex
 10
5.614425999999999
 20
78.674957
 30
0.0
  0
VERTEX
  5
1F5
330
1F2
100
AcDbEntity
  8
5
  6
Continuous
 62
     3
100
AcDbVertex
100
AcDb2dVertex
 10
5.096771
 20
76.674988
 30
0.0
  0
SEQEND
  5
1F6
330
1F2
100
AcDbEntity
  8
5
  6
Continuous
 62
     3
  0
ENDBLK
  5
1F7
330
1E5
100
AcDbEntity
  8
0
100
AcDbBlockEnd
  0
BLOCK
  5
1F9
330
1F8
100
AcDbEntity
  8
0
100
AcDbBlockBegin
  2
BLK26
 70
     2
 10
0.0
 20
0.0
 30
0.0
  3
BLK26
  1

  0
TEXT
  5
1FA
330
1F8
100
AcDbEntity
  8
6
  6
Continuous
 62
     2
100
AcDbText
 10
34.268566
 20
90.937485
 30
0.0
 40
3.5
  1
%%c
 50
90.0
  7
EUCLID03
100
AcDbText
  0
TEXT
  5
1FB
330
1F8
100
AcDbEntity
  8
6
  6
Continuous
 62
     2
100
AcDbText
 10
34.268566
 20
96.756226
 30
0.0
 40
3.5
  1
11
 50
90.0
 41
0.440531
  7
EUCLID03
100
AcDbText
  0
TEXT
  5
1FC
330
1F8
100
AcDbEntity
  8
6
  6
Continuous
 62
     2
100
AcDbText
 10
34.268566
 20
101.721855
 30
0.0
 40
3.5
  1
x90°
 50
90.0
 41
0.6573280000000001
  7
EUCLID03
100
AcDbText
  0
LINE
  5
1FD
330
1F8
100
AcDbEntity
  8
5
  6
Continuous
 62
     3
100
AcDbLine
 10
35.668568
 20
71.249977
 30
0.0
 11
35.668568
 21
88.749985
 31
0.0
  0
LINE
  5
1FE
330
1F8
100
AcDbEntity
  8
5
  6
Continuous
 62
     3
100
AcDbLine
 10
26.499989
 20
77.249977
 30
0.0
 11
37.668568
 21
77.249977
 31
0.0
  0
LINE
  5
1FF
330
1F8
100
AcDbEntity
  8
5
  6
Continuous
 62
     3
100
AcDbLine
 10
26.49999
 20
82.749985
 30
0.0
 11
37.668568
 21
82.749985
 31
0.0
  0
LINE
  5
200
330
1F8
100
AcDbEntity
  8
5
  6
Continuous
 62
     3
100
AcDbLine
 10
35.668568
 20
88.749985
 30
0.0
 11
35.668568
 21
110.012482
 31
0.0
  0
POLYLINE
  5
201
330
1F8
100
AcDbEntity
  8
5
  6
Continuous
 62
     3
100
AcDb2dPolyline
 66
     1
 10
0.0
 20
0.0
 30
0.0
 70
     1
  0
VERTEX
  5
202
330
201
100
AcDbEntity
  8
5
  6
Continuous
 62
     3
100
AcDbVertex
100
AcDb2dVertex
 10
36.186211
 20
75.24996899999999
 30
0.0
  0
VERTEX
  5
203
330
201
100
AcDbEntity
  8
5
  6
Continuous
 62
     3
100
AcDbVertex
100
AcDb2dVertex
 10
35.668575
 20
77.24998499999999
 30
0.0
  0
VERTEX
  5
204
330
201
100
AcDbEntity
  8
5
  6
Continuous
 62
     3
100
AcDbVertex
100
AcDb2dVertex
 10
35.150921
 20
75.24996899999999
 30
0.0
  0
SEQEND
  5
205
330
201
100
AcDbEntity
  8
5
  6
Continuous
 62
     3
  0
POLYLINE
  5
206
330
1F8
100
AcDbEntity
  8
5
  6
Continuous
 62
     3
100
AcDb2dPolyline
 66
     1
 10
0.0
 20
0.0
 30
0.0
 70
     1
  0
VERTEX
  5
207
330
206
100
AcDbEntity
  8
5
  6
Continuous
 62
     3
100
AcDbVertex
100
AcDb2dVertex
 10
35.150921
 20
84.74998499999999
 30
0.0
  0
VERTEX
  5
208
330
206
100
AcDbEntity
  8
5
  6
Continuous
 62
     3
100
AcDbVertex
100
AcDb2dVertex
 10
35.668575
 20
82.74996899999999
 30
0.0
  0
VERTEX
  5
209
330
206
100
AcDbEntity
  8
5
  6
Continuous
 62
     3
100
AcDbVertex
100
AcDb2dVertex
 10
36.186211
 20
84.74998499999999
 30
0.0
  0
SEQEND
  5
20A
330
206
100
AcDbEntity
  8
5
  6
Continuous
 62
     3
  0
ENDBLK
  5
20B
330
1F8
100
AcDbEntity
  8
0
100
AcDbBlockEnd
  0
BLOCK
  5
20D
330
20C
100
AcDbEntity
  8
0
100
AcDbBlockBegin
  2
BLK27
 70
     2
 10
0.0
 20
0.0
 30
0.0
  3
BLK27
  1

  0
TEXT
  5
20E
330
20C
100
AcDbEntity
  8
6
  6
Continuous
 62
     2
100
AcDbText
 10
10.687491
 20
29.155996
 30
0.0
 40
3.5
  1
9
 41
0.596625
  7
EUCLID03
100
AcDbText
  0
LINE
  5
20F
330
20C
100
AcDbEntity
  8
5
  6
Continuous
 62
     3
100
AcDbLine
 10
8.499990999999999
 20
27.755997
 30
0.0
 11
24.999992
 21
27.755997
 31
0.0
  0
LINE
  5
210
330
20C
100
AcDbEntity
  8
5
  6
Continuous
 62
     3
100
AcDbLine
 10
14.499992
 20
38.700012
 30
0.0
 11
14.499992
 21
25.755997
 31
0.0
  0
POLYLINE
  5
211
330
20C
100
AcDbEntity
  8
5
  6
Continuous
 62
     3
100
AcDb2dPolyline
 66
     1
 10
0.0
 20
0.0
 30
0.0
 70
     1
  0
VERTEX
  5
212
330
211
100
AcDbEntity
  8
5
  6
Continuous
 62
     3
100
AcDbVertex
100
AcDb2dVertex
 10
12.499992
 20
27.238346
 30
0.0
  0
VERTEX
  5
213
330
211
100
AcDbEntity
  8
5
  6
Continuous
 62
     3
100
AcDbVertex
100
AcDb2dVertex
 10
14.5
 20
27.756001
 30
0.0
  0
VERTEX
  5
214
330
211
100
AcDbEntity
  8
5
  6
Continuous
 62
     3
100
AcDbVertex
100
AcDb2dVertex
 10
12.499992
 20
28.273617
 30
0.0
  0
SEQEND
  5
215
330
211
100
AcDbEntity
  8
5
  6
Continuous
 62
     3
  0
POLYLINE
  5
216
330
20C
100
AcDbEntity
  8
5
  6
Continuous
 62
     3
100
AcDb2dPolyline
 66
     1
 10
0.0
 20
0.0
 30
0.0
 70
     1
  0
VERTEX
  5
217
330
216
100
AcDbEntity
  8
5
  6
Continuous
 62
     3
100
AcDbVertex
100
AcDb2dVertex
 10
20.999996
 20
28.273617
 30
0.0
  0
VERTEX
  5
218
330
216
100
AcDbEntity
  8
5
  6
Continuous
 62
     3
100
AcDbVertex
100
AcDb2dVertex
 10
18.999989
 20
27.756001
 30
0.0
  0
VERTEX
  5
219
330
216
100
AcDbEntity
  8
5
  6
Continuous
 62
     3
100
AcDbVertex
100
AcDb2dVertex
 10
20.999996
 20
27.238346
 30
0.0
  0
SEQEND
  5
21A
330
216
100
AcDbEntity
  8
5
  6
Continuous
 62
     3
  0
ENDBLK
  5
21B
330
20C
100
AcDbEntity
  8
0
100
AcDbBlockEnd
  0
BLOCK
  5
21D
330
21C
100
AcDbEntity
  8
0
100
AcDbBlockBegin
  2
BLK28
 70
     2
 10
0.0
 20
0.0
 30
0.0
  3
BLK28
  1

  0
TEXT
  5
21E
330
21C
100
AcDbEntity
  8
6
  6
Continuous
 62
     2
100
AcDbText
 10
4.214420999999999
 20
16.79689
 30
0.0
 40
3.5
  1
%%c
 50
90.0
  7
EUCLID03
100
AcDbText
  0
TEXT
  5
21F
330
21C
100
AcDbEntity
  8
6
  6
Continuous
 62
     2
100
AcDbText
 10
4.214420999999999
 20
22.615639
 30
0.0
 40
3.5
  1
11.5
 50
90.0
 41
0.501234
  7
EUCLID03
100
AcDbText
  0
LINE
  5
220
330
21C
100
AcDbEntity
  8
5
  6
Continuous
 62
     3
100
AcDbLine
 10
5.614421
 20
31.125015
 30
0.0
 11
5.614421
 21
48.87501499999999
 31
0.0
  0
LINE
  5
221
330
21C
100
AcDbEntity
  8
5
  6
Continuous
 62
     3
100
AcDbLine
 10
14.5
 20
37.125015
 30
0.0
 11
3.614419999999999
 21
37.125015
 31
0.0
  0
LINE
  5
222
330
21C
100
AcDbEntity
  8
5
  6
Continuous
 62
     3
100
AcDbLine
 10
14.5
 20
42.875015
 30
0.0
 11
3.614419999999999
 21
42.875015
 31
0.0
  0
LINE
  5
223
330
21C
100
AcDbEntity
  8
5
  6
Continuous
 62
     3
100
AcDbLine
 10
5.614421
 20
31.125015
 30
0.0
 11
5.614421
 21
14.60939
 31
0.0
  0
POLYLINE
  5
224
330
21C
100
AcDbEntity
  8
5
  6
Continuous
 62
     3
100
AcDb2dPolyline
 66
     1
 10
0.0
 20
0.0
 30
0.0
 70
     1
  0
VERTEX
  5
225
330
224
100
AcDbEntity
  8
5
  6
Continuous
 62
     3
100
AcDbVertex
100
AcDb2dVertex
 10
6.132061
 20
35.125004
 30
0.0
  0
VERTEX
  5
226
330
224
100
AcDbEntity
  8
5
  6
Continuous
 62
     3
100
AcDbVertex
100
AcDb2dVertex
 10
5.614425999999999
 20
37.125011
 30
0.0
  0
VERTEX
  5
227
330
224
100
AcDbEntity
  8
5
  6
Continuous
 62
     3
100
AcDbVertex
100
AcDb2dVertex
 10
5.09679
 20
35.125004
 30
0.0
  0
SEQEND
  5
228
330
224
100
AcDbEntity
  8
5
  6
Continuous
 62
     3
  0
POLYLINE
  5
229
330
21C
100
AcDbEntity
  8
5
  6
Continuous
 62
     3
100
AcDb2dPolyline
 66
     1
 10
0.0
 20
0.0
 30
0.0
 70
     1
  0
VERTEX
  5
22A
330
229
100
AcDbEntity
  8
5
  6
Continuous
 62
     3
100
AcDbVertex
100
AcDb2dVertex
 10
5.09679
 20
44.875027
 30
0.0
  0
VERTEX
  5
22B
330
229
100
AcDbEntity
  8
5
  6
Continuous
 62
     3
100
AcDbVertex
100
AcDb2dVertex
 10
5.614425999999999
 20
42.875019
 30
0.0
  0
VERTEX
  5
22C
330
229
100
AcDbEntity
  8
5
  6
Continuous
 62
     3
100
AcDbVertex
100
AcDb2dVertex
 10
6.132061
 20
44.875027
 30
0.0
  0
SEQEND
  5
22D
330
229
100
AcDbEntity
  8
5
  6
Continuous
 62
     3
  0
ENDBLK
  5
22E
330
21C
100
AcDbEntity
  8
0
100
AcDbBlockEnd
  0
BLOCK
  5
245
330
244
100
AcDbEntity
  8
0
100
AcDbBlockBegin
  2
BLK30
 70
     2
 10
0.0
 20
0.0
 30
0.0
  3
BLK30
  1

  0
TEXT
  5
246
330
244
100
AcDbEntity
  8
6
  6
Continuous
 62
     2
100
AcDbText
 10
-44.129631
 20
40.34531
 30
0.0
 40
3.5
  1
70
 50
90.0
 41
0.683344
  7
EUCLID03
100
AcDbText
  0
LINE
  5
247
330
244
100
AcDbEntity
  8
5
  6
Continuous
 62
     3
100
AcDbLine
 10
-42.72962999999999
 20
59.999996
 30
0.0
 11
-42.72963299999999
 21
24.999996
 31
0.0
  0
LINE
  5
248
330
244
100
AcDbEntity
  8
5
  6
Continuous
 62
     3
100
AcDbLine
 10
-54.254925
 20
24.999996
 30
0.0
 11
-40.72963699999999
 21
24.999996
 31
0.0
  0
POLYLINE
  5
249
330
244
100
AcDbEntity
  8
5
  6
Continuous
 62
     3
100
AcDb2dPolyline
 66
     1
 10
0.0
 20
0.0
 30
0.0
 70
     1
  0
VERTEX
  5
24A
330
249
100
AcDbEntity
  8
5
  6
Continuous
 62
     3
100
AcDbVertex
100
AcDb2dVertex
 10
-42.21199
 20
57.999989
 30
0.0
  0
VERTEX
  5
24B
330
249
100
AcDbEntity
  8
5
  6
Continuous
 62
     3
100
AcDbVertex
100
AcDb2dVertex
 10
-42.72964499999999
 20
59.999996
 30
0.0
  0
VERTEX
  5
24C
330
249
100
AcDbEntity
  8
5
  6
Continuous
 62
     3
100
AcDbVertex
100
AcDb2dVertex
 10
-43.247261
 20
57.999989
 30
0.0
  0
SEQEND
  5
24D
330
249
100
AcDbEntity
  8
5
  6
Continuous
 62
     3
  0
POLYLINE
  5
24E
330
244
100
AcDbEntity
  8
5
  6
Continuous
 62
     3
100
AcDb2dPolyline
 66
     1
 10
0.0
 20
0.0
 30
0.0
 70
     1
  0
VERTEX
  5
24F
330
24E
100
AcDbEntity
  8
5
  6
Continuous
 62
     3
100
AcDbVertex
100
AcDb2dVertex
 10
-43.247261
 20
27.000004
 30
0.0
  0
VERTEX
  5
250
330
24E
100
AcDbEntity
  8
5
  6
Continuous
 62
     3
100
AcDbVertex
100
AcDb2dVertex
 10
-42.72964499999999
 20
24.999996
 30
0.0
  0
VERTEX
  5
251
330
24E
100
AcDbEntity
  8
5
  6
Continuous
 62
     3
100
AcDbVertex
100
AcDb2dVertex
 10
-42.21199
 20
27.000004
 30
0.0
  0
SEQEND
  5
252
330
24E
100
AcDbEntity
  8
5
  6
Continuous
 62
     3
  0
ENDBLK
  5
253
330
244
100
AcDbEntity
  8
0
100
AcDbBlockEnd
  0
BLOCK
  5
3CB
330
3CA
100
AcDbEntity
  8
0
100
AcDbBlockBegin
  2
*U26
 70
     1
 10
0.0
 20
0.0
 30
0.0
  3
*U26
  1

  0
ENDBLK
  5
3CC
330
3CA
100
AcDbEntity
  8
0
100
AcDbBlockEnd
  0
BLOCK
  5
43E
330
43D
100
AcDbEntity
  8
0
100
AcDbBlockBegin
  2
GEVCON
 70
     0
 10
0.0
 20
0.0
 30
0.0
  3
GEVCON
  1
GEVCON
  0
ENDBLK
  5
43F
330
43D
100
AcDbEntity
  8
0
100
AcDbBlockEnd
  0
BLOCK
  5
448
330
441
100
AcDbEntity
  8
0
100
AcDbBlockBegin
  2
GEVEP
 70
     0
 10
0.0
 20
0.0
 30
0.0
  3
GEVEP
  1

  0
LINE
  5
442
330
441
100
AcDbEntity
  8
0
100
AcDbLine
 10
2.0
 20
-2.0
 30
0.0
 11
-2.0
 21
-2.0
 31
0.0
  0
LINE
  5
443
330
441
100
AcDbEntity
  8
0
100
AcDbLine
 10
-2.0
 20
2.0
 30
0.0
 11
2.0
 21
2.0
 31
0.0
  0
LINE
  5
444
330
441
100
AcDbEntity
  8
0
100
AcDbLine
 10
2.0
 20
-2.0
 30
0.0
 11
-2.0
 21
2.0
 31
0.0
  0
LINE
  5
445
330
441
100
AcDbEntity
  8
0
100
AcDbLine
 10
-2.0
 20
-2.0
 30
0.0
 11
2.0
 21
2.0
 31
0.0
  0
LINE
  5
446
330
441
100
AcDbEntity
  8
0
100
AcDbLine
 10
-2.0
 20
-2.0
 30
0.0
 11
-2.0
 21
2.0
 31
0.0
  0
LINE
  5
447
330
441
100
AcDbEntity
  8
0
100
AcDbLine
 10
2.0
 20
2.0
 30
0.0
 11
2.0
 21
-2.0
 31
0.0
  0
ENDBLK
  5
449
330
441
100
AcDbEntity
  8
0
100
AcDbBlockEnd
  0
BLOCK
  5
44E
330
44D
100
AcDbEntity
  8
0
100
AcDbBlockBegin
  2
GEVFRAME
 70
     0
 10
0.0
 20
0.0
 30
0.0
  3
GEVFRAME
  1
GEVFRAME
  0
LINE
  5
44F
330
44D
100
AcDbEntity
  8
0
100
AcDbLine
 10
0.0
 20
0.0
 30
0.0
 11
1.0
 21
0.0
 31
0.0
  0
LINE
  5
450
330
44D
100
AcDbEntity
  8
0
100
AcDbLine
 10
1.0
 20
0.0
 30
0.0
 11
1.0
 21
1.0
 31
0.0
  0
LINE
  5
451
330
44D
100
AcDbEntity
  8
0
100
AcDbLine
 10
1.0
 20
1.0
 30
0.0
 11
0.0
 21
1.0
 31
0.0
  0
LINE
  5
452
330
44D
100
AcDbEntity
  8
0
100
AcDbLine
 10
0.0
 20
1.0
 30
0.0
 11
0.0
 21
0.0
 31
0.0
  0
ENDBLK
  5
453
330
44D
100
AcDbEntity
  8
0
100
AcDbBlockEnd
  0
BLOCK
  5
737
330
72D
100
AcDbEntity
  8
0
100
AcDbBlockBegin
  2
*D30
 70
     1
 10
0.0
 20
0.0
 30
0.0
  3
*D30
  1

  0
LINE
  5
1C9F
330
72D
100
AcDbEntity
  8
5
370
    -2
100
AcDbLine
 10
61.7695484710244
 20
146.9077250127943
 30
0.0
 11
99.45806432872439
 21
146.9077250127943
 31
0.0
  0
LINE
  5
1CA0
330
72D
100
AcDbEntity
  8
5
370
    -2
100
AcDbLine
 10
61.76954447102441
 20
135.9077090127944
 30
0.0
 11
99.45806432872439
 21
135.9077090127943
 31
0.0
  0
LINE
  5
1CA1
330
72D
100
AcDbEntity
  8
5
370
    -2
100
AcDbLine
 10
97.4580643287244
 20
129.9077090127943
 30
0.0
 11
97.4580643287244
 21
123.9077090127943
 31
0.0
  0
LINE
  5
1CA2
330
72D
100
AcDbEntity
  8
5
370
    -2
100
AcDbLine
 10
97.4580643287244
 20
152.9077250127943
 30
0.0
 11
97.45806432872441
 21
198.6321853262543
 31
0.0
  0
LINE
  5
1CA3
330
72D
100
AcDbEntity
  8
5
370
    -2
100
AcDbLine
 10
97.4580643287244
 20
135.9077090127943
 30
0.0
 11
97.4580643287244
 21
146.9077250127943
 31
0.0
  0
SOLID
  5
1CA4
330
72D
100
AcDbEntity
  8
5
100
AcDbTrace
 10
96.4580643287244
 20
129.9077090127943
 30
0.0
 11
98.45806432872439
 21
129.9077090127943
 31
0.0
 12
97.4580643287244
 22
135.9077090127943
 32
0.0
 13
97.4580643287244
 23
135.9077090127943
 33
0.0
  0
SOLID
  5
1CA5
330
72D
100
AcDbEntity
  8
5
100
AcDbTrace
 10
96.4580643287244
 20
152.9077250127943
 30
0.0
 11
98.45806432872439
 21
152.9077250127943
 31
0.0
 12
97.4580643287244
 22
146.9077250127943
 32
0.0
 13
97.4580643287244
 23
146.9077250127943
 33
0.0
  0
MTEXT
  5
1CA6
330
72D
100
AcDbEntity
  8
5
 62
     2
100
AcDbMText
 10
91.95806432872437
 20
178.7699551695243
 30
0.0
 40
7.0
 41
0.0
 46
0.0
 71
     5
 72
     1
  1
%%c11 x 90°
 11
0.0000000000000001
 21
1.0
 31
0.0
 73
     1
 44
1.0
  0
POINT
  5
1CA7
330
72D
100
AcDbEntity
  8
Defpoints
 62
     0
100
AcDbPoint
 10
61.7695484710244
 20
146.9077250127943
 30
0.0
  0
POINT
  5
1CA8
330
72D
100
AcDbEntity
  8
Defpoints
 62
     0
100
AcDbPoint
 10
61.76954447102441
 20
135.9077090127944
 30
0.0
  0
POINT
  5
1CA9
330
72D
100
AcDbEntity
  8
Defpoints
 62
     0
100
AcDbPoint
 10
97.4580643287244
 20
135.9077090127943
 30
0.0
  0
ENDBLK
  5
738
330
72D
100
AcDbEntity
  8
0
100
AcDbBlockEnd
  0
BLOCK
  5
7F1
330
7E5
100
AcDbEntity
  8
0
100
AcDbBlockBegin
  2
*D31
 70
     1
 10
0.0
 20
0.0
 30
0.0
  3
*D31
  1

  0
LINE
  5
1C94
330
7E5
100
AcDbEntity
  8
5
370
    -2
100
AcDbLine
 10
37.76954847102441
 20
144.0577190127944
 30
0.0
 11
12.70868727868426
 21
144.0577190127944
 31
0.0
  0
LINE
  5
1C95
330
7E5
100
AcDbEntity
  8
5
370
    -2
100
AcDbLine
 10
37.76954847102441
 20
138.7577150127944
 30
0.0
 11
12.70868727868426
 21
138.7577150127944
 31
0.0
  0
LINE
  5
1C96
330
7E5
100
AcDbEntity
  8
5
370
    -2
100
AcDbLine
 10
14.70868727868426
 20
132.7577150127944
 30
0.0
 11
14.70868727868425
 21
126.7577150127944
 31
0.0
  0
LINE
  5
1C97
330
7E5
100
AcDbEntity
  8
5
370
    -2
100
AcDbLine
 10
14.70868727868426
 20
150.0577190127944
 30
0.0
 11
14.70868727868426
 21
179.6340189586664
 31
0.0
  0
LINE
  5
1C98
330
7E5
100
AcDbEntity
  8
5
370
    -2
100
AcDbLine
 10
14.70868727868426
 20
138.7577150127944
 30
0.0
 11
14.70868727868426
 21
144.0577190127944
 31
0.0
  0
SOLID
  5
1C99
330
7E5
100
AcDbEntity
  8
5
100
AcDbTrace
 10
13.70868727868425
 20
132.7577150127944
 30
0.0
 11
15.70868727868426
 21
132.7577150127944
 31
0.0
 12
14.70868727868426
 22
138.7577150127944
 32
0.0
 13
14.70868727868426
 23
138.7577150127944
 33
0.0
  0
SOLID
  5
1C9A
330
7E5
100
AcDbEntity
  8
5
100
AcDbTrace
 10
13.70868727868426
 20
150.0577190127944
 30
0.0
 11
15.70868727868426
 21
150.0577190127944
 31
0.0
 12
14.70868727868426
 22
144.0577190127944
 32
0.0
 13
14.70868727868426
 23
144.0577190127944
 33
0.0
  0
MTEXT
  5
1C9B
330
7E5
100
AcDbEntity
  8
5
 62
     2
100
AcDbMText
 10
9.208687278684237
 20
169.4390442118358
 30
0.0
 40
7.0
 41
0.0
 46
0.0
 71
     5
 72
     1
  1
%%c5.3
 11
0.0000000000000001
 21
1.0
 31
0.0
 73
     1
 44
1.0
  0
POINT
  5
1C9C
330
7E5
100
AcDbEntity
  8
Defpoints
 62
     0
100
AcDbPoint
 10
37.76954847102441
 20
144.0577190127944
 30
0.0
  0
POINT
  5
1C9D
330
7E5
100
AcDbEntity
  8
Defpoints
 62
     0
100
AcDbPoint
 10
37.76954847102441
 20
138.7577150127944
 30
0.0
  0
POINT
  5
1C9E
330
7E5
100
AcDbEntity
  8
Defpoints
 62
     0
100
AcDbPoint
 10
14.70868727868426
 20
138.7577150127944
 30
0.0
  0
ENDBLK
  5
7F2
330
7E5
100
AcDbEntity
  8
0
100
AcDbBlockEnd
  0
BLOCK
  5
8B1
330
8A7
100
AcDbEntity
  8
0
100
AcDbBlockBegin
  2
*D32
 70
     1
 10
0.0
 20
0.0
 30
0.0
  3
*D32
  1

  0
LINE
  5
1E5D
330
8A7
100
AcDbEntity
  8
5
370
    -2
100
AcDbLine
 10
-128.2304355289756
 20
38.40554701279439
 30
0.0
 11
-128.2304355289756
 21
2.485623502903877
 31
0.0
  0
LINE
  5
1E5E
330
8A7
100
AcDbEntity
  8
5
370
    -2
100
AcDbLine
 10
-94.23043552897558
 20
38.40554701279439
 30
0.0
 11
-94.23043552897558
 21
2.485623502903877
 31
0.0
  0
LINE
  5
1E5F
330
8A7
100
AcDbEntity
  8
5
370
    -2
100
AcDbLine
 10
-122.2304355289756
 20
4.485623502903877
 30
0.0
 11
-100.2304355289756
 21
4.485623502903877
 31
0.0
  0
SOLID
  5
1E60
330
8A7
100
AcDbEntity
  8
5
100
AcDbTrace
 10
-122.2304355289756
 20
5.485623502903877
 30
0.0
 11
-122.2304355289756
 21
3.485623502903877
 31
0.0
 12
-128.2304355289756
 22
4.485623502903877
 32
0.0
 13
-128.2304355289756
 23
4.485623502903877
 33
0.0
  0
SOLID
  5
1E61
330
8A7
100
AcDbEntity
  8
5
100
AcDbTrace
 10
-100.2304355289756
 20
5.485623502903877
 30
0.0
 11
-100.2304355289756
 21
3.485623502903877
 31
0.0
 12
-94.23043552897558
 22
4.485623502903877
 32
0.0
 13
-94.23043552897558
 23
4.485623502903877
 33
0.0
  0
MTEXT
  5
1E62
330
8A7
100
AcDbEntity
  8
5
 62
     2
100
AcDbMText
 10
-110.9314637362263
 20
9.985623502903877
 30
0.0
 40
7.0
 41
0.0
 46
0.0
 71
     5
 72
     1
  1
34
 73
     1
 44
1.0
  0
POINT
  5
1E63
330
8A7
100
AcDbEntity
  8
Defpoints
 62
     0
100
AcDbPoint
 10
-128.2304355289756
 20
38.40554701279439
 30
0.0
  0
POINT
  5
1E64
330
8A7
100
AcDbEntity
  8
Defpoints
 62
     0
100
AcDbPoint
 10
-94.23043552897558
 20
38.40554701279439
 30
0.0
  0
POINT
  5
1E65
330
8A7
100
AcDbEntity
  8
Defpoints
 62
     0
100
AcDbPoint
 10
-94.23043552897558
 20
4.485623502903877
 30
0.0
  0
ENDBLK
  5
8B2
330
8A7
100
AcDbEntity
  8
0
100
AcDbBlockEnd
  0
BLOCK
  5
941
330
937
100
AcDbEntity
  8
0
100
AcDbBlockBegin
  2
*D33
 70
     1
 10
0.0
 20
0.0
 30
0.0
  3
*D33
  1

  0
LINE
  5
1E54
330
937
100
AcDbEntity
  8
5
370
    -2
100
AcDbLine
 10
-111.2304355289756
 20
21.40554901279438
 30
0.0
 11
-57.96887114308542
 21
21.40554901279437
 31
0.0
  0
LINE
  5
1E55
330
937
100
AcDbEntity
  8
5
370
    -2
100
AcDbLine
 10
-111.2304355289756
 20
181.4077530127944
 30
0.0
 11
-57.96887114308539
 21
181.4077530127944
 31
0.0
  0
LINE
  5
1E56
330
937
100
AcDbEntity
  8
5
370
    -2
100
AcDbLine
 10
-59.96887114308542
 20
27.40554901279437
 30
0.0
 11
-59.96887114308539
 21
175.4077530127943
 31
0.0
  0
SOLID
  5
1E57
330
937
100
AcDbEntity
  8
5
100
AcDbTrace
 10
-60.96887114308542
 20
27.40554901279437
 30
0.0
 11
-58.96887114308542
 21
27.40554901279437
 31
0.0
 12
-59.96887114308542
 22
21.40554901279437
 32
0.0
 13
-59.96887114308542
 23
21.40554901279437
 33
0.0
  0
SOLID
  5
1E58
330
937
100
AcDbEntity
  8
5
100
AcDbTrace
 10
-60.9688711430854
 20
175.4077530127943
 30
0.0
 11
-58.96887114308539
 21
175.4077530127943
 31
0.0
 12
-59.96887114308538
 22
181.4077530127944
 32
0.0
 13
-59.96887114308538
 23
181.4077530127944
 33
0.0
  0
MTEXT
  5
1E59
330
937
100
AcDbEntity
  8
5
 62
     2
100
AcDbMText
 10
-65.46887114308543
 20
101.4066510127943
 30
0.0
 40
7.0
 41
0.0
 46
0.0
 71
     5
 72
     1
  1
160
 11
0.0000000000000001
 21
1.0
 31
0.0
 73
     1
 44
1.0
  0
POINT
  5
1E5A
330
937
100
AcDbEntity
  8
Defpoints
 62
     0
100
AcDbPoint
 10
-111.2304355289756
 20
21.40554901279438
 30
0.0
  0
POINT
  5
1E5B
330
937
100
AcDbEntity
  8
Defpoints
 62
     0
100
AcDbPoint
 10
-111.2304355289756
 20
181.4077530127944
 30
0.0
  0
POINT
  5
1E5C
330
937
100
AcDbEntity
  8
Defpoints
 62
     0
100
AcDbPoint
 10
-59.96887114308538
 20
181.4077530127944
 30
0.0
  0
ENDBLK
  5
942
330
937
100
AcDbEntity
  8
0
100
AcDbBlockEnd
  0
BLOCK
  5
A54
330
A4A
100
AcDbEntity
  8
0
100
AcDbBlockBegin
  2
*D34
 70
     1
 10
0.0
 20
0.0
 30
0.0
  3
*D34
  1

  0
LINE
  5
1C6E
330
A4A
100
AcDbEntity
  8
5
370
    -2
100
AcDbLine
 10
-3.230457528975589
 20
105.9077550127944
 30
0.0
 11
-15.72683916370486
 21
105.9077550127944
 31
0.0
  0
LINE
  5
1C6F
330
A4A
100
AcDbEntity
  8
5
370
    -2
100
AcDbLine
 10
-3.230457528975589
 20
96.90774701279439
 30
0.0
 11
-15.72683916370486
 21
96.90774701279439
 31
0.0
  0
LINE
  5
1C70
330
A4A
100
AcDbEntity
  8
5
370
    -2
100
AcDbLine
 10
-13.72683916370486
 20
111.9077550127943
 30
0.0
 11
-13.72683916370486
 21
117.9077550127944
 31
0.0
  0
LINE
  5
1C71
330
A4A
100
AcDbEntity
  8
5
370
    -2
100
AcDbLine
 10
-13.72683916370486
 20
90.90774701279439
 30
0.0
 11
-13.72683916370486
 21
84.90774701279439
 31
0.0
  0
LINE
  5
1C72
330
A4A
100
AcDbEntity
  8
5
370
    -2
100
AcDbLine
 10
-13.72683916370486
 20
105.9077550127944
 30
0.0
 11
-13.72683916370486
 21
96.90774701279439
 31
0.0
  0
SOLID
  5
1C73
330
A4A
100
AcDbEntity
  8
5
100
AcDbTrace
 10
-14.72683916370486
 20
111.9077550127943
 30
0.0
 11
-12.72683916370486
 21
111.9077550127943
 31
0.0
 12
-13.72683916370486
 22
105.9077550127944
 32
0.0
 13
-13.72683916370486
 23
105.9077550127944
 33
0.0
  0
SOLID
  5
1C74
330
A4A
100
AcDbEntity
  8
5
100
AcDbTrace
 10
-14.72683916370487
 20
90.90774701279439
 30
0.0
 11
-12.72683916370487
 21
90.90774701279439
 31
0.0
 12
-13.72683916370486
 22
96.90774701279439
 32
0.0
 13
-13.72683916370486
 23
96.90774701279439
 33
0.0
  0
MTEXT
  5
1C75
330
A4A
100
AcDbEntity
  8
5
 62
     2
100
AcDbMText
 10
-19.22683916370488
 20
101.4077510127944
 30
0.0
 40
7.0
 41
0.0
 46
0.0
 71
     5
 72
     1
  1
{\Famgdt;o}9/{\Famgdt;o}10
 11
0.0000000000000001
 21
1.0
 31
0.0
 73
     1
 44
1.0
  0
POINT
  5
1C76
330
A4A
100
AcDbEntity
  8
Defpoints
 62
     0
100
AcDbPoint
 10
-3.230457528975589
 20
105.9077550127944
 30
0.0
  0
POINT
  5
1C77
330
A4A
100
AcDbEntity
  8
Defpoints
 62
     0
100
AcDbPoint
 10
-3.230457528975589
 20
96.90774701279439
 30
0.0
  0
POINT
  5
1C78
330
A4A
100
AcDbEntity
  8
Defpoints
 62
     0
100
AcDbPoint
 10
-13.72683916370486
 20
96.90774701279439
 30
0.0
  0
ENDBLK
  5
A55
330
A4A
100
AcDbEntity
  8
0
100
AcDbBlockEnd
  0
BLOCK
  5
BB5
330
BAB
100
AcDbEntity
  8
0
100
AcDbBlockBegin
  2
*D35
 70
     1
 10
0.0
 20
0.0
 30
0.0
  3
*D35
  1

  0
LINE
  5
1C5C
330
BAB
100
AcDbEntity
  8
5
370
    -2
100
AcDbLine
 10
-3.230457528975589
 20
96.90774701279439
 30
0.0
 11
-3.23045752897559
 21
79.34963180347245
 31
0.0
  0
LINE
  5
1C5D
330
BAB
100
AcDbEntity
  8
5
370
    -2
100
AcDbLine
 10
46.7695484710244
 20
96.90774701279439
 30
0.0
 11
46.7695484710244
 21
79.34963180347245
 31
0.0
  0
LINE
  5
1C5E
330
BAB
100
AcDbEntity
  8
5
370
    -2
100
AcDbLine
 10
2.769542471024409
 20
81.34963180347245
 30
0.0
 11
40.76954847102441
 21
81.34963180347245
 31
0.0
  0
SOLID
  5
1C5F
330
BAB
100
AcDbEntity
  8
5
100
AcDbTrace
 10
2.769542471024409
 20
82.34963180347245
 30
0.0
 11
2.769542471024409
 21
80.34963180347245
 31
0.0
 12
-3.23045752897559
 22
81.34963180347245
 32
0.0
 13
-3.23045752897559
 23
81.34963180347245
 33
0.0
  0
SOLID
  5
1C60
330
BAB
100
AcDbEntity
  8
5
100
AcDbTrace
 10
40.76954847102441
 20
82.34963180347245
 30
0.0
 11
40.76954847102441
 21
80.34963180347245
 31
0.0
 12
46.7695484710244
 22
81.34963180347245
 32
0.0
 13
46.7695484710244
 23
81.34963180347245
 33
0.0
  0
MTEXT
  5
1C61
330
BAB
100
AcDbEntity
  8
5
 62
     2
100
AcDbMText
 10
22.02054604285513
 20
86.84963180347244
 30
0.0
 40
7.0
 41
0.0
 46
0.0
 71
     5
 72
     1
  1
50
 73
     1
 44
1.0
  0
POINT
  5
1C62
330
BAB
100
AcDbEntity
  8
Defpoints
 62
     0
100
AcDbPoint
 10
-3.230457528975589
 20
96.90774701279439
 30
0.0
  0
POINT
  5
1C63
330
BAB
100
AcDbEntity
  8
Defpoints
 62
     0
100
AcDbPoint
 10
46.7695484710244
 20
96.90774701279439
 30
0.0
  0
POINT
  5
1C64
330
BAB
100
AcDbEntity
  8
Defpoints
 62
     0
100
AcDbPoint
 10
46.7695484710244
 20
81.34963180347245
 30
0.0
  0
ENDBLK
  5
BB6
330
BAB
100
AcDbEntity
  8
0
100
AcDbBlockEnd
  0
BLOCK
  5
C66
330
C5C
100
AcDbEntity
  8
0
100
AcDbBlockBegin
  2
*D36
 70
     1
 10
0.0
 20
0.0
 30
0.0
  3
*D36
  1

  0
LINE
  5
1C51
330
C5C
100
AcDbEntity
  8
5
370
    -2
100
AcDbLine
 10
37.76954847102441
 20
67.15778501279439
 30
0.0
 11
12.70868727868424
 21
67.15778501279441
 31
0.0
  0
LINE
  5
1C52
330
C5C
100
AcDbEntity
  8
5
370
    -2
100
AcDbLine
 10
37.76954847102441
 20
55.65777101279437
 30
0.0
 11
12.70868727868423
 21
55.65777101279437
 31
0.0
  0
LINE
  5
1C53
330
C5C
100
AcDbEntity
  8
5
370
    -2
100
AcDbLine
 10
14.70868727868424
 20
73.1577850127944
 30
0.0
 11
14.70868727868424
 21
79.1577850127944
 31
0.0
  0
LINE
  5
1C54
330
C5C
100
AcDbEntity
  8
5
370
    -2
100
AcDbLine
 10
14.70868727868423
 20
49.65777101279438
 30
0.0
 11
14.70868727868423
 21
19.15677792436219
 31
0.0
  0
LINE
  5
1C55
330
C5C
100
AcDbEntity
  8
5
370
    -2
100
AcDbLine
 10
14.70868727868424
 20
67.15778501279441
 30
0.0
 11
14.70868727868424
 21
55.65777101279437
 31
0.0
  0
SOLID
  5
1C56
330
C5C
100
AcDbEntity
  8
5
100
AcDbTrace
 10
13.70868727868424
 20
73.1577850127944
 30
0.0
 11
15.70868727868424
 21
73.1577850127944
 31
0.0
 12
14.70868727868424
 22
67.15778501279441
 32
0.0
 13
14.70868727868424
 23
67.15778501279441
 33
0.0
  0
SOLID
  5
1C57
330
C5C
100
AcDbEntity
  8
5
100
AcDbTrace
 10
13.70868727868423
 20
49.65777101279438
 30
0.0
 11
15.70868727868423
 21
49.65777101279438
 31
0.0
 12
14.70868727868424
 22
55.65777101279437
 32
0.0
 13
14.70868727868424
 23
55.65777101279437
 33
0.0
  0
MTEXT
  5
1C58
330
C5C
100
AcDbEntity
  8
5
 62
     2
100
AcDbMText
 10
9.208687278684227
 20
30.40175267119278
 30
0.0
 40
7.0
 41
0.0
 46
0.0
 71
     5
 72
     1
  1
%%c11.5
 11
0.0000000000000001
 21
1.0
 31
0.0
 73
     1
 44
1.0
  0
POINT
  5
1C59
330
C5C
100
AcDbEntity
  8
Defpoints
 62
     0
100
AcDbPoint
 10
37.76954847102441
 20
67.15778501279439
 30
0.0
  0
POINT
  5
1C5A
330
C5C
100
AcDbEntity
  8
Defpoints
 62
     0
100
AcDbPoint
 10
37.76954847102441
 20
55.65777101279437
 30
0.0
  0
POINT
  5
1C5B
330
C5C
100
AcDbEntity
  8
Defpoints
 62
     0
100
AcDbPoint
 10
14.70868727868424
 20
55.65777101279437
 30
0.0
  0
ENDBLK
  5
C67
330
C5C
100
AcDbEntity
  8
0
100
AcDbBlockEnd
  0
BLOCK
  5
CEE
330
CE4
100
AcDbEntity
  8
0
100
AcDbBlockBegin
  2
*D37
 70
     1
 10
0.0
 20
0.0
 30
0.0
  3
*D37
  1

  0
LINE
  5
1C46
330
CE4
100
AcDbEntity
  8
5
370
    -2
100
AcDbLine
 10
37.76956447102441
 20
55.65777701279438
 30
0.0
 11
37.76956447102441
 21
34.93996230800192
 31
0.0
  0
LINE
  5
1C47
330
CE4
100
AcDbEntity
  8
5
370
    -2
100
AcDbLine
 10
46.7695484710244
 20
55.65777701279438
 30
0.0
 11
46.7695484710244
 21
34.93996230800192
 31
0.0
  0
LINE
  5
1C48
330
CE4
100
AcDbEntity
  8
5
370
    -2
100
AcDbLine
 10
31.76956447102441
 20
36.93996230800193
 30
0.0
 11
25.76956447102441
 21
36.93996230800193
 31
0.0
  0
LINE
  5
1C49
330
CE4
100
AcDbEntity
  8
5
370
    -2
100
AcDbLine
 10
52.76954847102441
 20
36.93996230800193
 30
0.0
 11
58.76954847102441
 21
36.93996230800193
 31
0.0
  0
LINE
  5
1C4A
330
CE4
100
AcDbEntity
  8
5
370
    -2
100
AcDbLine
 10
37.76956447102441
 20
36.93996230800193
 30
0.0
 11
46.7695484710244
 21
36.93996230800193
 31
0.0
  0
SOLID
  5
1C4B
330
CE4
100
AcDbEntity
  8
5
100
AcDbTrace
 10
31.76956447102441
 20
37.93996230800193
 30
0.0
 11
31.76956447102441
 21
35.93996230800192
 31
0.0
 12
37.76956447102441
 22
36.93996230800193
 32
0.0
 13
37.76956447102441
 23
36.93996230800193
 33
0.0
  0
SOLID
  5
1C4C
330
CE4
100
AcDbEntity
  8
5
100
AcDbTrace
 10
52.76954847102441
 20
37.93996230800193
 30
0.0
 11
52.76954847102441
 21
35.93996230800192
 31
0.0
 12
46.7695484710244
 22
36.93996230800193
 32
0.0
 13
46.7695484710244
 23
36.93996230800193
 33
0.0
  0
MTEXT
  5
1C4D
330
CE4
100
AcDbEntity
  8
5
 62
     2
100
AcDbMText
 10
42.26955647102441
 20
42.43996230800192
 30
0.0
 40
7.0
 41
0.0
 46
0.0
 71
     5
 72
     1
  1
9
 73
     1
 44
1.0
  0
POINT
  5
1C4E
330
CE4
100
AcDbEntity
  8
Defpoints
 62
     0
100
AcDbPoint
 10
37.76956447102441
 20
55.65777701279438
 30
0.0
  0
POINT
  5
1C4F
330
CE4
100
AcDbEntity
  8
Defpoints
 62
     0
100
AcDbPoint
 10
46.7695484710244
 20
55.65777701279438
 30
0.0
  0
POINT
  5
1C50
330
CE4
100
AcDbEntity
  8
Defpoints
 62
     0
100
AcDbPoint
 10
46.7695484710244
 20
36.93996230800193
 30
0.0
  0
ENDBLK
  5
CEF
330
CE4
100
AcDbEntity
  8
0
100
AcDbBlockEnd
  0
BLOCK
  5
DAB
330
DA1
100
AcDbEntity
  8
0
100
AcDbBlockBegin
  2
*D38
 70
     1
 10
0.0
 20
0.0
 30
0.0
  3
*D38
  1

  0
LINE
  5
1E49
330
DA1
100
AcDbEntity
  8
5
370
    -2
100
AcDbLine
 10
46.7695484710244
 20
21.40555301279437
 30
0.0
 11
46.7695484710244
 21
-0.5944469872056289
 31
0.0
  0
LINE
  5
1E4A
330
DA1
100
AcDbEntity
  8
5
370
    -2
100
AcDbLine
 10
61.7695484710244
 20
23.40555301279437
 30
0.0
 11
61.7695484710244
 21
-0.5944469872056289
 31
0.0
  0
LINE
  5
1E4B
330
DA1
100
AcDbEntity
  8
5
370
    -2
100
AcDbLine
 10
40.76954847102441
 20
1.405553012794371
 30
0.0
 11
34.76954847102441
 21
1.405553012794371
 31
0.0
  0
LINE
  5
1E4C
330
DA1
100
AcDbEntity
  8
5
370
    -2
100
AcDbLine
 10
67.76954847102441
 20
1.405553012794371
 30
0.0
 11
73.76954847102441
 21
1.405553012794371
 31
0.0
  0
LINE
  5
1E4D
330
DA1
100
AcDbEntity
  8
5
370
    -2
100
AcDbLine
 10
46.7695484710244
 20
1.405553012794371
 30
0.0
 11
61.7695484710244
 21
1.405553012794371
 31
0.0
  0
SOLID
  5
1E4E
330
DA1
100
AcDbEntity
  8
5
100
AcDbTrace
 10
40.76954847102441
 20
2.405553012794371
 30
0.0
 11
40.76954847102441
 21
0.4055530127943712
 31
0.0
 12
46.7695484710244
 22
1.405553012794371
 32
0.0
 13
46.7695484710244
 23
1.405553012794371
 33
0.0
  0
SOLID
  5
1E4F
330
DA1
100
AcDbEntity
  8
5
100
AcDbTrace
 10
67.76954847102441
 20
2.405553012794371
 30
0.0
 11
67.76954847102441
 21
0.4055530127943712
 31
0.0
 12
61.7695484710244
 22
1.405553012794371
 32
0.0
 13
61.7695484710244
 23
1.405553012794371
 33
0.0
  0
MTEXT
  5
1E50
330
DA1
100
AcDbEntity
  8
5
 62
     2
100
AcDbMText
 10
54.2695484710244
 20
6.905553012794371
 30
0.0
 40
7.0
 41
0.0
 46
0.0
 71
     5
 72
     1
  1
15
 73
     1
 44
1.0
  0
POINT
  5
1E51
330
DA1
100
AcDbEntity
  8
Defpoints
 62
     0
100
AcDbPoint
 10
46.7695484710244
 20
21.40555301279437
 30
0.0
  0
POINT
  5
1E52
330
DA1
100
AcDbEntity
  8
Defpoints
 62
     0
100
AcDbPoint
 10
61.7695484710244
 20
23.40555301279437
 30
0.0
  0
POINT
  5
1E53
330
DA1
100
AcDbEntity
  8
Defpoints
 62
     0
100
AcDbPoint
 10
61.7695484710244
 20
1.405553012794371
 30
0.0
  0
ENDBLK
  5
DAC
330
DA1
100
AcDbEntity
  8
0
100
AcDbBlockEnd
  0
BLOCK
  5
E92
330
E88
100
AcDbEntity
  8
0
100
AcDbBlockBegin
  2
*D39
 70
     1
 10
0.0
 20
0.0
 30
0.0
  3
*D39
  1

  0
LINE
  5
1E40
330
E88
100
AcDbEntity
  8
5
370
    -2
100
AcDbLine
 10
61.7695484710244
 20
23.40555301279437
 30
0.0
 11
61.7695484710244
 21
-0.5944469872056289
 31
0.0
  0
LINE
  5
1E41
330
E88
100
AcDbEntity
  8
5
370
    -2
100
AcDbLine
 10
131.7695644710244
 20
137.4077550127944
 30
0.0
 11
131.7695644710244
 21
-0.5944469872056289
 31
0.0
  0
LINE
  5
1E42
330
E88
100
AcDbEntity
  8
5
370
    -2
100
AcDbLine
 10
67.76954847102441
 20
1.405553012794371
 30
0.0
 11
125.7695644710244
 21
1.405553012794371
 31
0.0
  0
SOLID
  5
1E43
330
E88
100
AcDbEntity
  8
5
100
AcDbTrace
 10
67.76954847102441
 20
2.405553012794371
 30
0.0
 11
67.76954847102441
 21
0.4055530127943712
 31
0.0
 12
61.7695484710244
 22
1.405553012794371
 32
0.0
 13
61.7695484710244
 23
1.405553012794371
 33
0.0
  0
SOLID
  5
1E44
330
E88
100
AcDbEntity
  8
5
100
AcDbTrace
 10
125.7695644710244
 20
2.405553012794371
 30
0.0
 11
125.7695644710244
 21
0.4055530127943712
 31
0.0
 12
131.7695644710244
 22
1.405553012794371
 32
0.0
 13
131.7695644710244
 23
1.405553012794371
 33
0.0
  0
MTEXT
  5
1E45
330
E88
100
AcDbEntity
  8
5
 62
     2
100
AcDbMText
 10
96.76955647102444
 20
6.905553012794371
 30
0.0
 40
7.0
 41
0.0
 46
0.0
 71
     5
 72
     1
  1
70
 73
     1
 44
1.0
  0
POINT
  5
1E46
330
E88
100
AcDbEntity
  8
Defpoints
 62
     0
100
AcDbPoint
 10
61.7695484710244
 20
23.40555301279437
 30
0.0
  0
POINT
  5
1E47
330
E88
100
AcDbEntity
  8
Defpoints
 62
     0
100
AcDbPoint
 10
131.7695644710244
 20
137.4077550127944
 30
0.0
  0
POINT
  5
1E48
330
E88
100
AcDbEntity
  8
Defpoints
 62
     0
100
AcDbPoint
 10
131.7695644710244
 20
1.405553012794371
 30
0.0
  0
ENDBLK
  5
E93
330
E88
100
AcDbEntity
  8
0
100
AcDbBlockEnd
  0
BLOCK
  5
F22
330
F18
100
AcDbEntity
  8
0
100
AcDbBlockBegin
  2
*D40
 70
     1
 10
0.0
 20
0.0
 30
0.0
  3
*D40
  1

  0
LINE
  5
1E37
330
F18
100
AcDbEntity
  8
5
370
    -2
100
AcDbLine
 10
46.7695484710244
 20
21.40555301279437
 30
0.0
 11
46.7695484710244
 21
-20.59444698720563
 31
0.0
  0
LINE
  5
1E38
330
F18
100
AcDbEntity
  8
5
370
    -2
100
AcDbLine
 10
131.7695644710244
 20
209.4099410127944
 30
0.0
 11
131.7695644710244
 21
-20.59444698720563
 31
0.0
  0
LINE
  5
1E39
330
F18
100
AcDbEntity
  8
5
370
    -2
100
AcDbLine
 10
52.76954847102441
 20
-18.59444698720563
 30
0.0
 11
125.7695644710244
 21
-18.59444698720563
 31
0.0
  0
SOLID
  5
1E3A
330
F18
100
AcDbEntity
  8
5
100
AcDbTrace
 10
52.76954847102441
 20
-17.59444698720563
 30
0.0
 11
52.76954847102441
 21
-19.59444698720563
 31
0.0
 12
46.7695484710244
 22
-18.59444698720563
 32
0.0
 13
46.7695484710244
 23
-18.59444698720563
 33
0.0
  0
SOLID
  5
1E3B
330
F18
100
AcDbEntity
  8
5
100
AcDbTrace
 10
125.7695644710244
 20
-17.59444698720563
 30
0.0
 11
125.7695644710244
 21
-19.59444698720563
 31
0.0
 12
131.7695644710244
 22
-18.59444698720563
 32
0.0
 13
131.7695644710244
 23
-18.59444698720563
 33
0.0
  0
MTEXT
  5
1E3C
330
F18
100
AcDbEntity
  8
5
 62
     2
100
AcDbMText
 10
89.26954947102442
 20
-13.09444698720563
 30
0.0
 40
7.0
 41
0.0
 46
0.0
 71
     5
 72
     1
  1
85
 73
     1
 44
1.0
  0
POINT
  5
1E3D
330
F18
100
AcDbEntity
  8
Defpoints
 62
     0
100
AcDbPoint
 10
46.7695484710244
 20
21.40555301279437
 30
0.0
  0
POINT
  5
1E3E
330
F18
100
AcDbEntity
  8
Defpoints
 62
     0
100
AcDbPoint
 10
131.7695644710244
 20
209.4099410127944
 30
0.0
  0
POINT
  5
1E3F
330
F18
100
AcDbEntity
  8
Defpoints
 62
     0
100
AcDbPoint
 10
131.7695644710244
 20
-18.59444698720563
 30
0.0
  0
ENDBLK
  5
F23
330
F18
100
AcDbEntity
  8
0
100
AcDbBlockEnd
  0
BLOCK
  5
FBB
330
FB1
100
AcDbEntity
  8
0
100
AcDbBlockBegin
  2
*D41
 70
     1
 10
0.0
 20
0.0
 30
0.0
  3
*D41
  1

  0
LINE
  5
1BB3
330
FB1
100
AcDbEntity
  8
5
370
    -2
100
AcDbLine
 10
83.76954847102441
 20
348.4077690127943
 30
0.0
 11
44.85256379184995
 21
348.4077690127943
 31
0.0
  0
LINE
  5
1BB4
330
FB1
100
AcDbEntity
  8
5
370
    -2
100
AcDbLine
 10
83.76958647102441
 20
370.4077690127944
 30
0.0
 11
44.85256379184995
 21
370.4077690127944
 31
0.0
  0
LINE
  5
1BB5
330
FB1
100
AcDbEntity
  8
5
370
    -2
100
AcDbLine
 10
46.85256379184994
 20
354.4077690127943
 30
0.0
 11
46.85256379184994
 21
364.4077690127944
 31
0.0
  0
SOLID
  5
1BB6
330
FB1
100
AcDbEntity
  8
5
100
AcDbTrace
 10
45.85256379184994
 20
354.4077690127943
 30
0.0
 11
47.85256379184994
 21
354.4077690127943
 31
0.0
 12
46.85256379184994
 22
348.4077690127943
 32
0.0
 13
46.85256379184994
 23
348.4077690127943
 33
0.0
  0
SOLID
  5
1BB7
330
FB1
100
AcDbEntity
  8
5
100
AcDbTrace
 10
45.85256379184994
 20
364.4077690127944
 30
0.0
 11
47.85256379184994
 21
364.4077690127944
 31
0.0
 12
46.85256379184995
 22
370.4077690127944
 32
0.0
 13
46.85256379184995
 23
370.4077690127944
 33
0.0
  0
MTEXT
  5
1BB8
330
FB1
100
AcDbEntity
  8
5
 62
     2
100
AcDbMText
 10
41.35187481547194
 20
358.492550660857
 30
0.0
 40
7.0
 41
0.0
 46
0.0
 71
     5
 72
     1
  1
%%c22
 11
0.0000000000000001
 21
1.0
 31
0.0
 73
     1
 44
1.0
  0
POINT
  5
1BB9
330
FB1
100
AcDbEntity
  8
Defpoints
 62
     0
100
AcDbPoint
 10
83.76954847102441
 20
348.4077690127943
 30
0.0
  0
POINT
  5
1BBA
330
FB1
100
AcDbEntity
  8
Defpoints
 62
     0
100
AcDbPoint
 10
83.76958647102441
 20
370.4077690127944
 30
0.0
  0
POINT
  5
1BBB
330
FB1
100
AcDbEntity
  8
Defpoints
 62
     0
100
AcDbPoint
 10
46.85256379184995
 20
370.4077690127944
 30
0.0
  0
ENDBLK
  5
FBC
330
FB1
100
AcDbEntity
  8
0
100
AcDbBlockEnd
  0
BLOCK
  5
1043
330
1039
100
AcDbEntity
  8
0
100
AcDbBlockBegin
  2
*D42
 70
     1
 10
0.0
 20
0.0
 30
0.0
  3
*D42
  1

  0
LINE
  5
1BAA
330
1039
100
AcDbEntity
  8
5
370
    -2
100
AcDbLine
 10
84.76955647102441
 20
90.4077390127944
 30
0.0
 11
168.0766275481709
 21
90.40773901279436
 31
0.0
  0
LINE
  5
1BAB
330
1039
100
AcDbEntity
  8
5
370
    -2
100
AcDbLine
 10
84.76955647102441
 20
370.4077650127944
 30
0.0
 11
168.076627548171
 21
370.4077650127943
 31
0.0
  0
LINE
  5
1BAC
330
1039
100
AcDbEntity
  8
5
370
    -2
100
AcDbLine
 10
166.0766275481709
 20
96.40773901279438
 30
0.0
 11
166.076627548171
 21
364.4077650127943
 31
0.0
  0
SOLID
  5
1BAD
330
1039
100
AcDbEntity
  8
5
100
AcDbTrace
 10
165.0766275481709
 20
96.40773901279438
 30
0.0
 11
167.0766275481709
 21
96.40773901279438
 31
0.0
 12
166.0766275481709
 22
90.40773901279436
 32
0.0
 13
166.0766275481709
 23
90.40773901279436
 33
0.0
  0
SOLID
  5
1BAE
330
1039
100
AcDbEntity
  8
5
100
AcDbTrace
 10
165.076627548171
 20
364.4077650127943
 30
0.0
 11
167.076627548171
 21
364.4077650127943
 31
0.0
 12
166.076627548171
 22
370.4077650127943
 32
0.0
 13
166.076627548171
 23
370.4077650127943
 33
0.0
  0
MTEXT
  5
1BAF
330
1039
100
AcDbEntity
  8
5
 62
     2
100
AcDbMText
 10
160.575938571793
 20
230.4077520127947
 30
0.0
 40
7.0
 41
0.0
 46
0.0
 71
     5
 72
     1
  1
280
 11
0.0000000000000001
 21
1.0
 31
0.0
 73
     1
 44
1.0
  0
POINT
  5
1BB0
330
1039
100
AcDbEntity
  8
Defpoints
 62
     0
100
AcDbPoint
 10
84.76955647102441
 20
90.4077390127944
 30
0.0
  0
POINT
  5
1BB1
330
1039
100
AcDbEntity
  8
Defpoints
 62
     0
100
AcDbPoint
 10
84.76955647102441
 20
370.4077650127944
 30
0.0
  0
POINT
  5
1BB2
330
1039
100
AcDbEntity
  8
Defpoints
 62
     0
100
AcDbPoint
 10
166.076627548171
 20
370.4077650127943
 30
0.0
  0
ENDBLK
  5
1044
330
1039
100
AcDbEntity
  8
0
100
AcDbBlockEnd
  0
BLOCK
  5
1451
330
144E
100
AcDbEntity
  8
0
100
AcDbBlockBegin
  2
SCHUTZR1
 70
     0
 10
0.0
 20
0.0
 30
0.0
  3
SCHUTZR1
  1

  0
MTEXT
  5
144F
330
144E
100
AcDbEntity
  8
0
 62
     2
100
AcDbMText
 10
1.089563348508818
 20
-1.313268590755626
 30
0.0
 40
2.0
 41
65.0
 46
0.0
 71
     1
 72
     5
  1
\Fisocp.shx;Alle Rechte bei Glutz AG, auch für den Fall von Schutzrechtsanmeldungen. Jede Verfügungsbefugnis wie Kopier- und Weitergaberecht liegen bei uns.
 73
     1
 44
1.0
  0
LWPOLYLINE
  5
1450
330
144E
100
AcDbEntity
  8
6
100
AcDbPolyline
 90
        4
 70
     1
 43
0.0
 10
0.0
 20
0.0
 10
64.93884802418165
 20
0.0
 10
64.93884802418165
 20
-11.72312348725665
 10
0.0
 20
-11.72312348725665
1001
GENIUS_GENREC_14
1002
{
1000
PYDIR
1011
0.0
1021
-11.72312348725665
1031
0.0
1002
}
1002
{
1000
PXDIR
1011
64.93884802418165
1021
0.0
1031
0.0
1002
}
1002
{
1000
PORI
1011
0.0
1021
0.0
1031
0.0
1002
}
1002
{
1000
PINS
1011
0.0
1021
0.0
1031
0.0
1002
}
1002
{
1000
PINS2
1011
64.93884802418165
1021
-11.72312348725665
1031
0.0
1002
}
1002
{
1000
C
1070
     1
1002
}
1001
GENIUS_GENODEF_13
1002
{
1000
HIER
1070
     0
1002
}
1002
{
1000
MANEDIT
1070
     0
1002
}
1002
{
1000
NOSEL
1070
     0
1002
}
1002
{
1000
BEHIND
1070
     0
1002
}
1002
{
1000
REACTOR
1002
}
1001
GENIUS_GENOBJ-N-REC_13
1002
{
1000
OWNER
1000
GEN
1002
}
  0
ENDBLK
  5
1452
330
144E
100
AcDbEntity
  8
0
100
AcDbBlockEnd
  0
BLOCK
  5
14AC
330
1453
100
AcDbEntity
  8
0
100
AcDbBlockBegin
  2
GLUTZ1
 70
     0
 10
0.0
 20
0.0
 30
0.0
  3
GLUTZ1
  1

  0
POLYLINE
  5
1454
330
1453
100
AcDbEntity
  8
KOPF
  6
CONTINU
 62
     2
100
AcDb2dPolyline
 66
     1
 10
0.0
 20
0.0
 30
0.0
 70
     1
  0
VERTEX
  5
1455
330
1454
100
AcDbEntity
  8
KOPF
  6
CONTINU
 62
     2
100
AcDbVertex
100
AcDb2dVertex
 10
7.413302975328548
 20
3.465323178314264
 30
0.0
  0
VERTEX
  5
1456
330
1454
100
AcDbEntity
  8
KOPF
  6
CONTINU
 62
     2
100
AcDbVertex
100
AcDb2dVertex
 10
8.659030475328563
 20
3.465323178314264
 30
0.0
  0
VERTEX
  5
1457
330
1454
100
AcDbEntity
  8
KOPF
  6
CONTINU
 62
     2
100
AcDbVertex
100
AcDb2dVertex
 10
8.328937475328558
 20
1.484671678314271
 30
0.0
  0
VERTEX
  5
1458
330
1454
100
AcDbEntity
  8
KOPF
  6
CONTINU
 62
     2
100
AcDbVertex
100
AcDb2dVertex
 10
8.495913975328534
 20
1.085639178314266
 30
0.0
  0
VERTEX
  5
1459
330
1454
100
AcDbEntity
  8
KOPF
  6
CONTINU
 62
     2
100
AcDbVertex
100
AcDb2dVertex
 10
8.872790975328541
 20
1.034750678314253
 30
0.0
  0
VERTEX
  5
145A
330
1454
100
AcDbEntity
  8
KOPF
  6
CONTINU
 62
     2
100
AcDbVertex
100
AcDb2dVertex
 10
9.136996975328543
 20
1.349997678314252
 30
0.0
  0
VERTEX
  5
145B
330
1454
100
AcDbEntity
  8
KOPF
  6
CONTINU
 62
     2
100
AcDbVertex
100
AcDb2dVertex
 10
9.136996975328543
 20
1.349997678314252
 30
0.0
  0
VERTEX
  5
145C
330
1454
100
AcDbEntity
  8
KOPF
  6
CONTINU
 62
     2
100
AcDbVertex
100
AcDb2dVertex
 10
9.489535975328578
 20
3.465323178314264
 30
0.0
  0
VERTEX
  5
145D
330
1454
100
AcDbEntity
  8
KOPF
  6
CONTINU
 62
     2
100
AcDbVertex
100
AcDb2dVertex
 10
11.35815797532856
 20
3.465323178314264
 30
0.0
  0
VERTEX
  5
145E
330
1454
100
AcDbEntity
  8
KOPF
  6
CONTINU
 62
     2
100
AcDbVertex
100
AcDb2dVertex
 10
11.56296147532856
 20
4.694129178314256
 30
0.0
  0
VERTEX
  5
145F
330
1454
100
AcDbEntity
  8
KOPF
  6
CONTINU
 62
     2
100
AcDbVertex
100
AcDb2dVertex
 10
12.80870397532857
 20
4.694113678314266
 30
0.0
  0
VERTEX
  5
1460
330
1454
100
AcDbEntity
  8
KOPF
  6
CONTINU
 62
     2
100
AcDbVertex
100
AcDb2dVertex
 10
12.60391597532856
 20
3.465323178314264
 30
0.0
  0
VERTEX
  5
1461
330
1454
100
AcDbEntity
  8
KOPF
  6
CONTINU
 62
     2
100
AcDbVertex
100
AcDb2dVertex
 10
15.92592197532855
 20
3.465323178314264
 30
0.0
  0
VERTEX
  5
1462
330
1454
100
AcDbEntity
  8
KOPF
  6
CONTINU
 62
     2
100
AcDbVertex
100
AcDb2dVertex
 10
15.78938647532857
 20
2.646109678314275
 30
0.0
  0
VERTEX
  5
1463
330
1454
100
AcDbEntity
  8
KOPF
  6
CONTINU
 62
     2
100
AcDbVertex
100
AcDb2dVertex
 10
13.87791797532855
 20
1.00771217831425
 30
0.0
  0
VERTEX
  5
1464
330
1454
100
AcDbEntity
  8
KOPF
  6
CONTINU
 62
     2
100
AcDbVertex
100
AcDb2dVertex
 10
15.51633047532854
 20
1.00771217831425
 30
0.0
  0
VERTEX
  5
1465
330
1454
100
AcDbEntity
  8
KOPF
  6
CONTINU
 62
     2
100
AcDbVertex
100
AcDb2dVertex
 10
15.37979497532856
 20
0.1885136783142798
 30
0.0
  0
VERTEX
  5
1466
330
1454
100
AcDbEntity
  8
KOPF
  6
CONTINU
 62
     2
100
AcDbVertex
100
AcDb2dVertex
 10
12.68066747532856
 20
0.1885291783142406
 30
0.0
  0
VERTEX
  5
1467
330
1454
100
AcDbEntity
  8
KOPF
  6
CONTINU
 62
     2
100
AcDbVertex
100
AcDb2dVertex
 10
12.81720347532854
 20
1.00771217831425
 30
0.0
  0
VERTEX
  5
1468
330
1454
100
AcDbEntity
  8
KOPF
  6
CONTINU
 62
     2
100
AcDbVertex
100
AcDb2dVertex
 10
14.72865647532856
 20
2.646109678314275
 30
0.0
  0
VERTEX
  5
1469
330
1454
100
AcDbEntity
  8
KOPF
  6
CONTINU
 62
     2
100
AcDbVertex
100
AcDb2dVertex
 10
12.46738047532855
 20
2.646124678314265
 30
0.0
  0
VERTEX
  5
146A
330
1454
100
AcDbEntity
  8
KOPF
  6
CONTINU
 62
     2
100
AcDbVertex
100
AcDb2dVertex
 10
12.05778847532855
 20
0.1885291783142406
 30
0.0
  0
VERTEX
  5
146B
330
1454
100
AcDbEntity
  8
KOPF
  6
CONTINU
 62
     2
100
AcDbVertex
100
AcDb2dVertex
 10
10.81204597532854
 20
0.1885291783142406
 30
0.0
  0
VERTEX
  5
146C
330
1454
100
AcDbEntity
  8
KOPF
  6
CONTINU
 62
     2
100
AcDbVertex
100
AcDb2dVertex
 10
11.22163747532855
 20
2.646124678314265
 30
0.0
  0
VERTEX
  5
146D
330
1454
100
AcDbEntity
  8
KOPF
  6
CONTINU
 62
     2
100
AcDbVertex
100
AcDb2dVertex
 10
10.59875847532856
 20
2.646124678314265
 30
0.0
  0
VERTEX
  5
146E
330
1454
100
AcDbEntity
  8
KOPF
  6
CONTINU
 62
     2
100
AcDbVertex
100
AcDb2dVertex
 10
10.18916697532856
 20
0.1885291783142406
 30
0.0
  0
VERTEX
  5
146F
330
1454
100
AcDbEntity
  8
KOPF
  6
CONTINU
 62
     2
100
AcDbVertex
100
AcDb2dVertex
 10
8.943423975328556
 20
0.1885291783142406
 30
0.0
  0
VERTEX
  5
1470
330
1454
100
AcDbEntity
  8
KOPF
  6
CONTINU
 62
     2
100
AcDbVertex
100
AcDb2dVertex
 10
8.960238975328536
 20
0.2895266783142745
 30
0.0
  0
VERTEX
  5
1471
330
1454
100
AcDbEntity
  8
KOPF
  6
CONTINU
 62
     2
100
AcDbVertex
100
AcDb2dVertex
 10
8.491321475328561
 20
0.0298986783142539
 30
0.0
  0
VERTEX
  5
1472
330
1454
100
AcDbEntity
  8
KOPF
  6
CONTINU
 62
     2
100
AcDbVertex
100
AcDb2dVertex
 10
7.975314975328558
 20
0.0042486783142692
 30
0.0
  0
VERTEX
  5
1473
330
1454
100
AcDbEntity
  8
KOPF
  6
CONTINU
 62
     2
100
AcDbVertex
100
AcDb2dVertex
 10
7.487231975328569
 20
0.2220676783142608
 30
0.0
  0
VERTEX
  5
1474
330
1454
100
AcDbEntity
  8
KOPF
  6
CONTINU
 62
     2
100
AcDbVertex
100
AcDb2dVertex
 10
7.137027475328551
 20
0.6718966783142549
 30
0.0
  0
VERTEX
  5
1475
330
1454
100
AcDbEntity
  8
KOPF
  6
CONTINU
 62
     2
100
AcDbVertex
100
AcDb2dVertex
 10
7.054812975328559
 20
1.314475178314268
 30
0.0
  0
VERTEX
  5
1476
330
1454
100
AcDbEntity
  8
KOPF
  6
CONTINU
 62
     2
100
AcDbVertex
100
AcDb2dVertex
 10
7.054812975328559
 20
1.314475178314268
 30
0.0
  0
VERTEX
  5
1477
330
1454
100
AcDbEntity
  8
KOPF
  6
CONTINU
 62
     2
100
AcDbVertex
100
AcDb2dVertex
 10
7.413287975328557
 20
3.465323178314264
 30
0.0
  0
SEQEND
  5
1478
330
1454
100
AcDbEntity
  8
KOPF
 62
     2
  0
HATCH
  5
1479
330
1453
100
AcDbEntity
  8
KOPF
 62
     7
100
AcDbHatch
 10
0.0
 20
0.0
 30
0.0
210
0.0
220
0.0
230
1.0
  2
SOLID
 70
     1
 71
     0
 91
        1
 92
        1
 93
       32
 72
     1
 10
8.491321475328561
 20
0.0298986783142539
 11
8.960238975328536
 21
0.2895266783142745
 72
     1
 10
8.960238975328536
 20
0.2895266783142745
 11
8.943423975328556
 21
0.1885291783142406
 72
     1
 10
8.943423975328556
 20
0.1885291783142406
 11
10.18916697532856
 21
0.1885291783142406
 72
     1
 10
10.18916697532856
 20
0.1885291783142406
 11
10.59875847532856
 21
2.646124678314265
 72
     1
 10
10.59875847532856
 20
2.646124678314265
 11
11.22163747532855
 21
2.646124678314265
 72
     1
 10
11.22163747532855
 20
2.646124678314265
 11
10.81204597532854
 21
0.1885291783142406
 72
     1
 10
10.81204597532854
 20
0.1885291783142406
 11
12.05778847532855
 21
0.1885291783142406
 72
     1
 10
12.05778847532855
 20
0.1885291783142406
 11
12.46738047532855
 21
2.646124678314265
 72
     1
 10
12.46738047532855
 20
2.646124678314265
 11
14.72865647532856
 21
2.646109678314275
 72
     1
 10
14.72865647532856
 20
2.646109678314275
 11
12.81720347532854
 21
1.00771217831425
 72
     1
 10
12.81720347532854
 20
1.00771217831425
 11
12.68066747532856
 21
0.1885291783142406
 72
     1
 10
12.68066747532856
 20
0.1885291783142406
 11
15.37979497532856
 21
0.1885136783142798
 72
     1
 10
15.37979497532856
 20
0.1885136783142798
 11
15.51633047532854
 21
1.00771217831425
 72
     1
 10
15.51633047532854
 20
1.00771217831425
 11
13.87791797532855
 21
1.00771217831425
 72
     1
 10
13.87791797532855
 20
1.00771217831425
 11
15.78938647532857
 21
2.646109678314275
 72
     1
 10
15.78938647532857
 20
2.646109678314275
 11
15.92592197532855
 21
3.465323178314264
 72
     1
 10
15.92592197532855
 20
3.465323178314264
 11
12.60391597532856
 21
3.465323178314264
 72
     1
 10
12.60391597532856
 20
3.465323178314264
 11
12.80870397532857
 21
4.694113678314266
 72
     1
 10
12.80870397532857
 20
4.694113678314266
 11
11.56296147532856
 21
4.694129178314256
 72
     1
 10
11.56296147532856
 20
4.694129178314256
 11
11.35815797532856
 21
3.465323178314264
 72
     1
 10
11.35815797532856
 20
3.465323178314264
 11
9.489535975328578
 21
3.465323178314264
 72
     1
 10
9.489535975328578
 20
3.465323178314264
 11
9.136996975328543
 21
1.349997678314252
 72
     1
 10
9.136996975328543
 20
1.349997678314252
 11
8.872790975328541
 21
1.034750678314253
 72
     1
 10
8.872790975328541
 20
1.034750678314253
 11
8.495913975328534
 21
1.085639178314266
 72
     1
 10
8.495913975328534
 20
1.085639178314266
 11
8.328937475328558
 21
1.484671678314271
 72
     1
 10
8.328937475328558
 20
1.484671678314271
 11
8.659030475328563
 21
3.465323178314264
 72
     1
 10
8.659030475328563
 20
3.465323178314264
 11
7.413287975328557
 21
3.465323178314264
 72
     1
 10
7.413287975328557
 20
3.465323178314264
 11
7.054812975328559
 21
1.314475178314268
 72
     1
 10
7.054812975328559
 20
1.314475178314268
 11
7.137027475328551
 21
0.6718966783142549
 72
     1
 10
7.137027475328551
 20
0.6718966783142549
 11
7.487231975328569
 21
0.2220676783142608
 72
     1
 10
7.487231975328569
 20
0.2220676783142608
 11
7.975314975328558
 21
0.0042486783142692
 72
     1
 10
7.975314975328558
 20
0.0042486783142692
 11
8.491321475328561
 21
0.0298986783142539
 97
        0
 75
     0
 76
     1
 98
        1
 10
78.94342397532856
 20
-1.062905321685718
450
        0
451
        0
460
0.0
461
0.0
452
        0
462
0.0
453
        0
470

1001
GENIUS_GENODEF_13
1002
{
1000
HIER
1070
     0
1002
}
1002
{
1000
MANEDIT
1070
     0
1002
}
1002
{
1000
NOSEL
1070
     0
1002
}
1002
{
1000
BEHIND
1070
     0
1002
}
1002
{
1000
REACTOR
1002
}
1001
GENIUS_GENOBJ-N-HTC_13
1002
{
1000
OWNER
1000
GEN
1002
}
1001
GENIUS_GENHATCH_13
1002
{
1000
DATA
1040
0.0
1042
0.5
1000
SOLID
1070
     0
1011
7.884158670682694
1021
0.0684408459231634
1031
0.0
1002
}
1002
{
1000
UCS
1010
0.0
1020
0.0
1030
0.0
1010
1.0
1020
0.0
1030
0.0
1010
0.0
1020
1.0
1030
0.0
1002
}
  0
POLYLINE
  5
147A
330
1453
100
AcDbEntity
  8
KOPF
  6
CONTINU
 62
     2
100
AcDb2dPolyline
 66
     1
 10
0.0
 20
0.0
 30
0.0
 70
     1
  0
VERTEX
  5
147B
330
147A
100
AcDbEntity
  8
KOPF
  6
CONTINU
 62
     2
100
AcDbVertex
100
AcDb2dVertex
 10
4.230807975328559
 20
0.2520206783142669
 30
0.0
  0
VERTEX
  5
147C
330
147A
100
AcDbEntity
  8
KOPF
  6
CONTINU
 62
     2
100
AcDbVertex
100
AcDb2dVertex
 10
3.628177475328556
 20
0.1549291783142621
 30
0.0
  0
VERTEX
  5
147D
330
147A
100
AcDbEntity
  8
KOPF
  6
CONTINU
 62
     2
100
AcDbVertex
100
AcDb2dVertex
 10
2.898837975328547
 20
0.069876678314273
 30
0.0
  0
VERTEX
  5
147E
330
147A
100
AcDbEntity
  8
KOPF
  6
CONTINU
 62
     2
100
AcDbVertex
100
AcDb2dVertex
 10
2.152301475328556
 20
0.038306178314258
 30
0.0
  0
VERTEX
  5
147F
330
147A
100
AcDbEntity
  8
KOPF
  6
CONTINU
 62
     2
100
AcDbVertex
100
AcDb2dVertex
 10
1.464725475328549
 20
0.112723178314269
 30
0.0
  0
VERTEX
  5
1480
330
147A
100
AcDbEntity
  8
KOPF
  6
CONTINU
 62
     2
100
AcDbVertex
100
AcDb2dVertex
 10
0.8865389753285342
 20
0.3333501783142765
 30
0.0
  0
VERTEX
  5
1481
330
147A
100
AcDbEntity
  8
KOPF
  6
CONTINU
 62
     2
100
AcDbVertex
100
AcDb2dVertex
 10
0.4486119753285323
 20
0.7156286783142605
 30
0.0
  0
VERTEX
  5
1482
330
147A
100
AcDbEntity
  8
KOPF
  6
CONTINU
 62
     2
100
AcDbVertex
100
AcDb2dVertex
 10
0.1673769753285512
 20
1.246237678314258
 30
0.0
  0
VERTEX
  5
1483
330
147A
100
AcDbEntity
  8
KOPF
  6
CONTINU
 62
     2
100
AcDbVertex
100
AcDb2dVertex
 10
0.0486334753285576
 20
1.885962678314285
 30
0.0
  0
VERTEX
  5
1484
330
147A
100
AcDbEntity
  8
KOPF
  6
CONTINU
 62
     2
100
AcDbVertex
100
AcDb2dVertex
 10
0.0903659753285524
 20
2.57732267831426
 30
0.0
  0
VERTEX
  5
1485
330
147A
100
AcDbEntity
  8
KOPF
  6
CONTINU
 62
     2
100
AcDbVertex
100
AcDb2dVertex
 10
0.2847019753285735
 20
3.254996178314257
 30
0.0
  0
VERTEX
  5
1486
330
147A
100
AcDbEntity
  8
KOPF
  6
CONTINU
 62
     2
100
AcDbVertex
100
AcDb2dVertex
 10
0.6188849753285695
 20
3.857199678314259
 30
0.0
  0
VERTEX
  5
1487
330
147A
100
AcDbEntity
  8
KOPF
  6
CONTINU
 62
     2
100
AcDbVertex
100
AcDb2dVertex
 10
1.075641475328552
 20
4.335898178314266
 30
0.0
  0
VERTEX
  5
1488
330
147A
100
AcDbEntity
  8
KOPF
  6
CONTINU
 62
     2
100
AcDbVertex
100
AcDb2dVertex
 10
1.632815975328554
 20
4.664038678314284
 30
0.0
  0
VERTEX
  5
1489
330
147A
100
AcDbEntity
  8
KOPF
  6
CONTINU
 62
     2
100
AcDbVertex
100
AcDb2dVertex
 10
2.262469975328542
 20
4.837775178314274
 30
0.0
  0
VERTEX
  5
148A
330
147A
100
AcDbEntity
  8
KOPF
  6
CONTINU
 62
     2
100
AcDbVertex
100
AcDb2dVertex
 10
2.929553975328559
 20
4.871710678314258
 30
0.0
  0
VERTEX
  5
148B
330
147A
100
AcDbEntity
  8
KOPF
  6
CONTINU
 62
     2
100
AcDbVertex
100
AcDb2dVertex
 10
3.590213475328567
 20
4.785315678314248
 30
0.0
  0
VERTEX
  5
148C
330
147A
100
AcDbEntity
  8
KOPF
  6
CONTINU
 62
     2
100
AcDbVertex
100
AcDb2dVertex
 10
4.189914475328549
 20
4.578391178314262
 30
0.0
  0
VERTEX
  5
148D
330
147A
100
AcDbEntity
  8
KOPF
  6
CONTINU
 62
     2
100
AcDbVertex
100
AcDb2dVertex
 10
4.661227975328557
 20
4.19379317831428
 30
0.0
  0
VERTEX
  5
148E
330
147A
100
AcDbEntity
  8
KOPF
  6
CONTINU
 62
     2
100
AcDbVertex
100
AcDb2dVertex
 10
4.921786975328558
 20
3.465338678314282
 30
0.0
  0
VERTEX
  5
148F
330
147A
100
AcDbEntity
  8
KOPF
  6
CONTINU
 62
     2
100
AcDbVertex
100
AcDb2dVertex
 10
4.921786975328558
 20
3.465338678314282
 30
0.0
  0
VERTEX
  5
1490
330
147A
100
AcDbEntity
  8
KOPF
  6
CONTINU
 62
     2
100
AcDbVertex
100
AcDb2dVertex
 10
3.676043975328553
 20
3.465338678314282
 30
0.0
  0
VERTEX
  5
1491
330
147A
100
AcDbEntity
  8
KOPF
  6
CONTINU
 62
     2
100
AcDbVertex
100
AcDb2dVertex
 10
3.658435475328559
 20
3.635474178314268
 30
0.0
  0
VERTEX
  5
1492
330
147A
100
AcDbEntity
  8
KOPF
  6
CONTINU
 62
     2
100
AcDbVertex
100
AcDb2dVertex
 10
3.60626597532854
 20
3.742651678314274
 30
0.0
  0
VERTEX
  5
1493
330
147A
100
AcDbEntity
  8
KOPF
  6
CONTINU
 62
     2
100
AcDbVertex
100
AcDb2dVertex
 10
3.50603097532857
 20
3.814627678314252
 30
0.0
 42
0.101147
  0
VERTEX
  5
1494
330
147A
100
AcDbEntity
  8
KOPF
  6
CONTINU
 62
     2
100
AcDbVertex
100
AcDb2dVertex
 10
2.163074475328556
 20
3.706198678314251
 30
0.0
  0
VERTEX
  5
1495
330
147A
100
AcDbEntity
  8
KOPF
  6
CONTINU
 62
     2
100
AcDbVertex
100
AcDb2dVertex
 10
1.757983975328556
 20
3.187644178314258
 30
0.0
  0
VERTEX
  5
1496
330
147A
100
AcDbEntity
  8
KOPF
  6
CONTINU
 62
     2
100
AcDbVertex
100
AcDb2dVertex
 10
1.532947475328569
 20
2.441336678314257
 30
0.0
  0
VERTEX
  5
1497
330
147A
100
AcDbEntity
  8
KOPF
  6
CONTINU
 62
     2
100
AcDbVertex
100
AcDb2dVertex
 10
1.523211975328536
 20
1.797781678314265
 30
0.0
  0
VERTEX
  5
1498
330
147A
100
AcDbEntity
  8
KOPF
  6
CONTINU
 62
     2
100
AcDbVertex
100
AcDb2dVertex
 10
1.754718475328559
 20
1.36037367831426
 30
0.0
  0
VERTEX
  5
1499
330
147A
100
AcDbEntity
  8
KOPF
  6
CONTINU
 62
     2
100
AcDbVertex
100
AcDb2dVertex
 10
2.223819475328554
 20
1.196402678314257
 30
0.0
 42
0.054838
  0
VERTEX
  5
149A
330
147A
100
AcDbEntity
  8
KOPF
  6
CONTINU
 62
     2
100
AcDbVertex
100
AcDb2dVertex
 10
3.313342975328538
 20
1.289114678314263
 30
0.0
  0
VERTEX
  5
149B
330
147A
100
AcDbEntity
  8
KOPF
  6
CONTINU
 62
     2
100
AcDbVertex
100
AcDb2dVertex
 10
3.454181475328539
 20
2.134131178314248
 30
0.0
  0
VERTEX
  5
149C
330
147A
100
AcDbEntity
  8
KOPF
  6
CONTINU
 62
     2
100
AcDbVertex
100
AcDb2dVertex
 10
2.416049475328549
 20
2.134131178314248
 30
0.0
  0
VERTEX
  5
149D
330
147A
100
AcDbEntity
  8
KOPF
  6
CONTINU
 62
     2
100
AcDbVertex
100
AcDb2dVertex
 10
2.552585475328555
 20
2.953330178314246
 30
0.0
  0
VERTEX
  5
149E
330
147A
100
AcDbEntity
  8
KOPF
  6
CONTINU
 62
     2
100
AcDbVertex
100
AcDb2dVertex
 10
4.83645997532858
 20
2.953330178314246
 30
0.0
  0
VERTEX
  5
149F
330
147A
100
AcDbEntity
  8
KOPF
  6
CONTINU
 62
     2
100
AcDbVertex
100
AcDb2dVertex
 10
4.392505475328562
 20
0.2895421783142638
 30
0.0
  0
VERTEX
  5
14A0
330
147A
100
AcDbEntity
  8
KOPF
  6
CONTINU
 62
     2
100
AcDbVertex
100
AcDb2dVertex
 10
4.338580975328568
 20
0.2768011783142867
 30
0.0
  0
VERTEX
  5
14A1
330
147A
100
AcDbEntity
  8
KOPF
  6
CONTINU
 62
     2
100
AcDbVertex
100
AcDb2dVertex
 10
4.284671475328565
 20
0.2642886783142728
 30
0.0
  0
VERTEX
  5
14A2
330
147A
100
AcDbEntity
  8
KOPF
  6
CONTINU
 62
     2
100
AcDbVertex
100
AcDb2dVertex
 10
4.230807975328559
 20
0.2520206783142669
 30
0.0
  0
SEQEND
  5
14A3
330
147A
100
AcDbEntity
  8
KOPF
 62
     2
  0
HATCH
  5
14A4
330
1453
100
AcDbEntity
  8
KOPF
 62
     7
100
AcDbHatch
 10
0.0
 20
0.0
 30
0.0
210
0.0
220
0.0
230
1.0
  2
SOLID
 70
     1
 71
     0
 91
        1
 92
        1
 93
       38
 72
     1
 10
2.223819475328554
 20
1.196402678314257
 11
1.754718475328559
 21
1.36037367831426
 72
     1
 10
1.754718475328559
 20
1.36037367831426
 11
1.523211975328536
 21
1.797781678314265
 72
     1
 10
1.523211975328536
 20
1.797781678314265
 11
1.532947475328569
 21
2.441336678314257
 72
     1
 10
1.532947475328569
 20
2.441336678314257
 11
1.757983975328556
 21
3.187644178314258
 72
     1
 10
1.757983975328556
 20
3.187644178314258
 11
2.163074475328556
 21
3.706198678314251
 72
     2
 10
3.09980946486911
 20
0.4750535186772141
 40
3.364189573028744
 50
253.8327008024395
 51
276.9353140195865
 73
     0
 72
     1
 10
3.50603097532857
 20
3.814627678314252
 11
3.60626597532854
 21
3.742651678314274
 72
     1
 10
3.60626597532854
 20
3.742651678314274
 11
3.658435475328559
 21
3.635474178314268
 72
     1
 10
3.658435475328559
 20
3.635474178314268
 11
3.676043975328553
 21
3.465338678314282
 72
     1
 10
3.676043975328553
 20
3.465338678314282
 11
4.921786975328558
 21
3.465338678314282
 72
     1
 10
4.921786975328558
 20
3.465338678314282
 11
4.661227975328557
 21
4.19379317831428
 72
     1
 10
4.661227975328557
 20
4.19379317831428
 11
4.189914475328549
 21
4.578391178314262
 72
     1
 10
4.189914475328549
 20
4.578391178314262
 11
3.590213475328567
 21
4.785315678314248
 72
     1
 10
3.590213475328567
 20
4.785315678314248
 11
2.929553975328559
 21
4.871710678314258
 72
     1
 10
2.929553975328559
 20
4.871710678314258
 11
2.262469975328542
 21
4.837775178314274
 72
     1
 10
2.262469975328542
 20
4.837775178314274
 11
1.632815975328554
 21
4.664038678314284
 72
     1
 10
1.632815975328554
 20
4.664038678314284
 11
1.075641475328552
 21
4.335898178314266
 72
     1
 10
1.075641475328552
 20
4.335898178314266
 11
0.6188849753285695
 21
3.857199678314259
 72
     1
 10
0.6188849753285695
 20
3.857199678314259
 11
0.2847019753285735
 21
3.254996178314257
 72
     1
 10
0.2847019753285735
 20
3.254996178314257
 11
0.0903659753285524
 21
2.57732267831426
 72
     1
 10
0.0903659753285524
 20
2.57732267831426
 11
0.0486334753285576
 21
1.885962678314285
 72
     1
 10
0.0486334753285576
 20
1.885962678314285
 11
0.1673769753285512
 21
1.246237678314258
 72
     1
 10
0.1673769753285512
 20
1.246237678314258
 11
0.4486119753285323
 21
0.7156286783142605
 72
     1
 10
0.4486119753285323
 20
0.7156286783142605
 11
0.8865389753285342
 21
0.3333501783142765
 72
     1
 10
0.8865389753285342
 20
0.3333501783142765
 11
1.464725475328549
 21
0.112723178314269
 72
     1
 10
1.464725475328549
 20
0.112723178314269
 11
2.152301475328556
 21
0.038306178314258
 72
     1
 10
2.152301475328556
 20
0.038306178314258
 11
2.898837975328547
 21
0.069876678314273
 72
     1
 10
2.898837975328547
 20
0.069876678314273
 11
3.628177475328556
 21
0.1549291783142621
 72
     1
 10
3.628177475328556
 20
0.1549291783142621
 11
4.230807975328559
 21
0.2520206783142669
 72
     1
 10
4.230807975328559
 20
0.2520206783142669
 11
4.284671475328565
 21
0.2642886783142728
 72
     1
 10
4.284671475328565
 20
0.2642886783142728
 11
4.338580975328568
 21
0.2768011783142867
 72
     1
 10
4.338580975328568
 20
0.2768011783142867
 11
4.392505475328562
 21
0.2895421783142638
 72
     1
 10
4.392505475328562
 20
0.2895421783142638
 11
4.83645997532858
 21
2.953330178314246
 72
     1
 10
4.83645997532858
 20
2.953330178314246
 11
2.552585475328555
 21
2.953330178314246
 72
     1
 10
2.552585475328555
 20
2.953330178314246
 11
2.416049475328549
 21
2.134131178314248
 72
     1
 10
2.416049475328549
 20
2.134131178314248
 11
3.454181475328539
 21
2.134131178314248
 72
     1
 10
3.454181475328539
 20
2.134131178314248
 11
3.313342975328538
 21
1.289114678314263
 72
     2
 10
2.347189143675734
 20
6.194831502486067
 40
4.999951078298644
 50
78.858501207424
 51
91.41386958452535
 73
     0
 97
        0
 75
     0
 76
     1
 98
        1
 10
78.94342397532856
 20
-1.062905321685718
450
        0
451
        0
460
0.0
461
0.0
452
        0
462
0.0
453
        0
470

1001
GENIUS_GENODEF_13
1002
{
1000
HIER
1070
     0
1002
}
1002
{
1000
MANEDIT
1070
     0
1002
}
1002
{
1000
NOSEL
1070
     0
1002
}
1002
{
1000
BEHIND
1070
     0
1002
}
1002
{
1000
REACTOR
1002
}
1001
GENIUS_GENOBJ-N-HTC_13
1002
{
1000
OWNER
1000
GEN
1002
}
1001
GENIUS_GENHATCH_13
1002
{
1000
DATA
1040
0.0
1042
0.5
1000
SOLID
1070
     0
1011
3.794008173068021
1021
0.9528598634049956
1031
0.0
1002
}
1002
{
1000
UCS
1010
0.0
1020
0.0
1030
0.0
1010
1.0
1020
0.0
1030
0.0
1010
0.0
1020
1.0
1030
0.0
1002
}
  0
POLYLINE
  5
14A5
330
1453
100
AcDbEntity
  8
KOPF
  6
CONTINU
 62
     2
100
AcDb2dPolyline
 66
     1
 10
0.0
 20
0.0
 30
0.0
 70
     1
  0
VERTEX
  5
14A6
330
14A5
100
AcDbEntity
  8
KOPF
  6
CONTINU
 62
     2
100
AcDbVertex
100
AcDb2dVertex
 10
5.749469475328567
 20
4.694129178314256
 30
0.0
  0
VERTEX
  5
14A7
330
14A5
100
AcDbEntity
  8
KOPF
  6
CONTINU
 62
     2
100
AcDbVertex
100
AcDb2dVertex
 10
6.995212475328571
 20
4.694129178314256
 30
0.0
  0
VERTEX
  5
14A8
330
14A5
100
AcDbEntity
  8
KOPF
  6
CONTINU
 62
     2
100
AcDbVertex
100
AcDb2dVertex
 10
6.244296975328552
 20
0.1885291783142406
 30
0.0
  0
VERTEX
  5
14A9
330
14A5
100
AcDbEntity
  8
KOPF
  6
CONTINU
 62
     2
100
AcDbVertex
100
AcDb2dVertex
 10
4.998538475328558
 20
0.1885291783142406
 30
0.0
  0
SEQEND
  5
14AA
330
14A5
100
AcDbEntity
  8
KOPF
 62
     2
  0
HATCH
  5
14AB
330
1453
100
AcDbEntity
  8
KOPF
 62
     7
100
AcDbHatch
 10
0.0
 20
0.0
 30
0.0
210
0.0
220
0.0
230
1.0
  2
SOLID
 70
     1
 71
     0
 91
        1
 92
        1
 93
        4
 72
     1
 10
5.749469475328567
 20
4.694129178314256
 11
4.998538475328558
 21
0.1885291783142406
 72
     1
 10
4.998538475328558
 20
0.1885291783142406
 11
6.244296975328552
 21
0.1885291783142406
 72
     1
 10
6.244296975328552
 20
0.1885291783142406
 11
6.995212475328571
 21
4.694129178314256
 72
     1
 10
6.995212475328571
 20
4.694129178314256
 11
5.749469475328567
 21
4.694129178314256
 97
        0
 75
     0
 76
     1
 98
        1
 10
78.94342397532856
 20
-1.062905321685718
450
        0
451
        0
460
0.0
461
0.0
452
        0
462
0.0
453
        0
470

1001
GENIUS_GENODEF_13
1002
{
1000
HIER
1070
     0
1002
}
1002
{
1000
MANEDIT
1070
     0
1002
}
1002
{
1000
NOSEL
1070
     0
1002
}
1002
{
1000
BEHIND
1070
     0
1002
}
1002
{
1000
REACTOR
1002
}
1001
GENIUS_GENOBJ-N-HTC_13
1002
{
1000
OWNER
1000
GEN
1002
}
1001
GENIUS_GENHATCH_13
1002
{
1000
DATA
1040
0.0
1042
0.5
1000
SOLID
1070
     0
1011
5.930903141474601
1021
0.6858655421573303
1031
0.0
1002
}
1002
{
1000
UCS
1010
0.0
1020
0.0
1030
0.0
1010
1.0
1020
0.0
1030
0.0
1010
0.0
1020
1.0
1030
0.0
1002
}
  0
ENDBLK
  5
14AD
330
1453
100
AcDbEntity
  8
0
100
AcDbBlockEnd
  0
BLOCK
  5
14C5
330
14BB
100
AcDbEntity
  8
0
100
AcDbBlockBegin
  2
GEN_A4
 70
     0
 10
0.0
 20
0.0
 30
0.0
  3
GEN_A4
  1

  0
LINE
  5
14BC
330
14BB
100
AcDbEntity
  8
0
100
AcDbLine
 10
20.12
 20
7.0
 30
0.0
 11
203.0
 21
7.0
 31
0.0
  0
LINE
  5
14BD
330
14BB
100
AcDbEntity
  8
0
100
AcDbLine
 10
203.0
 20
7.0
 30
0.0
 11
203.0
 21
290.0
 31
0.0
  0
LINE
  5
14BE
330
14BB
100
AcDbEntity
  8
0
100
AcDbLine
 10
20.12
 20
290.0
 30
0.0
 11
203.0
 21
290.0
 31
0.0
  0
TEXT
  5
14BF
330
14BB
100
AcDbEntity
  8
0
 60
     1
100
AcDbText
 10
208.0
 20
300.0
 30
0.0
 40
3.5
  1
!GENTITLE-MAX
100
AcDbText
  0
TEXT
  5
14C0
330
14BB
100
AcDbEntity
  8
0
 60
     1
100
AcDbText
 10
203.0
 20
290.0
 30
0.0
 40
3.5
  1
!GENTITLE-RU
100
AcDbText
  0
TEXT
  5
14C1
330
14BB
100
AcDbEntity
  8
0
 60
     1
100
AcDbText
 10
20.12
 20
61.99
 30
0.0
 40
3.5
  1
!GENTITLE-LL
100
AcDbText
  0
TEXT
  5
14C2
330
14BB
100
AcDbEntity
  8
0
 60
     1
100
AcDbText
 10
203.0
 20
7.0
 30
0.0
 40
3.5
  1
!GENTITLE-INSERT
100
AcDbText
  0
LINE
  5
14C3
330
14BB
100
AcDbEntity
  8
0
100
AcDbLine
 10
20.12
 20
290.0
 30
0.0
 11
20.12
 21
7.0
 31
0.0
  0
POINT
  5
14C4
330
14BB
100
AcDbEntity
  8
0
 60
     1
100
AcDbPoint
 10
0.0
 20
0.0
 30
0.0
  0
ENDBLK
  5
14C6
330
14BB
100
AcDbEntity
  8
0
100
AcDbBlockEnd
  0
BLOCK
  5
14D5
330
14D4
100
AcDbEntity
  8
0
100
AcDbBlockBegin
  2
*U46
 70
     1
 10
0.0
 20
0.0
 30
0.0
  3
*U46
  1

  0
ENDBLK
  5
14D6
330
14D4
100
AcDbEntity
  8
0
100
AcDbBlockEnd
  0
BLOCK
  5
1518
330
14D7
100
AcDbEntity
  8
0
100
AcDbBlockBegin
  2
MASSBILD1
 70
     2
 10
0.0
 20
0.0
 30
0.0
  3
MASSBILD1
  1

  0
LINE
  5
14D8
330
14D7
100
AcDbEntity
  8
RAHM2
100
AcDbLine
 10
-182.88
 20
4.230000000000018
 30
0.0
 11
0.0
 21
4.230000000000018
 31
0.0
  0
LINE
  5
14D9
330
14D7
100
AcDbEntity
  8
RAHM3
100
AcDbLine
 10
-129.54
 20
16.92000000000001
 30
0.0
 11
0.0
 21
16.92000000000001
 31
0.0
  0
LINE
  5
14DA
330
14D7
100
AcDbEntity
  8
0
100
AcDbLine
 10
-182.88
 20
38.07000000000002
 30
0.0
 11
0.0
 21
38.07000000000002
 31
0.0
  0
LINE
  5
14DB
330
14D7
100
AcDbEntity
  8
RAHM2
100
AcDbLine
 10
-182.88
 20
21.15000000000003
 30
0.0
 11
-129.54
 21
21.15000000000003
 31
0.0
  0
LINE
  5
14DC
330
14D7
100
AcDbEntity
  8
RAHM2
100
AcDbLine
 10
-182.88
 20
16.92000000000001
 30
0.0
 11
-129.54
 21
16.92000000000001
 31
0.0
  0
LINE
  5
14DD
330
14D7
100
AcDbEntity
  8
RAHM2
100
AcDbLine
 10
-182.88
 20
12.69000000000003
 30
0.0
 11
-129.54
 21
12.69000000000005
 31
0.0
  0
MTEXT
  5
14DE
330
14D7
100
AcDbEntity
  8
RAHM3
 62
     2
100
AcDbMText
 10
-179.4065153342974
 20
35.47807136137425
 30
0.0
 40
3.0
 41
45.0
 46
0.0
 71
     1
 72
     5
  1
Für Fabrikation ungültig !
 73
     1
 44
1.0
  0
TEXT
  5
14DF
330
14D7
100
AcDbEntity
  8
RAHM2
100
AcDbText
 10
-173.0163605444353
 20
1.199999999999988
 30
0.0
 40
2.000000000000294
  1
Änderung
 72
     1
 11
-167.2801168577268
 21
1.199999999999988
 31
0.0
100
AcDbText
1001
GENIUS_GENTRA_14
1002
{
1070
     1
1000
GENTRATX,%s,(GENMSG gendwg 61)
1000
Änderung
1000
d
1070
     0
1040
1.0
1070
     0
1002
}
  0
LINE
  5
14E0
330
14D7
100
AcDbEntity
  8
RAHM2
100
AcDbLine
 10
-182.88
 20
8.460000000000036
 30
0.0
 11
-129.54
 21
8.460000000000036
 31
0.0
  0
LINE
  5
14E1
330
14D7
100
AcDbEntity
  8
RAHM2
100
AcDbLine
 10
-129.54
 20
33.84000000000003
 30
0.0
 11
-86.35999999999995
 21
33.84000000000003
 31
0.0
  0
LINE
  5
14E2
330
14D7
100
AcDbEntity
  8
RAHM2
100
AcDbLine
 10
-182.88
 20
29.61000000000002
 30
0.0
 11
-86.35999999999995
 21
29.61000000000002
 31
0.0
  0
LINE
  5
14E3
330
14D7
100
AcDbEntity
  8
RAHM2
100
AcDbLine
 10
-182.88
 20
25.38000000000002
 30
0.0
 11
-86.35999999999995
 21
25.38000000000002
 31
0.0
  0
LINE
  5
14E4
330
14D7
100
AcDbEntity
  8
RAHM2
100
AcDbLine
 10
-175.26
 20
29.61000000000002
 30
0.0
 11
-175.26
 21
0.0
 31
0.0
  0
TEXT
  5
14E5
330
14D7
100
AcDbEntity
  8
RAHM2
100
AcDbText
 10
-180.5883006538761
 20
1.199999999999988
 30
0.0
 40
2.000000000000294
  1
Nr.
 72
     1
 11
-178.8883006538758
 21
1.199999999999988
 31
0.0
100
AcDbText
  0
LINE
  5
14E6
330
14D7
100
AcDbEntity
  8
RAHM3
100
AcDbLine
 10
-86.35999999999995
 20
38.07000000000003
 30
0.0
 11
-86.35999999999995
 21
0.0
 31
0.0
  0
LINE
  5
14E7
330
14D7
100
AcDbEntity
  8
RAHM3
100
AcDbLine
 10
-129.54
 20
21.15000000000003
 30
0.0
 11
-129.54
 21
0.0
 31
0.0
  0
LINE
  5
14E8
330
14D7
100
AcDbEntity
  8
RAHM2
100
AcDbLine
 10
-137.16
 20
29.61000000000002
 30
0.0
 11
-137.16
 21
0.0
 31
0.0
  0
LINE
  5
14E9
330
14D7
100
AcDbEntity
  8
RAHM2
100
AcDbLine
 10
-149.8599999999999
 20
29.61000000000002
 30
0.0
 11
-149.8599999999999
 21
0.0
 31
0.0
  0
INSERT
  5
14EA
330
14D7
100
AcDbEntity
  8
RAHM5
100
AcDbBlockReference
  2
GLUTZ1
 10
-128.5393330295188
 20
8.137302263146466
 30
0.0
  0
TEXT
  5
14EB
330
14D7
100
AcDbEntity
  8
RAHM2
100
AcDbText
 10
-147.6104524425095
 20
1.199999999999988
 30
0.0
 40
2.000000000000294
  1
Datum
 72
     1
 11
-143.8742087558013
 21
1.199999999999988
 31
0.0
100
AcDbText
1001
GENIUS_GENTRA_14
1002
{
1070
     1
1000
GENTRATX,%s,(GENMSG gendwg 62)
1000
Datum
1000
d
1070
     0
1040
1.0
1070
     0
1002
}
  0
TEXT
  5
14EC
330
14D7
100
AcDbEntity
  8
RAHM2
100
AcDbText
 10
-136.5823351702584
 20
1.19999999999851
 30
0.0
 40
2.000000000000294
  1
Name
100
AcDbText
1001
GENIUS_GENTRA_14
1002
{
1070
     1
1000
GENTRATX{3.31},%s,(GENMSG gendwg 63)
1000
Name
1000
d
1070
     0
1040
1.0
1070
     0
1002
}
  0
TEXT
  5
14ED
330
14D7
100
AcDbEntity
  8
RAHM2
100
AcDbText
 10
-128.4506977874778
 20
1.220747800586508
 30
0.0
 40
2.000000000000196
  1
Datei:
 41
0.8
100
AcDbText
  0
MTEXT
  5
14EE
330
14D7
100
AcDbEntity
  8
RAHM3
 62
     2
100
AcDbMText
 10
-109.3434521853635
 20
8.705840189037161
 30
0.0
 40
2.0
 41
76.23000000000001
 46
0.0
 71
     1
 72
     5
  1
CH-4502 Solothurn
 73
     1
 44
1.0
  0
TEXT
  5
14EF
330
14D7
100
AcDbEntity
  8
RAHM2
 62
     1
100
AcDbText
 10
-85.15692863201479
 20
1.073329287851606
 30
0.0
 40
2.0
  1
Ers. für:
100
AcDbText
  0
LINE
  5
14F0
330
14D7
100
AcDbEntity
  8
RAHM2
100
AcDbLine
 10
-129.54
 20
21.15000000000003
 30
0.0
 11
-86.35999999999995
 21
21.15000000000003
 31
0.0
  0
TEXT
  5
14F1
330
14D7
100
AcDbEntity
  8
RAHM2
100
AcDbText
 10
-128.34
 20
30.71000000000001
 30
0.0
 40
2.000000000000294
  1
Bearb.
100
AcDbText
1001
GENIUS_GENTRA_14
1002
{
1070
     1
1000
GENTRATX{4.13},%s,(GENMSG gendwg 67)
1000
Bearb.
1000
d
1070
     0
1040
1.0
1070
     0
1002
}
  0
LINE
  5
14F2
330
14D7
100
AcDbEntity
  8
RAHM2
100
AcDbLine
 10
-119.38
 20
38.07000000000002
 30
0.0
 11
-119.38
 21
25.38000000000002
 31
0.0
  0
LINE
  5
14F3
330
14D7
100
AcDbEntity
  8
RAHM3
100
AcDbLine
 10
-129.54
 20
38.07000000000002
 30
0.0
 11
-129.54
 21
21.15000000000003
 31
0.0
  0
TEXT
  5
14F4
330
14D7
100
AcDbEntity
  8
RAHM2
100
AcDbText
 10
-128.4098152078466
 20
18.06273924390339
 30
0.0
 40
2.000000000000294
  1
Format
100
AcDbText
  0
TEXT
  5
14F5
330
14D7
100
AcDbEntity
  8
RAHM2
100
AcDbText
 10
-128.34
 20
26.48000000000002
 30
0.0
 40
2.000000000000294
  1
Gepr.
100
AcDbText
1001
GENIUS_GENTRA_14
1002
{
1070
     1
1000
GENTRATX{4.19},%s,(GENMSG gendwg 68)
1000
Gepr.
1000
d
1070
     0
1040
1.0
1070
     0
1002
}
  0
LINE
  5
14F6
330
14D7
100
AcDbEntity
  8
RAHM2
100
AcDbLine
 10
-104.14
 20
38.07000000000002
 30
0.0
 11
-104.14
 21
16.92000000000001
 31
0.0
  0
TEXT
  5
14F7
330
14D7
100
AcDbEntity
  8
RAHM5
 62
     7
100
AcDbText
 10
-109.810847736663
 20
11.70157078455995
 30
0.0
 40
3.5
  1
Glutz AG
100
AcDbText
  0
TEXT
  5
14F8
330
14D7
100
AcDbEntity
  8
RAHM2
100
AcDbText
 10
-117.0692984212765
 20
35.04000000000002
 30
0.0
 40
2.000000000000294
  1
Datum
 41
0.983632218248894
 72
     1
 11
-113.3942087558013
 21
35.04000000000002
 31
0.0
100
AcDbText
1001
GENIUS_GENTRA_14
1002
{
1070
     1
1000
GENTRATX{3.38},%s,(GENMSG gendwg 62)
1000
Datum
1000
d
1070
     0
1040
1.0
1070
     0
1002
}
  0
TEXT
  5
14F9
330
14D7
100
AcDbEntity
  8
RAHM2
100
AcDbText
 10
-101.0179677247366
 20
35.04000000000002
 30
0.0
 40
2.000000000000294
  1
Name
 72
     2
 11
-95.11796772473577
 21
35.04000000000002
 31
0.0
100
AcDbText
1001
GENIUS_GENTRA_14
1002
{
1070
     1
1000
GENTRATX,%s,(GENMSG gendwg 63)
1000
Name
1000
d
1070
     0
1040
1.0
1070
     0
1002
}
  0
TEXT
  5
14FA
330
14D7
100
AcDbEntity
  8
RAHM2
100
AcDbText
 10
-128.3124050782448
 20
22.24469448710818
 30
0.0
 40
2.000000000000294
  1
Massstab
100
AcDbText
  0
LINE
  5
14FB
330
14D7
100
AcDbEntity
  8
RAHM2
100
AcDbLine
 10
-10.15999999999997
 20
16.92000000000001
 30
0.0
 11
-10.15999999999997
 21
0.0
 31
0.0
  0
TEXT
  5
14FC
330
14D7
100
AcDbEntity
  8
RAHM2
 62
     1
100
AcDbText
 10
-44.97248047431821
 20
1.073329287851606
 30
0.0
 40
2.0
  1
Ers. durch:
100
AcDbText
  0
LINE
  5
14FD
330
14D7
100
AcDbEntity
  8
RAHM2
100
AcDbLine
 10
-10.15999999999997
 20
8.460000000000036
 30
0.0
 11
0.0
 21
8.460000000000036
 31
0.0
  0
TEXT
  5
14FE
330
14D7
100
AcDbEntity
  8
RAHM2
100
AcDbText
 10
-3.184415883363063
 20
5.60997067448676
 30
0.0
 40
2.000000000000294
  1
Bl
 72
     1
 11
-1.984415883362885
 21
5.60997067448676
 31
0.0
100
AcDbText
1001
GENIUS_GENTRA_14
1002
{
1070
     1
1000
GENTRATX,%s,(GENMSG gendwg 77)
1000
Bl
1000
d
1070
     0
1040
1.0
1070
     0
1002
}
  0
TEXT
  5
14FF
330
14D7
100
AcDbEntity
  8
RAHM2
100
AcDbText
 10
-8.890271956152652
 20
14.06744868035187
 30
0.0
 40
2.000000000000294
  1
Blatt
 72
     1
 11
-5.790271956152196
 21
14.06744868035187
 31
0.0
100
AcDbText
1001
GENIUS_GENTRA_14
1002
{
1070
     1
1000
GENTRATX,%s,(GENMSG gendwg 76)
1000
Blatt
1000
d
1070
     0
1040
1.0
1070
     0
1002
}
  0
ATTDEF
  5
1500
330
14D7
100
AcDbEntity
  8
RAHM2
100
AcDbText
 10
-122.7072858550522
 20
0.5846257810491125
 30
0.0
 40
3.000000000000294
  1

 41
0.8
100
AcDbAttributeDefinition
  3
Dateiname
  2
GEN-TITLE-DWG{8.92}
 70
     0
280
     0
1001
GENIUS_GENTRA_14
1002
{
1070
     3
1000
GENTRAPR,%s,(GENMSG gendwg 82)
1000
Dateiname
1000
d
1070
     0
1070
     0
1002
}
  0
ATTDEF
  5
1501
330
14D7
100
AcDbEntity
  8
RAHM2
100
AcDbText
 10
-103.1077603831749
 20
21.87123384445602
 30
0.0
 40
2.500000000000367
  1

100
AcDbAttributeDefinition
  3
Maßstab
  2
GEN-TITLE-SCA{5.42}
 70
     0
280
     0
1001
GENIUS_GENTRA_14
1002
{
1070
     3
1000
GENTRAPR,%s,(GENMSG gendwg 83)
1000
Maßstab
1000
d
1070
     0
1070
     0
1002
}
  0
ATTDEF
  5
1502
330
14D7
100
AcDbEntity
  8
RAHM5
100
AcDbText
 10
-15.62317922068642
 20
7.875
 30
0.0
 40
5.000000000000735
  1
 
 41
0.8
 72
     2
 11
-14.02317922068619
 21
7.875
 31
0.0
100
AcDbAttributeDefinition
  3
Zeichnungsnummer
  2
GEN-TITLE-NR{13.37}
 70
     0
280
     0
1001
GENIUS_GENTRA_14
1002
{
1070
     3
1000
GENTRAPR,%s,(GENMSG gendwg 84)
1000
Zeichnungsnummer
1000
d
1070
     0
1070
     0
1002
}
  0
ATTDEF
  5
1503
330
14D7
100
AcDbEntity
  8
RAHM5
100
AcDbText
 10
-81.2071643690715
 20
29.17459677419356
 30
0.0
 40
5.00000000000049
  1

 41
0.8
100
AcDbAttributeDefinition
  3
Zeichnungsname (mx. 20 Z.)
  2
GEN-TITLE-DES1{15.54}
 70
     0
280
     0
1001
GENIUS_GENTRA_14
1002
{
1070
     3
1000
GENTRAPR,%s,(GENMSG gendwg 87)
1000
Zeichnungsname (mx. 20 Z.)
1000
d
1070
     0
1070
     0
1002
}
  0
ATTDEF
  5
1504
330
14D7
100
AcDbEntity
  8
RAHM3
100
AcDbText
 10
-80.70716436907151
 20
21.17459677419356
 30
0.0
 40
3.500000000000171
  1
Massbild
 41
0.8
100
AcDbAttributeDefinition
  3
Untertitel
  2
GEN-TITLE-DES2{21.21}
 70
     0
280
     0
  0
ATTDEF
  5
1505
330
14D7
100
AcDbEntity
  8
RAHM3
100
AcDbText
 10
-5.70040711384613
 20
9.420007355724408
 30
0.0
 40
3.0
  1
1
 41
0.8
 72
     1
 11
-5.100407113846131
 21
9.420007355724408
 31
0.0
100
AcDbAttributeDefinition
  3
Blatt
  2
GEN-TITLE-SHEET{2.62}
 70
     0
280
     0
1001
GENIUS_GENTRA_14
1002
{
1070
     3
1000
GENTRAPR,%s,(GENMSG gendwg 76)
1000
Blatt
1000
d
1070
     0
1070
     0
1002
}
  0
ATTDEF
  5
1506
330
14D7
100
AcDbEntity
  8
RAHM2
 62
     2
100
AcDbText
 10
-9.030313474146169
 20
5.354862930298622
 30
0.0
 40
2.0
  1
1
100
AcDbAttributeDefinition
  3
Anzahl Blatt
  2
ANZBLATT
 70
     0
280
     0
  0
ATTDEF
  5
1507
330
14D7
100
AcDbEntity
  8
RAHM2
100
AcDbText
 10
-118.7019468872817
 20
30.41000000000003
 30
0.0
 40
2.500000000000367
  1

100
AcDbAttributeDefinition
  3
Bearbeitungsdatum
  2
GEN-TITLE-DAT{5.44}
 70
     0
280
     0
1001
GENIUS_GENTRA_14
1002
{
1070
     3
1000
GENTRAPR,%s,(GENMSG gendwg 80)
1000
Bearbeitungsdatum
1000
d
1070
     0
1070
     0
1002
}
  0
ATTDEF
  5
1508
330
14D7
100
AcDbEntity
  8
RAHM2
100
AcDbText
 10
-102.5325281430328
 20
30.41000000000003
 30
0.0
 40
2.500000000000367
  1

100
AcDbAttributeDefinition
  3
Name des Bearbeiters
  2
GEN-TITLE-NAME{5}
 70
     0
280
     0
1001
GENIUS_GENTRA_14
1002
{
1070
     3
1000
GENTRAPR,%s,(GENMSG gendwg 81)
1000
Name des Bearbeiters
1000
d
1070
     0
1070
     0
1002
}
  0
ATTDEF
  5
1509
330
14D7
100
AcDbEntity
  8
RAHM2
100
AcDbText
 10
-118.5451003624019
 20
26.17804422461478
 30
0.0
 40
2.500000000000367
  1

100
AcDbAttributeDefinition
  3
Prüfdatum
  2
GEN-TITLE-CHKD{5.41}
 70
     0
280
     0
1001
GENIUS_GENTRA_14
1002
{
1070
     3
1000
GENTRAPR,%s,(GENMSG gendwg 78)
1000
Prüfdatum
1000
d
1070
     0
1070
     0
1002
}
  0
ATTDEF
  5
150A
330
14D7
100
AcDbEntity
  8
RAHM2
100
AcDbText
 10
-102.0619852594997
 20
26.4915214039151
 30
0.0
 40
2.500000000000367
  1

100
AcDbAttributeDefinition
  3
Geprüft von
  2
GEN-TITLE-CHKM{5}
 70
     0
280
     0
1001
GENIUS_GENTRA_14
1002
{
1070
     3
1000
GENTRAPR,%s,(GENMSG gendwg 72)
1000
Geprüft von
1000
d
1070
     0
1070
     0
1002
}
  0
ATTDEF
  5
150B
330
14D7
100
AcDbEntity
  8
RAHM2
100
AcDbText
 10
-102.9229702314162
 20
17.77922510127297
 30
0.0
 40
2.500000000000367
  1
A 4
100
AcDbAttributeDefinition
  3
Format
  2
FORMAT
 70
     0
280
     0
  0
ATTDEF
  5
150C
330
14D7
100
AcDbEntity
  8
RAHM2
 62
     2
100
AcDbText
 10
-74.59407938355946
 20
1.069999999999993
 30
0.0
 40
2.0
  1

100
AcDbAttributeDefinition
  3
Ersatz für
  2
ERS.FÜR
 70
     0
280
     0
  0
ATTDEF
  5
150D
330
14D7
100
AcDbEntity
  8
RAHM2
 62
     2
100
AcDbText
 10
-31.51210471117906
 20
1.005195332250792
 30
0.0
 40
2.0
  1

100
AcDbAttributeDefinition
  3
Ersetzt durch:
  2
ERS.DURCH
 70
     0
280
     0
  0
ATTDEF
  5
150E
330
14D7
100
AcDbEntity
  8
RAHM2
100
AcDbText
 10
-5.369955967542637
 20
0.4161834165005303
 30
0.0
 40
3.000000000000294
  1

 72
     1
 11
-5.369955967542637
 21
0.4161834165005303
 31
0.0
100
AcDbAttributeDefinition
  3
Plot-Datum
  2
GEN-TITLE-PLOT{2.94}
 70
     0
280
     0
1001
GENIUS_GENTRA_14
1002
{
1070
     3
1000
GENTRAPR,%s,(GENMSG gendwg 91)
1000
Plot-Datum
1000
d
1070
     0
1070
     0
1002
}
  0
POLYLINE
  5
150F
330
14D7
100
AcDbEntity
  8
0
100
AcDb2dPolyline
 66
     1
 10
0.0
 20
0.0
 30
0.0
  0
VERTEX
  5
1510
330
150F
100
AcDbEntity
  8
0
100
AcDbVertex
100
AcDb2dVertex
 10
-182.88
 20
0.0
 30
0.0
  0
VERTEX
  5
1511
330
150F
100
AcDbEntity
  8
0
100
AcDbVertex
100
AcDb2dVertex
 10
0.0
 20
0.0
 30
0.0
  0
VERTEX
  5
1512
330
150F
100
AcDbEntity
  8
0
100
AcDbVertex
100
AcDb2dVertex
 10
0.0
 20
38.07000000000002
 30
0.0
  0
SEQEND
  5
1513
330
150F
100
AcDbEntity
  8
0
  0
POLYLINE
  5
1514
330
14D7
100
AcDbEntity
  8
0
100
AcDb2dPolyline
 66
     1
 10
0.0
 20
0.0
 30
0.0
  0
VERTEX
  5
1515
330
1514
100
AcDbEntity
  8
0
100
AcDbVertex
100
AcDb2dVertex
 10
-182.88
 20
38.07000000000002
 30
0.0
  0
VERTEX
  5
1516
330
1514
100
AcDbEntity
  8
0
100
AcDbVertex
100
AcDb2dVertex
 10
-182.88
 20
0.0
 30
0.0
  0
SEQEND
  5
1517
330
1514
100
AcDbEntity
  8
0
  0
ENDBLK
  5
1519
330
14D7
100
AcDbEntity
  8
0
100
AcDbBlockEnd
  0
BLOCK
  5
18A9
330
189D
100
AcDbEntity
  8
0
100
AcDbBlockBegin
  2
*D48
 70
     1
 10
0.0
 20
0.0
 30
0.0
  3
*D48
  1

  0
LINE
  5
1DBC
330
189D
100
AcDbEntity
  8
5
370
    -2
100
AcDbLine
 10
46.7695484710244
 20
181.4077390127944
 30
0.0
 11
46.7695484710244
 21
238.9890594451301
 31
0.0
  0
LINE
  5
1DBD
330
189D
100
AcDbEntity
  8
5
370
    -2
100
AcDbLine
 10
83.76954847102441
 20
370.4077690127944
 30
0.0
 11
83.76954847102439
 21
234.9890594451301
 31
0.0
  0
LINE
  5
1DBE
330
189D
100
AcDbEntity
  8
5
370
    -2
100
AcDbLine
 10
52.76954847102441
 20
236.9890594451301
 30
0.0
 11
77.76954847102439
 21
236.9890594451301
 31
0.0
  0
SOLID
  5
1DBF
330
189D
100
AcDbEntity
  8
5
100
AcDbTrace
 10
52.76954847102441
 20
237.9890594451301
 30
0.0
 11
52.76954847102441
 21
235.9890594451301
 31
0.0
 12
46.7695484710244
 22
236.9890594451301
 32
0.0
 13
46.7695484710244
 23
236.9890594451301
 33
0.0
  0
SOLID
  5
1DC0
330
189D
100
AcDbEntity
  8
5
100
AcDbTrace
 10
77.76954847102439
 20
237.9890594451301
 30
0.0
 11
77.76954847102439
 21
235.9890594451301
 31
0.0
 12
83.76954847102439
 22
236.9890594451301
 32
0.0
 13
83.76954847102439
 23
236.9890594451301
 33
0.0
  0
MTEXT
  5
1DC1
330
189D
100
AcDbEntity
  8
5
 62
     2
100
AcDbMText
 10
63.82829810338876
 20
242.4890594451301
 30
0.0
 40
7.0
 41
0.0
 46
0.0
 71
     5
 72
     1
  1
37
 73
     1
 44
1.0
  0
POINT
  5
1DC2
330
189D
100
AcDbEntity
  8
Defpoints
 62
     0
100
AcDbPoint
 10
46.7695484710244
 20
181.4077390127944
 30
0.0
  0
POINT
  5
1DC3
330
189D
100
AcDbEntity
  8
Defpoints
 62
     0
100
AcDbPoint
 10
83.76954847102441
 20
370.4077690127944
 30
0.0
  0
POINT
  5
1DC4
330
189D
100
AcDbEntity
  8
Defpoints
 62
     0
100
AcDbPoint
 10
83.76954847102439
 20
236.9890594451301
 30
0.0
  0
ENDBLK
  5
18AA
330
189D
100
AcDbEntity
  8
0
100
AcDbBlockEnd
  0
BLOCK
  5
1DA5
330
1D9B
100
AcDbEntity
  8
0
100
AcDbBlockBegin
  2
*D49
 70
     1
 10
0.0
 20
0.0
 30
0.0
  3
*D49
  1

  0
LINE
  5
1DA7
330
1D9B
100
AcDbEntity
  8
5
370
    -2
100
AcDbLine
 10
-119.2938975289756
 20
141.4077550127944
 30
0.0
 11
-141.2938975289755
 21
141.4077550127944
 31
0.0
  0
LINE
  5
1DA8
330
1D9B
100
AcDbEntity
  8
5
370
    -2
100
AcDbLine
 10
-118.7303735289755
 20
61.40773901279439
 30
0.0
 11
-141.2938975289756
 21
61.40773901279439
 31
0.0
  0
LINE
  5
1DA9
330
1D9B
100
AcDbEntity
  8
5
370
    -2
100
AcDbLine
 10
-139.2938975289755
 20
135.4077550127944
 30
0.0
 11
-139.2938975289755
 21
67.40773901279439
 31
0.0
  0
SOLID
  5
1DAA
330
1D9B
100
AcDbEntity
  8
5
100
AcDbTrace
 10
-140.2938975289755
 20
135.4077550127944
 30
0.0
 11
-138.2938975289755
 21
135.4077550127944
 31
0.0
 12
-139.2938975289755
 22
141.4077550127944
 32
0.0
 13
-139.2938975289755
 23
141.4077550127944
 33
0.0
  0
SOLID
  5
1DAB
330
1D9B
100
AcDbEntity
  8
5
100
AcDbTrace
 10
-140.2938975289755
 20
67.40773901279439
 30
0.0
 11
-138.2938975289755
 21
67.40773901279439
 31
0.0
 12
-139.2938975289756
 22
61.40773901279439
 32
0.0
 13
-139.2938975289756
 23
61.40773901279439
 33
0.0
  0
MTEXT
  5
1DAC
330
1D9B
100
AcDbEntity
  8
5
 62
     2
100
AcDbMText
 10
-144.7938975289756
 20
101.4077470127944
 30
0.0
 40
7.0
 41
0.0
 46
0.0
 71
     5
 72
     1
  1
80
 11
0.0000000000000001
 21
1.0
 31
0.0
 73
     1
 44
1.0
  0
POINT
  5
1DAD
330
1D9B
100
AcDbEntity
  8
Defpoints
 62
     0
100
AcDbPoint
 10
-119.2938975289756
 20
141.4077550127944
 30
0.0
  0
POINT
  5
1DAE
330
1D9B
100
AcDbEntity
  8
Defpoints
 62
     0
100
AcDbPoint
 10
-118.7303735289755
 20
61.40773901279439
 30
0.0
  0
POINT
  5
1DAF
330
1D9B
100
AcDbEntity
  8
Defpoints
 62
     0
100
AcDbPoint
 10
-139.2938975289756
 20
61.40773901279439
 30
0.0
  0
ENDBLK
  5
1DA6
330
1D9B
100
AcDbEntity
  8
0
100
AcDbBlockEnd
  0
ENDSEC
  0
SECTION
  2
ENTITIES
  0
INSERT
  5
2EE
330
18
100
AcDbEntity
  8
5
 62
     3
100
AcDbBlockReference
  2
BLK2
 10
0.0
 20
0.0
 30
0.0
  0
INSERT
  5
2F7
330
18
100
AcDbEntity
  8
5
 62
     3
100
AcDbBlockReference
  2
BLK11
 10
0.0
 20
0.0
 30
0.0
  0
INSERT
  5
2F8
330
18
100
AcDbEntity
  8
5
 62
     3
100
AcDbBlockReference
  2
BLK12
 10
0.0
 20
0.0
 30
0.0
  0
INSERT
  5
2FB
330
18
100
AcDbEntity
  8
5
 62
     3
100
AcDbBlockReference
  2
BLK15
 10
0.0
 20
0.0
 30
0.0
  0
INSERT
  5
2FC
330
18
100
AcDbEntity
  8
5
 62
     3
100
AcDbBlockReference
  2
BLK16
 10
0.0
 20
0.0
 30
0.0
  0
INSERT
  5
2FD
330
18
100
AcDbEntity
  8
5
 62
     3
100
AcDbBlockReference
  2
BLK17
 10
0.0
 20
0.0
 30
0.0
  0
LINE
  5
300
330
18
100
AcDbEntity
  8
0
100
AcDbLine
 10
46.7695344710244
 20
181.4077550127944
 30
0.0
 11
59.7695484710244
 21
181.4077550127944
 31
0.0
  0
LINE
  5
301
330
18
100
AcDbEntity
  8
7
  6
GEN7A
100
AcDbLine
 10
35.64407890629104
 20
141.4077090127944
 30
0.0
 11
65.65362447102441
 21
141.4077090127944
 31
0.0
  0
LINE
  5
302
330
18
100
AcDbEntity
  8
7
  6
GEN7A
100
AcDbLine
 10
-7.33947152897559
 20
101.4077470127944
 30
0.0
 11
84.76955647102441
 21
101.4077470127944
 31
0.0
  0
LINE
  5
303
330
18
100
AcDbEntity
  8
0
100
AcDbLine
 10
46.7695484710244
 20
21.40555301279437
 30
0.0
 11
59.7695484710244
 21
21.40555301279437
 31
0.0
  0
LINE
  5
304
330
18
100
AcDbEntity
  8
0
100
AcDbLine
 10
61.7695484710244
 20
23.40554701279438
 30
0.0
 11
61.7695484710244
 21
179.4077710127943
 31
0.0
  0
LINE
  5
305
330
18
100
AcDbEntity
  8
0
100
AcDbLine
 10
46.7695484710244
 20
21.40555301279437
 30
0.0
 11
46.7695484710244
 21
181.4077390127944
 31
0.0
  0
LINE
  5
306
330
18
100
AcDbEntity
  8
7
  6
GEN7A
100
AcDbLine
 10
33.63146760099937
 20
61.40778501279439
 30
0.0
 11
65.65362447102441
 21
61.40778501279439
 31
0.0
  0
LINE
  5
308
330
18
100
AcDbEntity
  8
0
100
AcDbLine
 10
-3.230457528975589
 20
105.9077550127944
 30
0.0
 11
46.76955247102441
 21
105.9077550127944
 31
0.0
  0
LINE
  5
309
330
18
100
AcDbEntity
  8
0
100
AcDbLine
 10
-3.230457528975589
 20
96.90774701279439
 30
0.0
 11
46.76955247102441
 21
96.90774701279439
 31
0.0
  0
LINE
  5
30A
330
18
100
AcDbEntity
  8
0
100
AcDbLine
 10
-3.230457528975589
 20
96.90774701279439
 30
0.0
 11
-3.230457528975589
 21
105.9077550127944
 31
0.0
  0
LINE
  5
312
330
18
100
AcDbEntity
  8
0
100
AcDbLine
 10
61.76955247102441
 20
112.4077550127944
 30
0.0
 11
84.76955647102441
 21
112.4077550127944
 31
0.0
  0
LINE
  5
313
330
18
100
AcDbEntity
  8
0
100
AcDbLine
 10
61.76955247102441
 20
90.40773901279438
 30
0.0
 11
84.76955647102441
 21
90.40773901279438
 31
0.0
  0
LINE
  5
314
330
18
100
AcDbEntity
  8
0
100
AcDbLine
 10
109.7695644710244
 20
323.4077690127943
 30
0.0
 11
109.7695644710244
 21
136.4591770127944
 31
0.0
  0
LINE
  5
315
330
18
100
AcDbEntity
  8
0
100
AcDbLine
 10
131.7695644710244
 20
323.4077690127943
 30
0.0
 11
131.7695644710244
 21
137.4077550127944
 31
0.0
  0
ARC
  5
317
330
18
100
AcDbEntity
  8
0
100
AcDbCircle
 10
84.76955647102441
 20
137.4077550127944
 30
0.0
 40
24.999996
100
AcDbArc
 50
270.0
 51
0.0000170000000049
  0
ARC
  5
318
330
18
100
AcDbEntity
  8
0
100
AcDbCircle
 10
84.76955647102441
 20
137.4077550127944
 30
0.0
 40
46.999996
100
AcDbArc
 50
270.0
 51
0.0000090000000242
  0
LINE
  5
319
330
18
100
AcDbEntity
  8
0
100
AcDbLine
 10
83.76954847102441
 20
348.4077690127943
 30
0.0
 11
84.76955647102441
 21
348.4077690127943
 31
0.0
  0
LINE
  5
31A
330
18
100
AcDbEntity
  8
0
100
AcDbLine
 10
83.76954847102441
 20
370.4077690127944
 30
0.0
 11
84.76955647102441
 21
370.4077690127944
 31
0.0
  0
LINE
  5
31B
330
18
100
AcDbEntity
  8
0
100
AcDbLine
 10
83.76958647102441
 20
370.4077690127944
 30
0.0
 11
83.76958647102441
 21
348.4077690127943
 31
0.0
  0
ARC
  5
31C
330
18
100
AcDbEntity
  8
0
100
AcDbCircle
 10
84.76955647102441
 20
323.4077690127943
 30
0.0
 40
24.999996
100
AcDbArc
 50
359.9999850000001
 51
90.00000000000003
  0
ARC
  5
31D
330
18
100
AcDbEntity
  8
0
100
AcDbCircle
 10
84.76955647102441
 20
323.4077690127943
 30
0.0
 40
46.999996
100
AcDbArc
 50
359.9999850000001
 51
90.00000000000003
  0
ARC
  5
321
330
18
100
AcDbEntity
  8
7
  6
GEN7A
100
AcDbCircle
 10
84.76955647102441
 20
137.4077550127944
 30
0.0
 40
35.999996
100
AcDbArc
 50
270.0
 51
0.0000120000000106
  0
LINE
  5
322
330
18
100
AcDbEntity
  8
7
  6
GEN7A
100
AcDbLine
 10
120.7695644710244
 20
323.4077690127943
 30
0.0
 11
120.7695644710244
 21
138.5225610127944
 31
0.0
  0
LINE
  5
323
330
18
100
AcDbEntity
  8
7
  6
GEN7A
100
AcDbLine
 10
77.70423206545252
 20
359.4077690127944
 30
0.0
 11
85.29438247102442
 21
359.4077690127944
 31
0.0
  0
ARC
  5
324
330
18
100
AcDbEntity
  8
7
  6
GEN7A
100
AcDbCircle
 10
84.76955647102441
 20
323.4077690127943
 30
0.0
 40
35.999996
100
AcDbArc
 50
3.259325999999996
 51
89.16468000000005
  0
LINE
  5
325
330
18
100
AcDbEntity
  8
0
100
AcDbLine
 10
37.76956447102441
 20
55.65777701279438
 30
0.0
 11
46.76954247102441
 21
55.65777701279438
 31
0.0
  0
LINE
  5
326
330
18
100
AcDbEntity
  8
0
100
AcDbLine
 10
37.76956447102441
 20
67.15778501279439
 30
0.0
 11
46.76954247102441
 21
67.15778501279439
 31
0.0
  0
LINE
  5
327
330
18
100
AcDbEntity
  8
0
100
AcDbLine
 10
37.76954847102441
 20
55.65777101279437
 30
0.0
 11
37.76954847102441
 21
67.15778501279439
 31
0.0
  0
LINE
  5
328
330
18
100
AcDbEntity
  8
3A
  6
GEN3A
100
AcDbLine
 10
58.9195364710244
 20
144.0577190127944
 30
0.0
 11
61.7695484710244
 21
146.9077250127943
 31
0.0
  0
LINE
  5
329
330
18
100
AcDbEntity
  8
3A
  6
GEN3A
100
AcDbLine
 10
58.9195424710244
 20
138.7577150127944
 30
0.0
 11
61.76954447102441
 21
135.9077090127944
 31
0.0
  0
LINE
  5
32A
330
18
100
AcDbEntity
  8
0
100
AcDbLine
 10
37.76956447102441
 20
147.1577090127944
 30
0.0
 11
46.76954247102441
 21
147.1577090127944
 31
0.0
  0
LINE
  5
32B
330
18
100
AcDbEntity
  8
3A
  6
GEN3A
100
AcDbLine
 10
37.76954847102441
 20
144.0577190127944
 30
0.0
 11
58.9195364710244
 21
144.0577190127944
 31
0.0
  0
LINE
  5
32C
330
18
100
AcDbEntity
  8
3A
  6
GEN3A
100
AcDbLine
 10
37.76954847102441
 20
138.7577150127944
 30
0.0
 11
58.9195424710244
 21
138.7577150127944
 31
0.0
  0
LINE
  5
32D
330
18
100
AcDbEntity
  8
0
100
AcDbLine
 10
37.76954847102441
 20
135.6577090127944
 30
0.0
 11
37.76954847102441
 21
147.1577250127944
 31
0.0
  0
LINE
  5
32E
330
18
100
AcDbEntity
  8
0
100
AcDbLine
 10
37.76956447102441
 20
135.6577090127944
 30
0.0
 11
46.76954247102441
 21
135.6577090127944
 31
0.0
  0
LINE
  5
330
330
18
100
AcDbEntity
  8
3A
  6
GEN3A
100
AcDbLine
 10
58.9195424710244
 20
138.8077190127944
 30
0.0
 11
58.9195364710244
 21
144.0077150127944
 31
0.0
  0
LINE
  5
337
330
18
100
AcDbEntity
  8
3A
  6
GEN3A
100
AcDbLine
 10
58.9195424710244
 20
58.75777701279438
 30
0.0
 11
61.76954447102441
 21
55.90777701279439
 31
0.0
  0
LINE
  5
338
330
18
100
AcDbEntity
  8
3A
  6
GEN3A
100
AcDbLine
 10
37.76954847102441
 20
58.75777701279438
 30
0.0
 11
58.9195424710244
 21
58.75777701279438
 31
0.0
  0
LINE
  5
339
330
18
100
AcDbEntity
  8
3A
  6
GEN3A
100
AcDbLine
 10
58.9195424710244
 20
58.80777901279438
 30
0.0
 11
58.9195364710244
 21
64.00777701279437
 31
0.0
  0
LINE
  5
33A
330
18
100
AcDbEntity
  8
3A
  6
GEN3A
100
AcDbLine
 10
37.76954847102441
 20
64.05777901279439
 30
0.0
 11
58.9195364710244
 21
64.05777901279439
 31
0.0
  0
LINE
  5
33B
330
18
100
AcDbEntity
  8
3A
  6
GEN3A
100
AcDbLine
 10
58.9195364710244
 20
64.05777901279439
 30
0.0
 11
61.7695484710244
 21
66.90779301279437
 31
0.0
  0
LINE
  5
33C
330
18
100
AcDbEntity
  8
0
100
AcDbLine
 10
61.7695484710244
 20
23.40555301279437
 30
0.0
 11
59.7695484710244
 21
21.40555301279437
 31
0.0
  0
LINE
  5
33D
330
18
100
AcDbEntity
  8
0
100
AcDbLine
 10
59.7695484710244
 20
181.4077550127944
 30
0.0
 11
61.7695484710244
 21
179.4077550127943
 31
0.0
  0
LINE
  5
33E
330
18
100
AcDbEntity
  8
0
100
AcDbLine
 10
59.7695484710244
 20
181.4077550127944
 30
0.0
 11
59.7695484710244
 21
21.40556101279438
 31
0.0
  0
LINE
  5
33F
330
18
100
AcDbEntity
  8
7
  6
GEN7A
100
AcDbLine
 10
-111.2304355289756
 20
375.4595270127944
 30
0.0
 11
-111.2304355289756
 21
46.04712165806609
 31
0.0
  0
LINE
  5
340
330
18
100
AcDbEntity
  8
0
100
AcDbLine
 10
-94.23043552897558
 20
38.40554701279439
 30
0.0
 11
-94.23043552897558
 21
164.4077550127944
 31
0.0
  0
LINE
  5
341
330
18
100
AcDbEntity
  8
0
100
AcDbLine
 10
-128.2304355289756
 20
38.40554701279439
 30
0.0
 11
-128.2304355289756
 21
164.4077550127944
 31
0.0
  0
LINE
  5
342
330
18
100
AcDbEntity
  8
7
  6
GEN7A
100
AcDbLine
 10
-119.2938975289756
 20
141.4077550127944
 30
0.0
 11
-102.8942155289756
 21
141.4077550127944
 31
0.0
  0
ARC
  5
343
330
18
100
AcDbEntity
  8
0
100
AcDbCircle
 10
-111.2304355289756
 20
38.40554701279439
 30
0.0
 40
16.999998
100
AcDbArc
 50
179.999939
 51
0.0000510000000376
  0
LINE
  5
344
330
18
100
AcDbEntity
  8
0
100
AcDbLine
 10
-122.2304355289756
 20
359.3945025160724
 30
0.0
 11
-122.2304355289756
 21
101.4077470127944
 31
0.0
  0
ARC
  5
345
330
18
100
AcDbEntity
  8
0
100
AcDbCircle
 10
-111.2304355289756
 20
164.4077550127944
 30
0.0
 40
16.999998
100
AcDbArc
 50
130.320236
 51
180.0
  0
ARC
  5
346
330
18
100
AcDbEntity
  8
0
100
AcDbCircle
 10
-111.2304355289754
 20
164.4077550127943
 30
0.0
 40
16.99999799999988
100
AcDbArc
 50
0.0000060000001219
 51
49.67981457314731
  0
LINE
  5
349
330
18
100
AcDbEntity
  8
0
100
AcDbLine
 10
-100.2304435289756
 20
359.4077690127973
 30
0.0
 11
-100.2304435289756
 21
101.4077470127944
 31
0.0
  0
LINE
  5
34A
330
18
100
AcDbEntity
  8
7
  6
GEN7A
100
AcDbLine
 10
-111.2304355289756
 20
101.4077470127944
 30
0.0
 11
-96.23043552897559
 21
101.4077470127944
 31
0.0
  0
LINE
  5
34B
330
18
100
AcDbEntity
  8
7
  6
GEN7A
100
AcDbLine
 10
-111.2304355289756
 20
101.4077470127944
 30
0.0
 11
-126.2304355289756
 21
101.4077470127944
 31
0.0
  0
ARC
  5
34D
330
18
100
AcDbEntity
  8
0
100
AcDbCircle
 10
-111.2304355289756
 20
101.4077470127944
 30
0.0
 40
10.999988
100
AcDbArc
 50
179.999954
 51
0.0000400000000195
  0
ARC
  5
34F
330
18
100
AcDbEntity
  8
3A
  6
GEN3A
100
AcDbCircle
 10
-111.2304355289756
 20
101.4077470127944
 30
0.0
 40
10.99998799999998
100
AcDbArc
 50
0.0000399999999931
 51
179.999954
  0
ARC
  5
350
330
18
100
AcDbEntity
  8
0
100
AcDbCircle
 10
-111.2304435289755
 20
359.4077690127973
 30
0.0
 40
11.0
100
AcDbArc
 50
0.0
 51
180.069101314139
  0
CIRCLE
  5
351
330
18
100
AcDbEntity
  8
0
100
AcDbCircle
 10
-111.2304355289756
 20
61.40773901279439
 30
0.0
 40
4.999958
  0
CIRCLE
  5
352
330
18
100
AcDbEntity
  8
0
100
AcDbCircle
 10
-111.2304355289756
 20
61.40773901279439
 30
0.0
 40
2.700057999999999
  0
LINE
  5
353
330
18
100
AcDbEntity
  8
7
  6
GEN7A
100
AcDbLine
 10
-118.7303735289755
 20
61.40773901279439
 30
0.0
 11
-103.7304975289756
 21
61.40773901279439
 31
0.0
  0
CIRCLE
  5
354
330
18
100
AcDbEntity
  8
3A
  6
GEN3A
100
AcDbCircle
 10
-111.2304355289756
 20
141.4077550127944
 30
0.0
 40
2.700057999999999
  0
CIRCLE
  5
355
330
18
100
AcDbEntity
  8
3A
  6
GEN3A
100
AcDbCircle
 10
-111.2304355289756
 20
141.4077550127944
 30
0.0
 40
4.999958
  0
ARC
  5
35A
330
18
100
AcDbEntity
  8
3A
  6
GEN3A
100
AcDbCircle
 10
-111.2304355289756
 20
164.4077550127945
 30
0.0
 40
16.99999799999987
100
AcDbArc
 50
49.67981457314658
 51
130.3202360000001
  0
ARC
  5
35B
330
18
100
AcDbEntity
  8
0
100
AcDbCircle
 10
-111.2304355289756
 20
164.4077550127944
 30
0.0
 40
14.999998
100
AcDbArc
 50
0.000014999999997
 51
42.83349600000003
  0
ARC
  5
35C
330
18
100
AcDbEntity
  8
0
100
AcDbCircle
 10
-111.2304355289756
 20
164.4077550127944
 30
0.0
 40
14.999998
100
AcDbArc
 50
137.1665801741274
 51
180.0
  0
LINE
  5
35E
330
18
100
AcDbEntity
  8
0
100
AcDbLine
 10
-126.2304355289756
 20
38.4055310127944
 30
0.0
 11
-126.2304355289756
 21
164.4077390127944
 31
0.0
  0
LINE
  5
35F
330
18
100
AcDbEntity
  8
0
100
AcDbLine
 10
-96.23043552897559
 20
38.40552301279439
 30
0.0
 11
-96.23043552897559
 21
164.4077090127944
 31
0.0
  0
ARC
  5
360
330
18
100
AcDbEntity
  8
0
100
AcDbCircle
 10
-111.2304355289756
 20
38.40554701279439
 30
0.0
 40
14.999998
100
AcDbArc
 50
179.9998249999999
 51
0.0002290000000289
  0
ARC
  5
496
330
18
100
AcDbEntity
  8
0
100
AcDbCircle
 10
-111.2304355289756
 20
164.4077550127944
 30
0.0
 40
14.999998
100
AcDbArc
 50
0.0000070000000163
 51
42.83346477237379
  0
POINT
  5
649
330
18
100
AcDbEntity
  8
0
 60
     1
100
AcDbPoint
 10
0.0
 20
0.0
 30
0.0
1001
GENIUS_GENODEF_13
1002
{
1000
HIER
1070
     1
1002
}
1002
{
1000
MANEDIT
1070
     0
1002
}
1002
{
1000
NOSEL
1070
     0
1002
}
1002
{
1000
BEHIND
1070
     0
1002
}
1002
{
1000
REACTOR
1002
}
1001
GENIUS_GENOBJ-N-SDF_13
1002
{
1000
OWNER
1000
GEN
1002
}
1001
GENIUS_GENOENT_13
1002
{
1000
MYREF
1005
649
1002
}
1002
{
1000
GRP
1005
0
1002
}
1001
GENIUS_GENOLIS_13
1002
{
1000
ENT
1005
3DB
1002
}
  0
DIMENSION
  5
72C
330
18
100
AcDbEntity
  8
5
100
AcDbDimension
  2
*D30
 10
97.4580643287244
 20
135.9077090127943
 30
0.0
 11
97.45806432872438
 21
178.7699551695243
 31
0.0
 70
   160
  1
%%c<> x 90°
 71
     5
 42
11.00001599999999
 73
     0
 74
     0
 75
     0
  3
GEN-ISO
100
AcDbAlignedDimension
 13
61.7695484710244
 23
146.9077250127943
 33
0.0
 14
61.76954447102441
 24
135.9077090127944
 34
0.0
 50
90.00000000000003
100
AcDbRotatedDimension
1001
GENIUS_GENDTOL_13
1000

1000
h7
1000

1040
0.0
1001
ACAD
1000
DSTYLE
1002
{
1070
    40
1040
2.0
1070
   144
1040
1.0
1002
}
  0
DIMENSION
  5
7E4
330
18
100
AcDbEntity
  8
5
100
AcDbDimension
  2
*D31
 10
14.70868727868426
 20
138.7577150127944
 30
0.0
 11
14.70868727868424
 21
169.4390442118358
 31
0.0
 70
   160
  1
%%c<>
 71
     5
 42
5.300004000000001
 73
     0
 74
     0
 75
     0
  3
GEN-ISO
100
AcDbAlignedDimension
 13
37.76954847102441
 23
144.0577190127944
 33
0.0
 14
37.76954847102441
 24
138.7577150127944
 34
0.0
 50
270.0000000000001
100
AcDbRotatedDimension
1001
GENIUS_GENDTOL_13
1000

1000
h7
1000

1040
0.0
1001
ACAD
1000
DSTYLE
1002
{
1070
    40
1040
2.0
1070
   144
1040
1.0
1002
}
  0
DIMENSION
  5
8A6
330
18
100
AcDbEntity
  8
5
100
AcDbDimension
  2
*D32
 10
-94.23043552897558
 20
4.485623502903877
 30
0.0
 11
-110.9314637362263
 21
4.485623502903877
 31
0.0
 70
   160
  1
<>
 71
     5
 42
34.0
 73
     0
 74
     0
 75
     0
  3
GEN-ISO
100
AcDbAlignedDimension
 13
-128.2304355289756
 23
38.40554701279439
 33
0.0
 14
-94.23043552897558
 24
38.40554701279439
 34
0.0
 50
180.0
100
AcDbRotatedDimension
1001
GENIUS_GENDTOL_13
1000

1000
h7
1000

1040
0.0
1001
ACAD
1000
DSTYLE
1002
{
1070
    40
1040
2.0
1070
   144
1040
1.0
1002
}
  0
DIMENSION
  5
936
330
18
100
AcDbEntity
  8
5
100
AcDbDimension
  2
*D33
 10
-59.96887114308538
 20
181.4077530127944
 30
0.0
 11
-65.46887114308543
 21
101.4066510127943
 31
0.0
 70
    32
  1
<>
 71
     5
 42
160.002204
 73
     0
 74
     0
 75
     0
  3
GEN-ISO
100
AcDbAlignedDimension
 13
-111.2304355289756
 23
21.40554901279438
 33
0.0
 14
-111.2304355289756
 24
181.4077530127944
 34
0.0
 50
270.0
100
AcDbRotatedDimension
1001
GENIUS_GENDTOL_13
1000

1000
h7
1000

1040
0.0
1001
ACAD
1000
DSTYLE
1002
{
1070
    40
1040
2.0
1070
   144
1040
1.0
1002
}
  0
DIMENSION
  5
A49
330
18
100
AcDbEntity
  8
5
100
AcDbDimension
  2
*D34
 10
-13.72683916370486
 20
96.90774701279439
 30
0.0
 11
-13.72683916370488
 21
101.4077510127944
 31
0.0
 70
   160
  1
{\Famgdt;o}<>/{\Famgdt;o}10
 71
     5
 42
9.000007999999994
 73
     0
 74
     0
 75
     0
  3
GEN-ISO
100
AcDbAlignedDimension
 13
-3.230457528975589
 23
105.9077550127944
 33
0.0
 14
-3.230457528975589
 24
96.90774701279439
 34
0.0
 50
270.0000000000001
100
AcDbRotatedDimension
1001
GENIUS_GENDTOL_13
1000

1000
h7
1000

1040
0.0
1001
ACAD
1000
DSTYLE
1002
{
1070
    40
1040
2.0
1070
   144
1040
1.0
1002
}
  0
DIMENSION
  5
BAA
330
18
100
AcDbEntity
  8
5
100
AcDbDimension
  2
*D35
 10
46.7695484710244
 20
81.34963180347245
 30
0.0
 11
22.02054604285513
 21
81.34963180347245
 31
0.0
 70
   160
  1
<>
 71
     5
 42
50.00000599999999
 73
     0
 74
     0
 75
     0
  3
GEN-ISO
100
AcDbAlignedDimension
 13
-3.230457528975589
 23
96.90774701279439
 33
0.0
 14
46.7695484710244
 24
96.90774701279439
 34
0.0
100
AcDbRotatedDimension
1001
GENIUS_GENDTOL_13
1000

1000
h7
1000

1040
0.0
1001
ACAD
1000
DSTYLE
1002
{
1070
    40
1040
2.0
1070
   144
1040
1.0
1002
}
  0
DIMENSION
  5
C5B
330
18
100
AcDbEntity
  8
5
100
AcDbDimension
  2
*D36
 10
14.70868727868424
 20
55.65777101279437
 30
0.0
 11
14.70868727868422
 21
30.40175267119278
 31
0.0
 70
   160
  1
%%c<>
 71
     5
 42
11.50001400000003
 73
     0
 74
     0
 75
     0
  3
GEN-ISO
100
AcDbAlignedDimension
 13
37.76954847102441
 23
67.15778501279439
 33
0.0
 14
37.76954847102441
 24
55.65777101279437
 34
0.0
 50
270.0000000000001
100
AcDbRotatedDimension
1001
GENIUS_GENDTOL_13
1000

1000
h7
1000

1040
0.0
1001
ACAD
1000
DSTYLE
1002
{
1070
    40
1040
2.0
1070
   144
1040
1.0
1002
}
  0
DIMENSION
  5
CE3
330
18
100
AcDbEntity
  8
5
100
AcDbDimension
  2
*D37
 10
46.7695484710244
 20
36.93996230800193
 30
0.0
 11
42.26955647102441
 21
42.43996230800192
 31
0.0
 70
    32
  1
<>
 71
     5
 42
8.999983999999997
 73
     0
 74
     0
 75
     0
  3
GEN-ISO
100
AcDbAlignedDimension
 13
37.76956447102441
 23
55.65777701279438
 33
0.0
 14
46.7695484710244
 24
55.65777701279438
 34
0.0
100
AcDbRotatedDimension
1001
GENIUS_GENDTOL_13
1000

1000
h7
1000

1040
0.0
1001
ACAD
1000
DSTYLE
1002
{
1070
    40
1040
2.0
1070
   144
1040
1.0
1002
}
  0
DIMENSION
  5
DA0
330
18
100
AcDbEntity
  8
5
100
AcDbDimension
  2
*D38
 10
61.7695484710244
 20
1.405553012794371
 30
0.0
 11
54.2695484710244
 21
1.405553012794371
 31
0.0
 70
   160
  1
<>
 71
     5
 42
15.0
 73
     0
 74
     0
 75
     0
  3
GEN-ISO
100
AcDbAlignedDimension
 13
46.7695484710244
 23
21.40555301279437
 33
0.0
 14
61.7695484710244
 24
23.40555301279437
 34
0.0
100
AcDbRotatedDimension
1001
GENIUS_GENDTOL_13
1000

1000
h7
1000

1040
0.0
1001
ACAD
1000
DSTYLE
1002
{
1070
    40
1040
2.0
1070
   144
1040
1.0
1002
}
  0
DIMENSION
  5
E87
330
18
100
AcDbEntity
  8
5
100
AcDbDimension
  2
*D39
 10
131.7695644710244
 20
1.405553012794371
 30
0.0
 11
96.76955647102444
 21
1.405553012794371
 31
0.0
 70
   160
  1
<>
 71
     5
 42
70.00001600000003
 73
     0
 74
     0
 75
     0
  3
GEN-ISO
100
AcDbAlignedDimension
 13
61.7695484710244
 23
23.40555301279437
 33
0.0
 14
131.7695644710244
 24
137.4077550127944
 34
0.0
100
AcDbRotatedDimension
1001
GENIUS_GENDTOL_13
1000

1000
h7
1000

1040
0.0
1001
ACAD
1000
DSTYLE
1002
{
1070
    40
1040
2.0
1070
   144
1040
1.0
1002
}
  0
DIMENSION
  5
F17
330
18
100
AcDbEntity
  8
5
100
AcDbDimension
  2
*D40
 10
131.7695644710244
 20
-18.59444698720563
 30
0.0
 11
89.26954947102442
 21
-18.59444698720563
 31
0.0
 70
   160
  1
<>
 71
     5
 42
85.00001600000002
 73
     0
 74
     0
 75
     0
  3
GEN-ISO
100
AcDbAlignedDimension
 13
46.7695484710244
 23
21.40555301279437
 33
0.0
 14
131.7695644710244
 24
209.4099410127944
 34
0.0
100
AcDbRotatedDimension
1001
GENIUS_GENDTOL_13
1000

1000
h7
1000

1040
0.0
1001
ACAD
1000
DSTYLE
1002
{
1070
    40
1040
2.0
1070
   144
1040
1.0
1002
}
  0
DIMENSION
  5
FB0
330
18
100
AcDbEntity
  8
5
100
AcDbDimension
  2
*D41
 10
46.85256379184995
 20
370.4077690127944
 30
0.0
 11
46.85256379184989
 21
358.492550660857
 31
0.0
 70
   160
  1
%%c<>
 71
     5
 42
22.00000000000006
 73
     0
 74
     0
 75
     0
  3
GEN-ISO
100
AcDbAlignedDimension
 13
83.76954847102441
 23
348.4077690127943
 33
0.0
 14
83.76958647102441
 24
370.4077690127944
 34
0.0
 50
89.99999999999996
100
AcDbRotatedDimension
1001
GENIUS_GENDTOL_13
1000

1000
h7
1000

1040
0.0
1001
ACAD
1000
DSTYLE
1002
{
1070
    40
1040
2.0
1070
   144
1040
1.0
1002
}
  0
DIMENSION
  5
1038
330
18
100
AcDbEntity
  8
5
100
AcDbDimension
  2
*D42
 10
166.076627548171
 20
370.4077650127943
 30
0.0
 11
166.0766275481709
 21
230.4077520127947
 31
0.0
 70
   160
  1
<>
 71
     5
 42
280.000026
 73
     0
 74
     0
 75
     0
  3
GEN-ISO
100
AcDbAlignedDimension
 13
84.76955647102441
 23
90.4077390127944
 33
0.0
 14
84.76955647102441
 24
370.4077650127944
 34
0.0
 50
270.0
100
AcDbRotatedDimension
1001
GENIUS_GENDTOL_13
1000

1000
h7
1000

1040
0.0
1001
ACAD
1000
DSTYLE
1002
{
1070
    40
1040
2.0
1070
   144
1040
1.0
1002
}
  0
LWPOLYLINE
  5
112F
330
18
100
AcDbEntity
  8
VIEW
100
AcDbPolyline
 90
        4
 70
     1
 43
0.0
 10
-150.9590022949469
 20
-180.2543170857701
 10
173.7243661926914
 20
-180.2543170857701
 10
173.7243661926914
 20
215.2787506197977
 10
-150.9590022949469
 20
215.2787506197977
1001
GENIUS_GENODEF_13
1002
{
1000
HIER
1070
     0
1002
}
1002
{
1000
MANEDIT
1070
     0
1002
}
1002
{
1000
NOSEL
1070
     0
1002
}
1002
{
1000
BEHIND
1070
     0
1002
}
1002
{
1000
REACTOR
1002
}
1001
GENIUS_GENOBJ-N-SDF_13
1002
{
1000
OWNER
1000
GEN
1002
}
1001
GENIUS_GENSCREG_15
1040
2.0
1040
1.0
1011
-150.9590022949469
1021
-180.2543170857701
1031
0.0
1011
173.7243661926914
1021
215.2787506197977
1031
0.0
1070
     2
  0
DIMENSION
  5
189C
330
18
100
AcDbEntity
  8
5
100
AcDbDimension
  2
*D48
 10
83.76954847102439
 20
236.9890594451301
 30
0.0
 11
63.82829810338876
 21
236.9890594451301
 31
0.0
 70
   160
  1
<>
 71
     5
 42
37.0
 73
     0
 74
     0
 75
     0
  3
GEN-ISO
100
AcDbAlignedDimension
 13
46.7695484710244
 23
181.4077390127944
 33
0.0
 14
83.76954847102441
 24
370.4077690127944
 34
0.0
100
AcDbRotatedDimension
1001
GENIUS_GENDTOL_13
1000

1000
h7
1000

1040
0.0
1001
ACAD
1000
DSTYLE
1002
{
1070
    40
1040
2.0
1070
   144
1040
1.0
1002
}
  0
ARC
  5
1A17
330
18
100
AcDbEntity
  8
3A
  6
GEN3A
100
AcDbCircle
 10
-111.2304355289756
 20
164.4077550127944
 30
0.0
 40
14.89303918292948
100
AcDbArc
 50
42.38774524925695
 51
137.6123004045004
  0
TEXT
  5
1B30
330
18
100
AcDbEntity
  8
6
100
AcDbText
 10
-58.62270421759831
 20
-83.35843123108228
 30
0.0
 40
7.0
  1
5155-280-5619K
100
AcDbText
1001
GENIUS_AMGTXT_16
1040
3.5
1040
0.12
  0
DIMENSION
  5
1D9A
330
18
100
AcDbEntity
  8
5
100
AcDbDimension
  2
*D49
 10
-139.2938975289756
 20
61.40773901279439
 30
0.0
 11
-144.7938975289756
 21
101.4077470127944
 31
0.0
 70
    32
 71
     5
 42
80.00001599999999
 73
     0
 74
     0
 75
     0
  3
GEN-ISO
100
AcDbAlignedDimension
 13
-119.2938975289756
 23
141.4077550127944
 33
0.0
 14
-118.7303735289755
 24
61.40773901279439
 34
0.0
 50
90.00000000000003
100
AcDbRotatedDimension
1001
ACAD
1000
DSTYLE
1002
{
1070
    40
1040
2.0
1070
   144
1040
1.0
1002
}
  0
ARC
  5
1E8D
330
18
100
AcDbEntity
  8
3A
  6
GEN3A
100
AcDbCircle
 10
-111.3082234694393
 20
359.4011123128963
 30
0.0
 40
10.99998799999998
100
AcDbArc
 50
180.0345966602105
 51
0.0345106602105596
  0
LINE
  5
1E8E
330
18
100
AcDbEntity
  8
7
  6
GEN7A
100
AcDbLine
 10
-111.3082234694394
 20
359.4011123128963
 30
0.0
 11
-96.30822619671283
 21
359.4101576540392
 31
0.0
  0
LINE
  5
1E8F
330
18
100
AcDbEntity
  8
7
  6
GEN7A
100
AcDbLine
 10
-111.3082234694394
 20
359.4011123128963
 30
0.0
 11
-126.3082207421659
 21
359.3920669717533
 31
0.0
  0
VIEWPORT
  5
3DB
330
15
100
AcDbEntity
 67
     1
  8
VIEW
100
AcDbViewport
 10
226.4044080506486
 20
182.1562951785313
 30
0.0
 40
472.5969368929977
 41
364.3125901874177
 68
     1
 69
     1
 12
226.4044080506486
 22
182.1562951785313
 13
0.0
 23
0.0
 14
1.0
 24
1.0
 15
0.0
 25
0.0
 16
0.0
 26
0.0
 36
1.0
 17
0.0
 27
0.0
 37
0.0
 42
50.0
 43
0.0
 44
0.0
 45
364.3125901874177
 50
0.0
 51
0.0
 72
   100
 90
    32800
  1

281
     0
 71
     1
 74
     0
110
0.0
120
0.0
130
0.0
111
1.0
121
0.0
131
0.0
112
0.0
122
1.0
132
0.0
 79
     0
146
0.0
170
     0
 61
     5
348
1E9D
292
     1
282
     1
141
0.0
142
0.0
 63
   250
421
  3355443
1001
GENIUS_GENSCREG_15
1000
PF
1040
0.0
1000
DF
1040
0.0
1000
MIN
1011
0.0
1021
0.0
1031
0.0
1000
MAX
1011
420.0
1021
297.0
1031
0.0
1000
FLAGS
1070
     4
1001
GENIUS_GENOREF_13
1005
649
  0
ENDSEC
  0
SECTION
  2
OBJECTS
  0
DICTIONARY
  5
C
330
0
100
AcDbDictionary
281
     1
  3
ACAD_COLOR
350
1B76
  3
ACAD_GROUP
350
D
  3
ACAD_LAYOUT
350
605
  3
ACAD_MATERIAL
350
1B75
  3
ACAD_MLINESTYLE
350
1B
  3
ACAD_PLOTSETTINGS
350
606
  3
ACAD_PLOTSTYLENAME
350
603
  3
ACAD_TABLESTYLE
350
1EA8
  3
ACAD_VISUALSTYLE
350
1E97
  3
ACDBVARIABLEDICTIONARY
350
378
  3
ACMDICTIONARY
350
3D4
  3
AMG
350
60E
  3
AMGSNAPSETTINGS
350
650
  3
GENIUS
350
428
  3
MAPISURF_MODULE
350
1B08
  0
DICTIONARY
  5
472
330
18
100
AcDbDictionary
280
     1
281
     1
  3
ACAD_INDEX
360
1AB8
  0
DICTIONARY
  5
1B76
102
{ACAD_REACTORS
330
C
102
}
330
C
100
AcDbDictionary
281
     1
  0
DICTIONARY
  5
D
102
{ACAD_REACTORS
330
C
102
}
330
C
100
AcDbDictionary
281
     1
  0
DICTIONARY
  5
605
102
{ACAD_REACTORS
330
C
102
}
330
C
100
AcDbDictionary
281
     1
  3
Layout1
350
608
  3
Model
350
607
  0
DICTIONARY
  5
1B75
102
{ACAD_REACTORS
330
C
102
}
330
C
100
AcDbDictionary
281
     1
  3
ByBlock
350
1E95
  3
ByLayer
350
1E94
  3
Global
350
1E96
  0
DICTIONARY
  5
1B
102
{ACAD_REACTORS
330
C
102
}
330
C
100
AcDbDictionary
281
     1
  3
STANDARD
350
1C
  0
DICTIONARY
  5
606
102
{ACAD_REACTORS
330
C
102
}
330
C
100
AcDbDictionary
281
     1
  0
ACDBDICTIONARYWDFLT
  5
603
102
{ACAD_REACTORS
330
C
102
}
330
C
100
AcDbDictionary
281
     1
  3
Normal
350
604
100
AcDbDictionaryWithDefault
340
604
  0
DICTIONARY
  5
1EA8
102
{ACAD_REACTORS
330
C
102
}
330
C
100
AcDbDictionary
281
     1
  3
Standard
350
1EA9
  0
DICTIONARY
  5
1E97
102
{ACAD_REACTORS
330
C
102
}
330
C
100
AcDbDictionary
281
     1
  3
2dWireframe
350
1E9D
  3
3D Hidden
350
1E9F
  3
3dWireframe
350
1E9E
  3
Basic
350
1E9C
  3
Brighten
350
1EA3
  3
ColorChange
350
1EA7
  3
Conceptual
350
1EA0
  3
Dim
350
1EA2
  3
Facepattern
350
1EA6
  3
Flat
350
1E98
  3
FlatWithEdges
350
1E99
  3
Gouraud
350
1E9A
  3
GouraudWithEdges
350
1E9B
  3
Linepattern
350
1EA5
  3
Realistic
350
1EA1
  3
Thicken
350
1EA4
  0
DICTIONARY
  5
378
102
{ACAD_REACTORS
330
C
102
}
330
C
100
AcDbDictionary
281
     1
  3
CTABLESTYLE
350
1EDC
  3
INDEXCTL
350
379
  0
DICTIONARY
  5
3D4
102
{ACAD_REACTORS
330
C
102
}
330
C
100
AcDbDictionary
281
     1
  3
ACMSTDDICTIONARY
350
41C
  3
AMDTSECTSYM_ARROWCOLOR
350
1EC7
  0
DICTIONARY
  5
60E
102
{ACAD_REACTORS
330
C
102
}
330
C
100
AcDbDictionary
281
     1
  3
AcMgSettings
350
60F
  3
AMGLAYCFG
350
642
  0
DICTIONARY
  5
650
102
{ACAD_REACTORS
330
C
102
}
330
C
100
AcDbDictionary
281
     1
  3
DIMENSION
350
655
  3
FEA
350
654
  3
HATCH (1)
350
651
  3
HATCH (2)
350
652
  3
SYMBOLS
350
653
  0
DICTIONARY
  5
428
102
{ACAD_REACTORS
330
C
102
}
330
C
100
AcDbDictionary
281
     1
  3
COMPDEFATTR_CUSTOM
350
429
  0
DICTIONARY
  5
1AB8
102
{ACAD_REACTORS
330
472
102
}
330
472
100
AcDbDictionary
281
     1
  3
*A1
350
1AB9
  0
LAYOUT
  5
608
102
{ACAD_REACTORS
330
605
102
}
330
605
100
AcDbPlotSettings
  1

  2
C:\AMD4PP\plotters\HP LaserJet 5000 N PCL 5e.pc3
  4
A4
  6

 40
7.143749713897705
 41
6.127734661102294
 42
7.143753051757812
 43
7.14373779296875
 44
210.0579986572266
 45
297.0106506347656
 46
0.0
 47
0.0
 48
0.0
 49
0.0
140
0.0
141
0.0
142
1.0
143
1.0
 70
   688
 72
     1
 73
     1
 74
     1
  7
Laser.ctb
 75
     0
147
1.0
 76
     0
 77
     2
 78
   300
148
0.0
149
0.0
100
AcDbLayout
  1
Layout1
 70
     1
 71
     1
 10
-7.14373779296875
 20
-7.143749713897705
 11
289.8669128417969
 21
202.9142489433289
 12
0.0
 22
0.0
 32
0.0
 14
1.000000000000000E+20
 24
1.000000000000000E+20
 34
1.000000000000000E+20
 15
-1.000000000000000E+20
 25
-1.000000000000000E+20
 35
-1.000000000000000E+20
146
0.0
 13
0.0
 23
0.0
 33
0.0
 16
1.0
 26
0.0
 36
0.0
 17
0.0
 27
1.0
 37
0.0
 76
     0
330
15
331
3DB
  0
LAYOUT
  5
607
102
{ACAD_REACTORS
330
605
102
}
330
605
100
AcDbPlotSettings
  1

  2
TIFF Version 6 (CCITT G4 2D-Komprimierung).pc3
  4
UserDefinedRaster (16000.00 x 12800.00Pixel)
  6
AM_VIEW1
 40
0.0
 41
0.0
 42
1.0
 43
1.0
 44
1280.0
 45
1600.0
 46
59.34915144559091
 47
0.0
 48
-172.6626374019195
 49
-317.057920982953
140
193.0973625980805
141
248.942079017047
142
1.0
143
0.2566302775827988
 70
 11956
 72
     2
 73
     0
 74
     1
  7
c:\amd5pp\Plot Styles\LAA4.ctb
 75
     0
147
3.896656347095917
 76
     0
 77
     2
 78
   300
148
129.6835603524784
149
179.5999103139381
100
AcDbLayout
  1
Model
 70
     1
 71
     0
 10
0.0
 20
0.0
 11
12.0
 21
9.0
 12
0.0
 22
0.0
 32
0.0
 14
0.0
 24
0.0
 34
0.0
 15
0.0
 25
0.0
 35
0.0
146
0.0
 13
0.0
 23
0.0
 33
0.0
 16
1.0
 26
0.0
 36
0.0
 17
0.0
 27
1.0
 37
0.0
 76
     0
330
18
331
1E92
  0
MATERIAL
  5
1E95
102
{ACAD_REACTORS
330
1B75
102
}
330
1B75
100
AcDbMaterial
  1
ByBlock
  0
MATERIAL
  5
1E94
102
{ACAD_REACTORS
330
1B75
102
}
330
1B75
100
AcDbMaterial
  1
ByLayer
  0
MATERIAL
  5
1E96
102
{ACAD_REACTORS
330
1B75
102
}
330
1B75
100
AcDbMaterial
  1
Global
  0
MLINESTYLE
  5
1C
102
{ACAD_REACTORS
330
1B
102
}
330
1B
100
AcDbMlineStyle
  2
STANDARD
 70
     0
  3

 62
   256
 51
90.0
 52
90.0
 71
     2
 49
0.5
 62
   256
  6
BYLAYER
 49
-0.5
 62
   256
  6
BYLAYER
  0
ACDBPLACEHOLDER
  5
604
102
{ACAD_REACTORS
330
603
102
}
330
603
  0
TABLESTYLE
  5
1EA9
102
{ACAD_REACTORS
330
1EA8
102
}
330
1EA8
100
AcDbTableStyle
  3
Standard
 70
     0
 71
     0
 40
1.5
 41
1.5
280
     0
281
     0
  7
STANDARD
140
4.5
170
     2
 62
     0
 63
     7
283
     0
 90
      512
 91
        0
  1

274
    -2
284
     1
 64
     0
275
    -2
285
     1
 65
     0
276
    -2
286
     1
 66
     0
277
    -2
287
     1
 67
     0
278
    -2
288
     1
 68
     0
279
    -2
289
     1
 69
     0
  7
STANDARD
140
6.0
170
     5
 62
     0
 63
     7
283
     0
 90
      512
 91
        0
  1

274
    -2
284
     1
 64
     0
275
    -2
285
     1
 65
     0
276
    -2
286
     1
 66
     0
277
    -2
287
     1
 67
     0
278
    -2
288
     1
 68
     0
279
    -2
289
     1
 69
     0
  7
STANDARD
140
4.5
170
     5
 62
     0
 63
     7
283
     0
 90
      512
 91
        0
  1

274
    -2
284
     1
 64
     0
275
    -2
285
     1
 65
     0
276
    -2
286
     1
 66
     0
277
    -2
287
     1
 67
     0
278
    -2
288
     1
 68
     0
279
    -2
289
     1
 69
     0
  0
VISUALSTYLE
  5
1E9D
102
{ACAD_REACTORS
330
1E97
102
}
330
1E97
100
AcDbVisualStyle
  2
2dWireframe
 70
     4
 71
     0
 72
     2
 73
     0
 90
        0
 40
-0.6
 41
-30.0
 62
     5
 63
     7
421
 16777215
 74
     1
 91
        4
 64
     7
 65
   257
 75
     1
175
     1
 42
1.0
 92
        0
 66
   257
 43
1.0
 76
     1
 77
     6
 78
     2
 67
     7
 79
     5
170
     0
171
     0
290
     0
174
     0
 93
        1
 44
0.0
173
     0
291
     0
 45
0.0
  0
VISUALSTYLE
  5
1E9F
102
{ACAD_REACTORS
330
1E97
102
}
330
1E97
100
AcDbVisualStyle
  2
3D Hidden
 70
     6
 71
     1
 72
     2
 73
     2
 90
        0
 40
-0.6
 41
-30.0
 62
     5
 63
     7
421
 16777215
 74
     2
 91
        2
 64
     7
 65
   257
 75
     2
175
     1
 42
40.0
 92
        0
 66
   257
 43
1.0
 76
     1
 77
     6
 78
     2
 67
     7
 79
     3
170
     0
171
     0
290
     0
174
     0
 93
        1
 44
0.0
173
     0
291
     0
 45
0.0
  0
VISUALSTYLE
  5
1E9E
102
{ACAD_REACTORS
330
1E97
102
}
330
1E97
100
AcDbVisualStyle
  2
3dWireframe
 70
     5
 71
     0
 72
     2
 73
     0
 90
        0
 40
-0.6
 41
-30.0
 62
     5
 63
     7
421
 16777215
 74
     1
 91
        4
 64
     7
 65
   257
 75
     1
175
     1
 42
1.0
 92
        0
 66
   257
 43
1.0
 76
     1
 77
     6
 78
     2
 67
     7
 79
     5
170
     0
171
     0
290
     0
174
     0
 93
        1
 44
0.0
173
     0
291
     0
 45
0.0
  0
VISUALSTYLE
  5
1E9C
102
{ACAD_REACTORS
330
1E97
102
}
330
1E97
100
AcDbVisualStyle
  2
Basic
 70
     7
 71
     1
 72
     0
 73
     1
 90
        0
 40
-0.6
 41
-30.0
 62
     5
 63
     7
421
 16777215
 74
     0
 91
        4
 64
     7
 65
   257
 75
     1
175
     1
 42
1.0
 92
        8
 66
     7
 43
1.0
 76
     1
 77
     6
 78
     2
 67
     7
 79
     5
170
     0
171
     0
290
     0
174
     0
 93
        1
 44
0.0
173
     0
291
     1
 45
0.0
  0
VISUALSTYLE
  5
1EA3
102
{ACAD_REACTORS
330
1E97
102
}
330
1E97
100
AcDbVisualStyle
  2
Brighten
 70
    12
 71
     2
 72
     2
 73
     0
 90
        0
 40
-0.6
 41
-30.0
 62
     5
 63
     7
421
 16777215
 74
     1
 91
        4
 64
     7
 65
   257
 75
     1
175
     1
 42
1.0
 92
        8
 66
     7
 43
1.0
 76
     1
 77
     6
 78
     2
 67
     7
 79
     5
170
     0
171
     0
290
     0
174
     0
 93
        1
 44
50.0
173
     0
291
     1
 45
0.0
  0
VISUALSTYLE
  5
1EA7
102
{ACAD_REACTORS
330
1E97
102
}
330
1E97
100
AcDbVisualStyle
  2
ColorChange
 70
    16
 71
     2
 72
     2
 73
     3
 90
        0
 40
-0.6
 41
-30.0
 62
     5
 63
     8
421
  8421504
 74
     1
 91
        4
 64
     7
 65
   257
 75
     1
175
     1
 42
1.0
 92
        8
 66
     8
424
  8421504
 43
1.0
 76
     1
 77
     6
 78
     2
 67
     7
 79
     5
170
     0
171
     0
290
     0
174
     0
 93
        1
 44
0.0
173
     0
291
     1
 45
0.0
  0
VISUALSTYLE
  5
1EA0
102
{ACAD_REACTORS
330
1E97
102
}
330
1E97
100
AcDbVisualStyle
  2
Conceptual
 70
     9
 71
     3
 72
     2
 73
     0
 90
        0
 40
-0.6
 41
-30.0
 62
     5
 63
     7
421
 16777215
 74
     2
 91
        2
 64
     7
 65
   257
 75
     1
175
     1
 42
40.0
 92
        8
 66
     7
 43
1.0
 76
     1
 77
     6
 78
     2
 67
     7
 79
     3
170
     0
171
     0
290
     0
174
     0
 93
        1
 44
0.0
173
     0
291
     0
 45
0.0
  0
VISUALSTYLE
  5
1EA2
102
{ACAD_REACTORS
330
1E97
102
}
330
1E97
100
AcDbVisualStyle
  2
Dim
 70
    11
 71
     2
 72
     2
 73
     0
 90
        0
 40
-0.6
 41
-30.0
 62
     5
 63
     7
421
 16777215
 74
     1
 91
        4
 64
     7
 65
   257
 75
     1
175
     1
 42
1.0
 92
        8
 66
     7
 43
1.0
 76
     1
 77
     6
 78
     2
 67
     7
 79
     5
170
     0
171
     0
290
     0
174
     0
 93
        1
 44
-50.0
173
     0
291
     1
 45
0.0
  0
VISUALSTYLE
  5
1EA6
102
{ACAD_REACTORS
330
1E97
102
}
330
1E97
100
AcDbVisualStyle
  2
Facepattern
 70
    15
 71
     2
 72
     2
 73
     0
 90
        0
 40
-0.6
 41
-30.0
 62
     5
 63
     7
421
 16777215
 74
     1
 91
        4
 64
     7
 65
   257
 75
     1
175
     1
 42
1.0
 92
        8
 66
     7
 43
1.0
 76
     1
 77
     6
 78
     2
 67
     7
 79
     5
170
     0
171
     0
290
     0
174
     0
 93
        1
 44
0.0
173
     0
291
     1
 45
0.0
  0
VISUALSTYLE
  5
1E98
102
{ACAD_REACTORS
330
1E97
102
}
330
1E97
100
AcDbVisualStyle
  2
Flat
 70
     0
 71
     2
 72
     1
 73
     1
 90
        2
 40
-0.6
 41
30.0
 62
     5
 63
     7
421
 16777215
 74
     0
 91
        4
 64
     7
 65
   257
 75
     1
175
     1
 42
1.0
 92
        8
 66
     7
 43
1.0
 76
     1
 77
     6
 78
     2
 67
     7
 79
     5
170
     0
171
     0
290
     0
174
     0
 93
       13
 44
0.0
173
     0
291
     1
 45
0.0
  0
VISUALSTYLE
  5
1E99
102
{ACAD_REACTORS
330
1E97
102
}
330
1E97
100
AcDbVisualStyle
  2
FlatWithEdges
 70
     1
 71
     2
 72
     1
 73
     1
 90
        2
 40
-0.6
 41
30.0
 62
     5
 63
     7
421
 16777215
 74
     1
 91
        4
 64
     7
 65
   257
 75
     1
175
     1
 42
1.0
 92
        0
 66
   257
 43
1.0
 76
     1
 77
     6
 78
     2
 67
     7
 79
     5
170
     0
171
     0
290
     0
174
     0
 93
       13
 44
0.0
173
     0
291
     1
 45
0.0
  0
VISUALSTYLE
  5
1E9A
102
{ACAD_REACTORS
330
1E97
102
}
330
1E97
100
AcDbVisualStyle
  2
Gouraud
 70
     2
 71
     2
 72
     2
 73
     1
 90
        2
 40
-0.6
 41
30.0
 62
     5
 63
     7
421
 16777215
 74
     0
 91
        4
 64
     7
 65
   257
 75
     1
175
     1
 42
1.0
 92
        0
 66
     7
 43
1.0
 76
     1
 77
     6
 78
     2
 67
     7
 79
     5
170
     0
171
     0
290
     0
174
     0
 93
       13
 44
0.0
173
     0
291
     1
 45
0.0
  0
VISUALSTYLE
  5
1E9B
102
{ACAD_REACTORS
330
1E97
102
}
330
1E97
100
AcDbVisualStyle
  2
GouraudWithEdges
 70
     3
 71
     2
 72
     2
 73
     1
 90
        2
 40
-0.6
 41
30.0
 62
     5
 63
     7
421
 16777215
 74
     1
 91
        4
 64
     7
 65
   257
 75
     1
175
     1
 42
1.0
 92
        0
 66
   257
 43
1.0
 76
     1
 77
     6
 78
     2
 67
     7
 79
     5
170
     0
171
     0
290
     0
174
     0
 93
       13
 44
0.0
173
     0
291
     1
 45
0.0
  0
VISUALSTYLE
  5
1EA5
102
{ACAD_REACTORS
330
1E97
102
}
330
1E97
100
AcDbVisualStyle
  2
Linepattern
 70
    14
 71
     2
 72
     2
 73
     0
 90
        0
 40
-0.6
 41
-30.0
 62
     5
 63
     7
421
 16777215
 74
     1
 91
        4
 64
     7
 65
   257
 75
     7
175
     7
 42
1.0
 92
        8
 66
     7
 43
1.0
 76
     1
 77
     6
 78
     2
 67
     7
 79
     5
170
     0
171
     0
290
     0
174
     0
 93
        1
 44
0.0
173
     0
291
     1
 45
0.0
  0
VISUALSTYLE
  5
1EA1
102
{ACAD_REACTORS
330
1E97
102
}
330
1E97
100
AcDbVisualStyle
  2
Realistic
 70
     8
 71
     2
 72
     2
 73
     0
 90
        0
 40
-0.6
 41
-30.0
 62
     5
 63
     7
421
 16777215
 74
     1
 91
        0
 64
     7
 65
   257
 75
     1
175
     1
 42
1.0
 92
        8
 66
     8
424
  7895160
 43
1.0
 76
     1
 77
     6
 78
     2
 67
     7
 79
     5
170
     0
171
     0
290
     0
174
     0
 93
       13
 44
0.0
173
     0
291
     0
 45
0.0
  0
VISUALSTYLE
  5
1EA4
102
{ACAD_REACTORS
330
1E97
102
}
330
1E97
100
AcDbVisualStyle
  2
Thicken
 70
    13
 71
     2
 72
     2
 73
     0
 90
        0
 40
-0.6
 41
-30.0
 62
     5
 63
     7
421
 16777215
 74
     1
 91
        4
 64
     7
 65
   257
 75
     1
175
     1
 42
1.0
 92
       12
 66
     7
 43
1.0
 76
     1
 77
     6
 78
     2
 67
     7
 79
     5
170
     0
171
     0
290
     0
174
     0
 93
        1
 44
0.0
173
     0
291
     1
 45
0.0
  0
DICTIONARYVAR
  5
1EDC
102
{ACAD_REACTORS
330
378
102
}
330
378
100
DictionaryVariables
280
     0
  1
STANDARD
  0
DICTIONARYVAR
  5
379
102
{ACAD_REACTORS
330
378
102
}
330
378
100
DictionaryVariables
280
     0
  1
1
  0
DICTIONARY
  5
41C
102
{ACAD_REACTORS
330
3D4
102
}
330
3D4
100
AcDbDictionary
281
     1
  0
XRECORD
  5
1EC7
102
{ACAD_REACTORS
330
3D4
102
}
330
3D4
100
AcDbXrecord
280
     1
 90
-1023410169
  0
DICTIONARY
  5
60F
102
{ACAD_REACTORS
330
60E
102
}
330
60E
100
AcDbDictionary
281
     1
  3
DWGSETTINGS
350
610
  3
TRANSSETTINGS
350
614
  0
ACAMGFILTERDAT
  5
655
102
{ACAD_REACTORS
330
650
102
}
330
650
100
AcAmgFilterDat
 70
    15
  1
DIMENSION,AMDT_*_DIM
  2
*
  3
*
  4
*
  5
*
290
     1
  0
ACAMGFILTERDAT
  5
654
102
{ACAD_REACTORS
330
650
102
}
330
650
100
AcAmgFilterDat
 70
    15
  1
*
  2
AM_FEA-AM_*
  3
*
  4
*
  5
*
290
     1
  0
ACAMGFILTERDAT
  5
651
102
{ACAD_REACTORS
330
650
102
}
330
650
100
AcAmgFilterDat
 70
    15
  1
HATCH
  2
*
  3
*
  4
*
  5
*
290
     1
  0
ACAMGFILTERDAT
  5
652
102
{ACAD_REACTORS
330
650
102
}
330
650
100
AcAmgFilterDat
 70
    15
  1
LINE
  2
8,8N,*-8,*-8N,AM_8,AM_8N,*-AM_8,*-AM_8N
  3
*
  4
*
  5
INSERT,STDPART2D
290
     1
  0
ACAMGFILTERDAT
  5
653
102
{ACAD_REACTORS
330
650
102
}
330
650
100
AcAmgFilterDat
 70
    15
  1
ACMFCFRAME,ACMDATUMTARGET,ACMDATUMID,ACMWELDSYM,ACMSURFSYM,ACMFEATID,ACMPARTREF,ACMBALLOON,AMDTEDGESYM
  2
*
  3
*
  4
*
  5
*
290
     1
  0
DICTIONARY
  5
429
102
{ACAD_REACTORS
330
428
102
}
330
428
100
AcDbDictionary
281
     1
  3
COMPDEFATTR_XRECORD
350
600
  0
LAYER_INDEX
  5
1AB9
102
{ACAD_REACTORS
330
1AB8
102
}
330
1AB8
100
AcDbIndex
 40
2453938.431680047
100
AcDbLayerIndex
  8
0
360
1ABA
 90
       44
  8
5
360
1ABB
 90
       22
  8
1
360
1ABC
 90
        0
  8
Defpoints
360
1ABD
 90
        0
  8
GEVACTIVE
360
1ABE
 90
        0
  8
GEVINACTIVE
360
1ABF
 90
        0
  8
VCCNULL
360
1AC0
 90
        0
  8
2
360
1AC1
 90
        0
  8
2A
360
1AC2
 90
        0
  8
3
360
1AC3
 90
        0
  8
3A
360
1AC4
 90
       16
  8
4
360
1AC5
 90
        0
  8
4A
360
1AC6
 90
        0
  8
6
360
1AC7
 90
        1
  8
7
360
1AC8
 90
       14
  8
7A
360
1AC9
 90
        0
  8
8
360
1ACA
 90
        0
  8
TEXT
360
1ACB
 90
        0
  8
RAHM5
360
1ACC
 90
        0
  8
RAHM3
360
1ACD
 90
        0
  8
AM_TR
360
1ACE
 90
        0
  8
AM_BM
360
1ACF
 90
        0
  8
AM_BL
360
1AD0
 90
        0
  8
AM_VIEWS
360
1AD1
 90
        0
  8
AM_PARDIM
360
1AD2
 90
        0
  8
AM_REFDIM
360
1AD3
 90
        0
  8
AM_VIS
360
1AD4
 90
        0
  8
AM_HID
360
1AD5
 90
        0
  8
AM_SUPPR
360
1AD6
 90
        0
  8
VIEW
360
1AD7
 90
        1
  8
KLIN
360
1AD8
 90
        0
  8
RAHM2
360
1AD9
 90
        0
  8
KOPF
360
1ADA
 90
        0
  8
AM_FR
360
1ADB
 90
        0
  0
XRECORD
  5
600
102
{ACAD_REACTORS
330
429
102
}
330
429
100
AcDbXrecord
280
     1
  1
2_0
 90
        0
  0
IDBUFFER
  5
1ABA
330
0
100
AcDbIdBuffer
330
300
330
303
330
304
330
305
330
308
330
309
330
30A
330
312
330
313
330
314
330
315
330
317
330
318
330
319
330
31A
330
31B
330
31C
330
31D
330
325
330
326
330
327
330
32A
330
32D
330
32E
330
33C
330
33D
330
33E
330
340
330
341
330
343
330
344
330
345
330
346
330
349
330
34D
330
350
330
351
330
352
330
35B
330
35C
330
35E
330
35F
330
360
330
496
  0
IDBUFFER
  5
1ABB
330
0
100
AcDbIdBuffer
330
2EE
330
2F7
330
2F8
330
2FB
330
2FC
330
2FD
330
72C
330
7E4
330
8A6
330
936
330
A49
330
BAA
330
C5B
330
CE3
330
DA0
330
E87
330
F17
330
FB0
330
1038
330
1523
330
189C
330
1D9A
  0
IDBUFFER
  5
1ABC
330
0
100
AcDbIdBuffer
  0
IDBUFFER
  5
1ABD
330
0
100
AcDbIdBuffer
  0
IDBUFFER
  5
1ABE
330
0
100
AcDbIdBuffer
  0
IDBUFFER
  5
1ABF
330
0
100
AcDbIdBuffer
  0
IDBUFFER
  5
1AC0
330
0
100
AcDbIdBuffer
  0
IDBUFFER
  5
1AC1
330
0
100
AcDbIdBuffer
  0
IDBUFFER
  5
1AC2
330
0
100
AcDbIdBuffer
  0
IDBUFFER
  5
1AC3
330
0
100
AcDbIdBuffer
  0
IDBUFFER
  5
1AC4
330
0
100
AcDbIdBuffer
330
328
330
329
330
32B
330
32C
330
330
330
337
330
338
330
339
330
33A
330
33B
330
34F
330
354
330
355
330
35A
330
1A17
330
1E8D
  0
IDBUFFER
  5
1AC5
330
0
100
AcDbIdBuffer
  0
IDBUFFER
  5
1AC6
330
0
100
AcDbIdBuffer
  0
IDBUFFER
  5
1AC7
330
0
100
AcDbIdBuffer
330
1B30
  0
IDBUFFER
  5
1AC8
330
0
100
AcDbIdBuffer
330
301
330
302
330
306
330
321
330
322
330
323
330
324
330
33F
330
342
330
34A
330
34B
330
353
330
1E8E
330
1E8F
  0
IDBUFFER
  5
1AC9
330
0
100
AcDbIdBuffer
  0
IDBUFFER
  5
1ACA
330
0
100
AcDbIdBuffer
  0
IDBUFFER
  5
1ACB
330
0
100
AcDbIdBuffer
  0
IDBUFFER
  5
1ACC
330
0
100
AcDbIdBuffer
  0
IDBUFFER
  5
1ACD
330
0
100
AcDbIdBuffer
  0
IDBUFFER
  5
1ACE
330
0
100
AcDbIdBuffer
  0
IDBUFFER
  5
1ACF
330
0
100
AcDbIdBuffer
  0
IDBUFFER
  5
1AD0
330
0
100
AcDbIdBuffer
  0
IDBUFFER
  5
1AD1
330
0
100
AcDbIdBuffer
  0
IDBUFFER
  5
1AD2
330
0
100
AcDbIdBuffer
  0
IDBUFFER
  5
1AD3
330
0
100
AcDbIdBuffer
  0
IDBUFFER
  5
1AD4
330
0
100
AcDbIdBuffer
  0
IDBUFFER
  5
1AD5
330
0
100
AcDbIdBuffer
  0
IDBUFFER
  5
1AD6
330
0
100
AcDbIdBuffer
  0
IDBUFFER
  5
1AD7
330
0
100
AcDbIdBuffer
330
112F
  0
IDBUFFER
  5
1AD8
330
0
100
AcDbIdBuffer
  0
IDBUFFER
  5
1AD9
330
0
100
AcDbIdBuffer
  0
IDBUFFER
  5
1ADA
330
0
100
AcDbIdBuffer
  0
IDBUFFER
  5
1ADB
330
0
100
AcDbIdBuffer
  0
ENDSEC
  0
EOF
