  0
SECTION
  2
HEADER
  9
$ACADVER
  1
AC1021
  9
$ACADMAINTVER
 70
    50
  9
$DWGCODEPAGE
  3
ANSI_1252
  9
$AUTHOR
  1
zsm
  9
$CUSTOMPROPERTYTAG
  1
Manager
  9
$CUSTOMPROPERTY
  1

  9
$CUSTOMPROPERTYTAG
  1
Firma
  9
$CUSTOMPROPERTY
  1

  9
$CUSTOMPROPERTYTAG
  1
Kategorie
  9
$CUSTOMPROPERTY
  1

  9
$CUSTOMPROPERTYTAG
  1
Bauteilnummer
  9
$CUSTOMPROPERTY
  1
33170
  9
$CUSTOMPROPERTYTAG
  1
Bezeichnung
  9
$CUSTOMPROPERTY
  1
Metallbaugarnitur kpl.
  9
$CUSTOMPROPERTYTAG
  1
Projekt
  9
$CUSTOMPROPERTY
  1

  9
$CUSTOMPROPERTYTAG
  1
Konstrukteur
  9
$CUSTOMPROPERTY
  1
zsm
  9
$CUSTOMPROPERTYTAG
  1
Ingenieur
  9
$CUSTOMPROPERTY
  1

  9
$CUSTOMPROPERTYTAG
  1
Bevollmächtigter
  9
$CUSTOMPROPERTY
  1

  9
$CUSTOMPROPERTYTAG
  1
Kostenstelle
  9
$CUSTOMPROPERTY
  1

  9
$CUSTOMPROPERTYTAG
  1
Zulieferer
  9
$CUSTOMPROPERTY
  1

  9
$CUSTOMPROPERTYTAG
  1
Benutzerstatus
  9
$CUSTOMPROPERTY
  1

  9
$CUSTOMPROPERTYTAG
  1
Konstruktionsstatus
  9
$CUSTOMPROPERTY
  1
InBearbeitung
  9
$CUSTOMPROPERTYTAG
  1
Kontrolliert von
  9
$CUSTOMPROPERTY
  1

  9
$CUSTOMPROPERTYTAG
  1
Konstruktion genehmigt von
  9
$CUSTOMPROPERTY
  1

  9
$CUSTOMPROPERTYTAG
  1
Fertigung genehmigt von
  9
$CUSTOMPROPERTY
  1

  9
$CUSTOMPROPERTYTAG
  1
Aend_Beschreibung_1
  9
$CUSTOMPROPERTY
  1

  9
$CUSTOMPROPERTYTAG
  1
Aend_Beschreibung_2
  9
$CUSTOMPROPERTY
  1

  9
$CUSTOMPROPERTYTAG
  1
Aend_Beschreibung_3
  9
$CUSTOMPROPERTY
  1

  9
$CUSTOMPROPERTYTAG
  1
Aend_Beschreibung_4
  9
$CUSTOMPROPERTY
  1

  9
$CUSTOMPROPERTYTAG
  1
Aend_Beschreibung_5
  9
$CUSTOMPROPERTY
  1

  9
$CUSTOMPROPERTYTAG
  1
Aend_Beschreibung_6
  9
$CUSTOMPROPERTY
  1

  9
$CUSTOMPROPERTYTAG
  1
Aend_Beschreibung_7
  9
$CUSTOMPROPERTY
  1

  9
$CUSTOMPROPERTYTAG
  1
Aend_Beschreibung_8
  9
$CUSTOMPROPERTY
  1

  9
$CUSTOMPROPERTYTAG
  1
Aend_Index_1
  9
$CUSTOMPROPERTY
  1

  9
$CUSTOMPROPERTYTAG
  1
Aend_Index_2
  9
$CUSTOMPROPERTY
  1

  9
$CUSTOMPROPERTYTAG
  1
Aend_Index_3
  9
$CUSTOMPROPERTY
  1

  9
$CUSTOMPROPERTYTAG
  1
Aend_Index_4
  9
$CUSTOMPROPERTY
  1

  9
$CUSTOMPROPERTYTAG
  1
Aend_Index_5
  9
$CUSTOMPROPERTY
  1

  9
$CUSTOMPROPERTYTAG
  1
Aend_Index_6
  9
$CUSTOMPROPERTY
  1

  9
$CUSTOMPROPERTYTAG
  1
Aend_Index_7
  9
$CUSTOMPROPERTY
  1

  9
$CUSTOMPROPERTYTAG
  1
Aend_Index_8
  9
$CUSTOMPROPERTY
  1

  9
$CUSTOMPROPERTYTAG
  1
Aend_Name_1
  9
$CUSTOMPROPERTY
  1

  9
$CUSTOMPROPERTYTAG
  1
Aend_Name_2
  9
$CUSTOMPROPERTY
  1

  9
$CUSTOMPROPERTYTAG
  1
Aend_Name_3
  9
$CUSTOMPROPERTY
  1

  9
$CUSTOMPROPERTYTAG
  1
Aend_Name_4
  9
$CUSTOMPROPERTY
  1

  9
$CUSTOMPROPERTYTAG
  1
Aend_Name_5
  9
$CUSTOMPROPERTY
  1

  9
$CUSTOMPROPERTYTAG
  1
Aend_Name_6
  9
$CUSTOMPROPERTY
  1

  9
$CUSTOMPROPERTYTAG
  1
Aend_Name_7
  9
$CUSTOMPROPERTY
  1

  9
$CUSTOMPROPERTYTAG
  1
Aend_Name_8
  9
$CUSTOMPROPERTY
  1

  9
$CUSTOMPROPERTYTAG
  1
Dimension
  9
$CUSTOMPROPERTY
  1

  9
$CUSTOMPROPERTYTAG
  1
Masse
  9
$CUSTOMPROPERTY
  1

  9
$CUSTOMPROPERTYTAG
  1
Material
  9
$CUSTOMPROPERTY
  1

  9
$CUSTOMPROPERTYTAG
  1
Menge
  9
$CUSTOMPROPERTY
  1

  9
$CUSTOMPROPERTYTAG
  1
Norm
  9
$CUSTOMPROPERTY
  1

  9
$CUSTOMPROPERTYTAG
  1
Position
  9
$CUSTOMPROPERTY
  1

  9
$CUSTOMPROPERTYTAG
  1
Ersatz_fuer
  9
$CUSTOMPROPERTY
  1

  9
$CUSTOMPROPERTYTAG
  1
Esetzt_durch
  9
$CUSTOMPROPERTY
  1

  9
$CUSTOMPROPERTYTAG
  1
Massstab
  9
$CUSTOMPROPERTY
  1
1 : 2
  9
$CUSTOMPROPERTYTAG
  1
SysDate
  9
$CUSTOMPROPERTY
  1
04.10.2013
  9
$CUSTOMPROPERTYTAG
  1
SysTime
  9
$CUSTOMPROPERTY
  1
12:16
  9
$INSBASE
 10
0.0
 20
0.0
 30
0.0
  9
$EXTMIN
 10
0.0
 20
0.0
 30
0.0
  9
$EXTMAX
 10
420.0
 20
594.0
 30
0.0
  9
$LIMMIN
 10
0.0
 20
0.0
  9
$LIMMAX
 10
420.0
 20
594.0
  9
$ORTHOMODE
 70
     0
  9
$REGENMODE
 70
     1
  9
$FILLMODE
 70
     1
  9
$QTEXTMODE
 70
     0
  9
$MIRRTEXT
 70
     0
  9
$LTSCALE
 40
2.0
  9
$ATTMODE
 70
     1
  9
$TEXTSIZE
 40
0.2
  9
$TRACEWID
 40
0.05
  9
$TEXTSTYLE
  7
Standard
  9
$CLAYER
  8
0
  9
$CELTYPE
  6
ByLayer
  9
$CECOLOR
 62
   256
  9
$CELTSCALE
 40
1.0
  9
$DISPSILH
 70
     0
  9
$DIMSCALE
 40
1.0
  9
$DIMASZ
 40
1.799999999999999
  9
$DIMEXO
 40
0.0625
  9
$DIMDLI
 40
0.38
  9
$DIMRND
 40
0.0
  9
$DIMDLE
 40
0.0
  9
$DIMEXE
 40
0.18
  9
$DIMTP
 40
0.0
  9
$DIMTM
 40
0.0
  9
$DIMTXT
 40
0.3499999940395355
  9
$DIMCEN
 40
0.09
  9
$DIMTSZ
 40
0.0
  9
$DIMTOL
 70
     0
  9
$DIMLIM
 70
     0
  9
$DIMTIH
 70
     1
  9
$DIMTOH
 70
     1
  9
$DIMSE1
 70
     0
  9
$DIMSE2
 70
     0
  9
$DIMTAD
 70
     0
  9
$DIMZIN
 70
     0
  9
$DIMBLK
  1

  9
$DIMASO
 70
     1
  9
$DIMSHO
 70
     1
  9
$DIMPOST
  1

  9
$DIMAPOST
  1

  9
$DIMALT
 70
     0
  9
$DIMALTD
 70
     2
  9
$DIMALTF
 40
25.4
  9
$DIMLFAC
 40
1.0
  9
$DIMTOFL
 70
     0
  9
$DIMTVP
 40
0.0
  9
$DIMTIX
 70
     0
  9
$DIMSOXD
 70
     0
  9
$DIMSAH
 70
     0
  9
$DIMBLK1
  1

  9
$DIMBLK2
  1

  9
$DIMSTYLE
  2
Standard
  9
$DIMCLRD
 70
     0
  9
$DIMCLRE
 70
     0
  9
$DIMCLRT
 70
     0
  9
$DIMTFAC
 40
1.0
  9
$DIMGAP
 40
0.09
  9
$DIMJUST
 70
     0
  9
$DIMSD1
 70
     0
  9
$DIMSD2
 70
     0
  9
$DIMTOLJ
 70
     1
  9
$DIMTZIN
 70
     0
  9
$DIMALTZ
 70
     0
  9
$DIMALTTZ
 70
     0
  9
$DIMUPT
 70
     0
  9
$DIMDEC
 70
     4
  9
$DIMTDEC
 70
     4
  9
$DIMALTU
 70
     2
  9
$DIMALTTD
 70
     2
  9
$DIMTXSTY
  7
Standard
  9
$DIMAUNIT
 70
     0
  9
$DIMADEC
 70
     0
  9
$DIMALTRND
 40
0.0
  9
$DIMAZIN
 70
     0
  9
$DIMDSEP
 70
    46
  9
$DIMATFIT
 70
     3
  9
$DIMFRAC
 70
     0
  9
$DIMLDRBLK
  1

  9
$DIMLUNIT
 70
     2
  9
$DIMLWD
 70
    -2
  9
$DIMLWE
 70
    -2
  9
$DIMTMOVE
 70
     0
  9
$DIMFXL
 40
1.0
  9
$DIMFXLON
 70
     0
  9
$DIMJOGANG
 40
0.7853981633974483
  9
$DIMTFILL
 70
     0
  9
$DIMTFILLCLR
 70
     0
  9
$DIMARCSYM
 70
     0
  9
$DIMLTYPE
  6

  9
$DIMLTEX1
  6

  9
$DIMLTEX2
  6

  9
$LUNITS
 70
     2
  9
$LUPREC
 70
     4
  9
$SKETCHINC
 40
0.1
  9
$FILLETRAD
 40
0.0
  9
$AUNITS
 70
     0
  9
$AUPREC
 70
     0
  9
$MENU
  1
.
  9
$ELEVATION
 40
0.0
  9
$PELEVATION
 40
0.0
  9
$THICKNESS
 40
0.0
  9
$LIMCHECK
 70
     0
  9
$CHAMFERA
 40
0.0
  9
$CHAMFERB
 40
0.0
  9
$CHAMFERC
 40
0.0
  9
$CHAMFERD
 40
0.0
  9
$SKPOLY
 70
     0
  9
$TDCREATE
 40
2456570.382717419
  9
$TDUCREATE
 40
2456570.299384086
  9
$TDUPDATE
 40
2456570.382717419
  9
$TDUUPDATE
 40
2456570.299384086
  9
$TDINDWG
 40
0.0000619213
  9
$TDUSRTIMER
 40
0.0000618750
  9
$USRTIMER
 70
     1
  9
$ANGBASE
 50
0.0
  9
$ANGDIR
 70
     0
  9
$PDMODE
 70
     0
  9
$PDSIZE
 40
0.0
  9
$PLINEWID
 40
0.0
  9
$SPLFRAME
 70
     0
  9
$SPLINETYPE
 70
     6
  9
$SPLINESEGS
 70
     8
  9
$HANDSEED
  5
CEA
  9
$SURFTAB1
 70
     6
  9
$SURFTAB2
 70
     6
  9
$SURFTYPE
 70
     6
  9
$SURFU
 70
     6
  9
$SURFV
 70
     6
  9
$UCSBASE
  2

  9
$UCSNAME
  2

  9
$UCSORG
 10
0.0
 20
0.0
 30
0.0
  9
$UCSXDIR
 10
1.0
 20
0.0
 30
0.0
  9
$UCSYDIR
 10
0.0
 20
1.0
 30
0.0
  9
$UCSORTHOREF
  2

  9
$UCSORTHOVIEW
 70
     0
  9
$UCSORGTOP
 10
0.0
 20
0.0
 30
0.0
  9
$UCSORGBOTTOM
 10
0.0
 20
0.0
 30
0.0
  9
$UCSORGLEFT
 10
0.0
 20
0.0
 30
0.0
  9
$UCSORGRIGHT
 10
0.0
 20
0.0
 30
0.0
  9
$UCSORGFRONT
 10
0.0
 20
0.0
 30
0.0
  9
$UCSORGBACK
 10
0.0
 20
0.0
 30
0.0
  9
$PUCSBASE
  2

  9
$PUCSNAME
  2

  9
$PUCSORG
 10
0.0
 20
0.0
 30
0.0
  9
$PUCSXDIR
 10
1.0
 20
0.0
 30
0.0
  9
$PUCSYDIR
 10
0.0
 20
1.0
 30
0.0
  9
$PUCSORTHOREF
  2

  9
$PUCSORTHOVIEW
 70
     0
  9
$PUCSORGTOP
 10
0.0
 20
0.0
 30
0.0
  9
$PUCSORGBOTTOM
 10
0.0
 20
0.0
 30
0.0
  9
$PUCSORGLEFT
 10
0.0
 20
0.0
 30
0.0
  9
$PUCSORGRIGHT
 10
0.0
 20
0.0
 30
0.0
  9
$PUCSORGFRONT
 10
0.0
 20
0.0
 30
0.0
  9
$PUCSORGBACK
 10
0.0
 20
0.0
 30
0.0
  9
$USERI1
 70
     0
  9
$USERI2
 70
     0
  9
$USERI3
 70
     0
  9
$USERI4
 70
     0
  9
$USERI5
 70
     0
  9
$USERR1
 40
0.0
  9
$USERR2
 40
0.0
  9
$USERR3
 40
0.0
  9
$USERR4
 40
0.0
  9
$USERR5
 40
0.0
  9
$WORLDVIEW
 70
     1
  9
$SHADEDGE
 70
     3
  9
$SHADEDIF
 70
    70
  9
$TILEMODE
 70
     1
  9
$MAXACTVP
 70
    64
  9
$PINSBASE
 10
0.0
 20
0.0
 30
0.0
  9
$PLIMCHECK
 70
     0
  9
$PEXTMIN
 10
0.0
 20
0.0
 30
0.0
  9
$PEXTMAX
 10
420.0
 20
594.0
 30
0.0
  9
$PLIMMIN
 10
0.0
 20
0.0
  9
$PLIMMAX
 10
420.0
 20
594.0
  9
$UNITMODE
 70
     0
  9
$VISRETAIN
 70
     1
  9
$PLINEGEN
 70
     0
  9
$PSLTSCALE
 70
     1
  9
$TREEDEPTH
 70
  3020
  9
$CMLSTYLE
  2
Standard
  9
$CMLJUST
 70
     0
  9
$CMLSCALE
 40
1.0
  9
$PROXYGRAPHICS
 70
     1
  9
$MEASUREMENT
 70
     1
  9
$CELWEIGHT
370
    -1
  9
$ENDCAPS
280
     0
  9
$JOINSTYLE
280
     0
  9
$LWDISPLAY
290
     0
  9
$INSUNITS
 70
     4
  9
$HYPERLINKBASE
  1

  9
$STYLESHEET
  1

  9
$XEDIT
290
     1
  9
$CEPSNTYPE
380
     0
  9
$PSTYLEMODE
290
     1
  9
$FINGERPRINTGUID
  2
{306992AD-3244-442B-846C-036607F084A4}
  9
$VERSIONGUID
  2
{057C3E40-425C-4F52-A540-D500C77D028A}
  9
$EXTNAMES
290
     1
  9
$PSVPSCALE
 40
0.0
  9
$OLESTARTUP
290
     0
  9
$SORTENTS
280
   127
  9
$INDEXCTL
280
     0
  9
$HIDETEXT
280
     1
  9
$XCLIPFRAME
290
     0
  9
$HALOGAP
280
     0
  9
$OBSCOLOR
 70
   257
  9
$OBSLTYPE
280
     0
  9
$INTERSECTIONDISPLAY
280
     0
  9
$INTERSECTIONCOLOR
 70
   257
  9
$DIMASSOC
280
     1
  9
$PROJECTNAME
  1

  9
$CAMERADISPLAY
290
     0
  9
$LENSLENGTH
 40
50.0
  9
$CAMERAHEIGHT
 40
0.0
  9
$STEPSPERSEC
 40
2.0
  9
$STEPSIZE
 40
6.0
  9
$3DDWFPREC
 40
2.0
  9
$PSOLWIDTH
 40
0.25
  9
$PSOLHEIGHT
 40
4.0
  9
$LOFTANG1
 40
1.570796326794896
  9
$LOFTANG2
 40
1.570796326794896
  9
$LOFTMAG1
 40
0.0
  9
$LOFTMAG2
 40
0.0
  9
$LOFTPARAM
 70
     7
  9
$LOFTNORMALS
280
     1
  9
$LATITUDE
 40
37.795
  9
$LONGITUDE
 40
-122.394
  9
$NORTHDIRECTION
 40
0.0
  9
$TIMEZONE
 70
 -8000
  9
$LIGHTGLYPHDISPLAY
280
     1
  9
$TILEMODELIGHTSYNCH
280
     1
  9
$CMATERIAL
347
11
  9
$SOLIDHIST
280
     0
  9
$SHOWHIST
280
     1
  9
$DWFFRAME
280
     2
  9
$DGNFRAME
280
     0
  9
$REALWORLDSCALE
290
     1
  9
$INTERFERECOLOR
 62
     1
  9
$INTERFEREOBJVS
345
33
  9
$INTERFEREVPVS
346
30
  9
$CSHADOW
280
     0
  9
$SHADOWPLANELOCATION
 40
0.0
  0
ENDSEC
  0
SECTION
  2
CLASSES
  0
CLASS
  1
ACDBDICTIONARYWDFLT
  2
AcDbDictionaryWithDefault
  3
ObjectDBX Classes
 90
        0
 91
        1
280
     0
281
     0
  0
CLASS
  1
MATERIAL
  2
AcDbMaterial
  3
ObjectDBX Classes
 90
     1153
 91
        3
280
     0
281
     0
  0
CLASS
  1
VISUALSTYLE
  2
AcDbVisualStyle
  3
ObjectDBX Classes
 90
     4095
 91
       24
280
     0
281
     0
  0
CLASS
  1
SCALE
  2
AcDbScale
  3
ObjectDBX Classes
 90
     1153
 91
       17
280
     0
281
     0
  0
CLASS
  1
TABLESTYLE
  2
AcDbTableStyle
  3
ObjectDBX Classes
 90
     4095
 91
        1
280
     0
281
     0
  0
CLASS
  1
MLEADERSTYLE
  2
AcDbMLeaderStyle
  3
ACDB_MLEADERSTYLE_CLASS
 90
     4095
 91
        1
280
     0
281
     0
  0
CLASS
  1
DICTIONARYVAR
  2
AcDbDictionaryVar
  3
ObjectDBX Classes
 90
        0
 91
        5
280
     0
281
     0
  0
CLASS
  1
CELLSTYLEMAP
  2
AcDbCellStyleMap
  3
ObjectDBX Classes
 90
     1152
 91
        2
280
     0
281
     0
  0
ENDSEC
  0
SECTION
  2
TABLES
  0
TABLE
  2
VPORT
  5
8
330
0
100
AcDbSymbolTable
 70
     1
  0
VPORT
  5
57
330
8
100
AcDbSymbolTableRecord
100
AcDbViewportTableRecord
  2
*Active
 70
     0
 10
0.0
 20
0.0
 11
1.0
 21
1.0
 12
210.0
 22
297.0
 13
0.0
 23
0.0
 14
1.0
 24
1.0
 15
0.0
 25
0.0
 16
0.0
 26
0.0
 36
1.0
 17
0.0
 27
0.0
 37
0.0
 40
594.0
 41
0.7070707070707071
 42
50.0
 43
0.0
 44
0.0
 50
0.0
 51
0.0
 71
     0
 72
   100
 73
     1
 74
     1
 75
     0
 76
     0
 77
     0
 78
     0
281
     0
 65
     1
110
0.0
120
0.0
130
0.0
111
1.0
121
0.0
131
0.0
112
0.0
122
1.0
132
0.0
 79
     0
146
0.0
 60
     3
 61
     5
292
     1
282
     1
141
0.0
142
0.0
 63
   250
421
  3355443
  0
ENDTAB
  0
TABLE
  2
LTYPE
  5
5
330
0
100
AcDbSymbolTable
 70
     1
  0
LTYPE
  5
5B
330
5
100
AcDbSymbolTableRecord
100
AcDbLinetypeTableRecord
  2
ByBlock
 70
     0
  3

 72
    65
 73
     0
 40
0.0
  0
LTYPE
  5
5C
330
5
100
AcDbSymbolTableRecord
100
AcDbLinetypeTableRecord
  2
ByLayer
 70
     0
  3

 72
    65
 73
     0
 40
0.0
  0
LTYPE
  5
5D
330
5
100
AcDbSymbolTableRecord
100
AcDbLinetypeTableRecord
  2
Continuous
 70
     0
  3
Solid line
 72
    65
 73
     0
 40
0.0
  0
ENDTAB
  0
TABLE
  2
LAYER
  5
2
330
0
100
AcDbSymbolTable
 70
    15
  0
LAYER
  5
54
330
2
100
AcDbSymbolTableRecord
100
AcDbLayerTableRecord
  2
0
 70
     0
 62
     7
  6
Continuous
370
    -3
390
F
347
21
  0
LAYER
  5
76
330
2
100
AcDbSymbolTableRecord
100
AcDbLayerTableRecord
  2
AM_0
 70
     0
 62
     7
  6
Continuous
370
    50
390
F
347
21
  0
LAYER
  5
77
330
2
100
AcDbSymbolTableRecord
100
AcDbLayerTableRecord
  2
AM_5
 70
     0
 62
     3
420
    65280
  6
Continuous
370
    25
390
F
347
21
  0
LAYER
  5
7F
330
2
100
AcDbSymbolTableRecord
100
AcDbLayerTableRecord
  2
Bemaßungen(DIN)
 70
     0
 62
     7
  6
Continuous
370
    25
390
F
347
21
  0
LAYER
  5
8D
330
2
100
AcDbSymbolTableRecord
100
AcDbLayerTableRecord
  2
Mittellinie(DIN)
 70
     0
 62
     7
  6
Continuous
370
    25
390
F
347
21
  0
LAYER
  5
8F
330
2
100
AcDbSymbolTableRecord
100
AcDbLayerTableRecord
  2
Mittelpunktmarkierung(DIN)
 70
     0
 62
     7
  6
Continuous
370
    25
390
F
347
21
  0
LAYER
  5
99
330
2
100
AcDbSymbolTableRecord
100
AcDbLayerTableRecord
  2
Schraffur
 70
     0
 62
     7
  6
Continuous
370
     9
390
F
347
21
  0
LAYER
  5
9A
330
2
100
AcDbSymbolTableRecord
100
AcDbLayerTableRecord
  2
Schraffur (ISO)
 70
     0
 62
     7
  6
Continuous
370
    18
390
F
347
21
  0
LAYER
  5
9D
330
2
100
AcDbSymbolTableRecord
100
AcDbLayerTableRecord
  2
Sichtbare Kanten(DIN)
 70
     0
 62
     7
  6
Continuous
370
    50
390
F
347
21
  0
LAYER
  5
9E
330
2
100
AcDbSymbolTableRecord
100
AcDbLayerTableRecord
  2
Sichtbare tangentiale Kanten(DIN)
 70
     0
 62
     7
  6
Continuous
370
    50
390
F
347
21
  0
LAYER
  5
A0
330
2
100
AcDbSymbolTableRecord
100
AcDbLayerTableRecord
  2
Skizziergeometrie(DIN)
 70
     0
 62
     7
  6
Continuous
370
    50
390
F
347
21
  0
LAYER
  5
A5
330
2
100
AcDbSymbolTableRecord
100
AcDbLayerTableRecord
  2
Symbole(DIN)
 70
     0
 62
     7
  6
Continuous
370
    25
390
F
347
21
  0
LAYER
  5
A8
330
2
100
AcDbSymbolTableRecord
100
AcDbLayerTableRecord
  2
Titel (ISO)
 70
     0
 62
     7
  6
Continuous
370
    50
390
F
347
21
  0
LAYER
  5
AD
330
2
100
AcDbSymbolTableRecord
100
AcDbLayerTableRecord
  2
Verdeckte Kanten(DIN)
 70
     0
 62
     7
  6
Continuous
370
    35
390
F
347
21
  0
LAYER
  5
26A
330
2
100
AcDbSymbolTableRecord
100
AcDbLayerTableRecord
  2
Defpoints
 70
     0
 62
     7
  6
Continuous
290
     0
370
    -3
390
F
347
21
  0
ENDTAB
  0
TABLE
  2
STYLE
  5
3
330
0
100
AcDbSymbolTable
 70
    16
  0
STYLE
  5
55
330
3
100
AcDbSymbolTableRecord
100
AcDbTextStyleTableRecord
  2
Standard
 70
     0
 40
0.0
 41
1.0
 50
0.0
 71
     0
 42
0.2
  3
ISOCP.shx
  4

  0
STYLE
  5
5A
330
3
100
AcDbSymbolTableRecord
100
AcDbTextStyleTableRecord
  2
Annotative
 70
     0
 40
0.0
 41
1.0
 50
0.0
 71
     0
 42
0.2
  3
txt
  4

1001
AcadAnnotative
1000
AnnotativeData
1002
{
1070
     1
1070
     1
1002
}
  0
STYLE
  5
AF
330
3
100
AcDbSymbolTableRecord
100
AcDbTextStyleTableRecord
  2
_Schriftfeld_2.5mm
 70
     0
 40
0.0
 41
1.0
 50
0.0
 71
     0
 42
0.2
  3
arial.ttf
  4

1001
ACAD
1000
Arial
1071
      256
  0
STYLE
  5
B0
330
3
100
AcDbSymbolTableRecord
100
AcDbTextStyleTableRecord
  2
_Schriftfeld_2mm
 70
     0
 40
0.0
 41
1.0
 50
0.0
 71
     0
 42
0.2
  3
arial.ttf
  4

1001
ACAD
1000
Arial
1071
      256
  0
STYLE
  5
B1
330
3
100
AcDbSymbolTableRecord
100
AcDbTextStyleTableRecord
  2
_Schriftfeld_3.5mm
 70
     0
 40
0.0
 41
1.0
 50
0.0
 71
     0
 42
0.2
  3
arial.ttf
  4

1001
ACAD
1000
Arial
1071
      256
  0
STYLE
  5
B2
330
3
100
AcDbSymbolTableRecord
100
AcDbTextStyleTableRecord
  2
_Schriftfeld_5mm
 70
     0
 40
0.0
 41
1.0
 50
0.0
 71
     0
 42
0.2
  3
arial.ttf
  4

1001
ACAD
1000
Arial
1071
      256
  0
STYLE
  5
B3
330
3
100
AcDbSymbolTableRecord
100
AcDbTextStyleTableRecord
  2
Aktuell-DIN
 70
     0
 40
0.0
 41
1.0
 50
0.0
 71
     0
 42
0.2
  3
arial.ttf
  4

1001
ACAD
1000
Arial
1071
      256
  0
STYLE
  5
B4
330
3
100
AcDbSymbolTableRecord
100
AcDbTextStyleTableRecord
  2
Bezeichnungstext (DIN)
 70
     0
 40
0.0
 41
1.0
 50
0.0
 71
     0
 42
0.2
  3
isocpeur.ttf
  4

1001
ACAD
1000
ISOCPEUR
1071
      256
  0
STYLE
  5
B5
330
3
100
AcDbSymbolTableRecord
100
AcDbTextStyleTableRecord
  2
Bezeichnungstext (ISO)
 70
     0
 40
0.0
 41
1.0
 50
0.0
 71
     0
 42
0.2
  3
tahoma.ttf
  4

1001
ACAD
1000
Tahoma
1071
      256
  0
STYLE
  5
B6
330
3
100
AcDbSymbolTableRecord
100
AcDbTextStyleTableRecord
  2
Notiztext (DIN)
 70
     0
 40
0.0
 41
1.0
 50
0.0
 71
     0
 42
0.2
  3
isocpeur.ttf
  4

1001
ACAD
1000
ISOCPEUR
1071
      256
  0
STYLE
  5
B7
330
3
100
AcDbSymbolTableRecord
100
AcDbTextStyleTableRecord
  2
Notiztext (ISO)
 70
     0
 40
0.0
 41
1.0
 50
0.0
 71
     0
 42
0.2
  3
tahoma.ttf
  4

1001
ACAD
1000
Tahoma
1071
      256
  0
STYLE
  5
B8
330
3
100
AcDbSymbolTableRecord
100
AcDbTextStyleTableRecord
  2
STANDARD-DIN
 70
     0
 40
0.0
 41
1.0
 50
0.0
 71
     0
 42
0.2
  3
arial.ttf
  4

1001
ACAD
1000
Arial
1071
      256
  0
STYLE
  5
B9
330
3
100
AcDbSymbolTableRecord
100
AcDbTextStyleTableRecord
  2
STANDARD-DIN~0
 70
     0
 40
0.0
 41
1.0
 50
0.0
 71
     0
 42
0.2
  3
arial.ttf
  4

1001
ACAD
1000
Arial
1071
      256
  0
STYLE
  5
BA
330
3
100
AcDbSymbolTableRecord
100
AcDbTextStyleTableRecord
  2
STANDARD-DINGroßer Text
 70
     0
 40
0.0
 41
1.0
 50
0.0
 71
     0
 42
0.2
  3
arial.ttf
  4

1001
ACAD
1000
Arial
1071
      256
  0
STYLE
  5
BB
330
3
100
AcDbSymbolTableRecord
100
AcDbTextStyleTableRecord
  2
STANDARD-DINNach Layer
 70
     0
 40
0.0
 41
1.0
 50
0.0
 71
     0
 42
0.2
  3
arial.ttf
  4

1001
ACAD
1000
Arial
1071
      256
  0
STYLE
  5
192
330
3
100
AcDbSymbolTableRecord
100
AcDbTextStyleTableRecord
  2
Textstil122
 70
     0
 40
0.0
 41
0.899999976158142
 50
0.0
 71
     0
 42
0.2
  3
ISOCP.shx
  4

  0
ENDTAB
  0
TABLE
  2
VIEW
  5
6
330
0
100
AcDbSymbolTable
 70
     0
  0
ENDTAB
  0
TABLE
  2
UCS
  5
7
330
0
100
AcDbSymbolTable
 70
     0
  0
ENDTAB
  0
TABLE
  2
APPID
  5
9
330
0
100
AcDbSymbolTable
 70
     4
  0
APPID
  5
56
330
9
100
AcDbSymbolTableRecord
100
AcDbRegAppTableRecord
  2
ACAD
 70
     0
  0
APPID
  5
5E
330
9
100
AcDbSymbolTableRecord
100
AcDbRegAppTableRecord
  2
AcadAnnotative
 70
     0
  0
APPID
  5
195
330
9
100
AcDbSymbolTableRecord
100
AcDbRegAppTableRecord
  2
AcadAnnoPO
 70
     0
  0
APPID
  5
CA7
330
9
100
AcDbSymbolTableRecord
100
AcDbRegAppTableRecord
  2
ACAD_MLEADERVER
 70
     0
  0
ENDTAB
  0
TABLE
  2
DIMSTYLE
  5
A
330
0
100
AcDbSymbolTable
 70
    22
100
AcDbDimStyleTable
 71
     2
340
BC
340
58
  0
DIMSTYLE
105
58
330
A
100
AcDbSymbolTableRecord
100
AcDbDimStyleTableRecord
  2
Standard
 70
     0
340
55
  0
DIMSTYLE
105
59
330
A
100
AcDbSymbolTableRecord
100
AcDbDimStyleTableRecord
  2
Annotative
 70
     0
340
55
1001
AcadAnnotative
1000
AnnotativeData
1002
{
1070
     1
1070
     1
1002
}
  0
DIMSTYLE
105
BC
102
{ACAD_REACTORS
330
269
330
34C
330
42E
330
510
330
5FB
330
6E7
330
7C9
330
8B5
330
9AB
330
A96
330
B78
102
}
330
A
100
AcDbSymbolTableRecord
100
AcDbDimStyleTableRecord
  2
STANDARD-DIN - Methode 2b
 70
     0
 40
2.0
 41
2.5
 42
0.0
 43
12.0
 44
3.174999999999998
 45
0.00000001
 46
12.0
 73
     0
 74
     0
 77
     1
 78
     8
 79
     2
140
3.5
143
0.03937
146
0.7142857313156128
147
0.8
171
     3
172
     1
176
   250
177
   250
178
   250
271
     2
272
     2
274
     3
284
     8
285
     8
340
B9
371
    25
372
    25
  0
DIMSTYLE
105
BD
330
A
100
AcDbSymbolTableRecord
100
AcDbDimStyleTableRecord
  2
STANDARD-DIN - Methode 2b$7
 70
     0
 40
2.0
 41
2.5
 42
0.0
 43
12.0
 44
3.174999999999998
 45
0.00000001
 46
12.0
 73
     0
 74
     0
 77
     1
 78
     8
 79
     2
140
3.5
143
0.03937
146
0.7142857313156128
147
0.8
171
     3
172
     1
176
   179
177
   250
178
   250
271
     2
272
     2
274
     3
284
     8
285
     8
340
B9
371
    25
372
    25
  0
DIMSTYLE
105
BE
330
A
100
AcDbSymbolTableRecord
100
AcDbDimStyleTableRecord
  2
Standard - Methode 1b (ISO)
 70
     0
 40
2.0
 41
2.5
 42
0.0
 43
5.999999999999999
 44
3.174999999999998
 45
0.00000001
 46
10.0
 73
     0
 77
     1
 78
     8
 79
     2
140
3.5
143
0.03937
147
0.762
171
     3
172
     1
176
   256
177
   256
178
   256
179
     2
271
     2
272
     2
274
     3
278
    44
284
     8
286
     8
340
B7
371
    -1
372
    -1
  0
DIMSTYLE
105
BF
330
A
100
AcDbSymbolTableRecord
100
AcDbDimStyleTableRecord
  2
Standard - Methode 1b (ISO)$7
 70
     0
 40
2.0
 41
2.5
 42
0.0
 43
5.999999999999999
 44
3.174999999999998
 45
0.00000001
 46
10.0
 73
     0
 77
     1
 78
     8
 79
     2
140
3.5
143
0.03937
147
0.762
171
     3
172
     1
176
   256
177
   256
178
   256
179
     2
271
     2
272
     2
274
     3
278
    44
284
     8
286
     8
340
B7
371
    -1
372
    -1
  0
DIMSTYLE
105
C0
330
A
100
AcDbSymbolTableRecord
100
AcDbDimStyleTableRecord
  2
Standard - Methode 2a (DIN)
 70
     0
 40
2.0
 41
2.5
 42
0.8
 43
5.999999999999999
 44
3.174999999999998
 45
0.00000001
 46
10.0
 77
     1
 78
     8
 79
     2
140
3.5
143
0.03937
147
0.8
170
     1
171
     3
172
     1
176
   256
177
   256
178
   256
179
     2
271
     2
272
     2
274
     3
278
    44
284
     8
286
     8
340
B6
371
    -1
372
    -1
  0
DIMSTYLE
105
C1
330
A
100
AcDbSymbolTableRecord
100
AcDbDimStyleTableRecord
  2
Standard - Methode 2a (DIN)$7
 70
     0
 40
2.0
 41
2.5
 42
0.8
 43
5.999999999999999
 44
3.174999999999998
 45
0.00000001
 46
10.0
 77
     1
 78
     8
 79
     2
140
3.5
143
0.03937
147
0.8
170
     1
171
     3
172
     1
176
   256
177
   256
178
   256
179
     2
271
     2
272
     2
274
     3
278
    44
284
     8
286
     8
340
B6
371
    -1
372
    -1
  0
DIMSTYLE
105
C2
330
A
100
AcDbSymbolTableRecord
100
AcDbDimStyleTableRecord
  2
Standard - Methode 2b (DIN)
 70
     0
 40
2.0
 41
2.5
 42
0.0
 43
5.999999999999999
 44
3.174999999999998
 45
0.00000001
 46
10.0
 77
     1
 78
     8
 79
     2
140
3.5
143
0.03937
147
0.8
171
     3
172
     1
176
   256
177
   256
178
   256
271
     2
272
     2
274
     3
278
    44
284
     8
286
     8
340
B6
371
    -1
372
    -1
  0
DIMSTYLE
105
C3
330
A
100
AcDbSymbolTableRecord
100
AcDbDimStyleTableRecord
  2
Standard - Methode 2b (DIN)$7
 70
     0
 40
2.0
 41
2.5
 42
0.0
 43
5.999999999999999
 44
3.174999999999998
 45
0.00000001
 46
10.0
 77
     1
 78
     8
 79
     2
140
3.5
143
0.03937
147
0.8
171
     3
172
     1
176
   256
177
   256
178
   256
271
     2
272
     2
274
     3
278
    44
284
     8
286
     8
340
B6
371
    -1
372
    -1
  0
DIMSTYLE
105
C4
330
A
100
AcDbSymbolTableRecord
100
AcDbDimStyleTableRecord
  2
Standard (DIN)
 70
     0
 40
2.0
 41
2.5
 42
0.8
 43
5.999999999999999
 44
3.174999999999998
 45
0.00000001
 46
10.0
 73
     0
 74
     0
 77
     1
 78
     8
 79
     2
140
3.5
143
0.03937
147
0.8
171
     3
172
     1
176
   256
177
   256
178
   256
271
     2
272
     2
274
     3
278
    44
284
     8
340
B6
371
    -1
372
    -1
  0
DIMSTYLE
105
C5
330
A
100
AcDbSymbolTableRecord
100
AcDbDimStyleTableRecord
  2
Standard (DIN)$7
 70
     0
 40
2.0
 41
2.5
 42
0.8
 43
5.999999999999999
 44
3.174999999999998
 45
0.00000001
 46
10.0
 73
     0
 74
     0
 77
     1
 78
     8
 79
     2
140
3.5
143
0.03937
147
0.8
171
     3
172
     1
176
   256
177
   256
178
   256
271
     2
272
     2
274
     3
278
    44
284
     8
340
B6
371
    -1
372
    -1
  0
DIMSTYLE
105
C6
330
A
100
AcDbSymbolTableRecord
100
AcDbDimStyleTableRecord
  2
Standard (ISO)
 70
     0
 40
2.0
 41
2.5
 42
0.0
 43
5.999999999999999
 44
3.174999999999998
 45
0.00000001
 46
10.0
 73
     0
 74
     0
 77
     1
140
3.5
143
0.03937
146
1.00148570537567
147
0.762
171
     3
172
     1
176
   256
177
   256
178
   256
179
     2
271
     2
272
     2
274
     3
278
    44
340
B7
371
    -1
372
    -1
  0
DIMSTYLE
105
C7
330
A
100
AcDbSymbolTableRecord
100
AcDbDimStyleTableRecord
  2
Standard (ISO)$7
 70
     0
 40
2.0
 41
2.5
 42
0.0
 43
5.999999999999999
 44
3.174999999999998
 45
0.00000001
 46
10.0
 73
     0
 74
     0
 77
     1
140
3.5
143
0.03937
146
1.00148570537567
147
0.762
171
     3
172
     1
176
   256
177
   256
178
   256
179
     2
271
     2
272
     2
274
     3
278
    44
340
B7
371
    -1
372
    -1
  0
DIMSTYLE
105
C8
330
A
100
AcDbSymbolTableRecord
100
AcDbDimStyleTableRecord
  2
Alternativ (ISO)
 70
     0
 40
2.0
 41
2.5
340
55
342
C9
  0
DIMSTYLE
105
DB
330
A
100
AcDbSymbolTableRecord
100
AcDbDimStyleTableRecord
  2
Bezug (ISO)
 70
     0
 40
2.0
 41
2.5
340
55
342
C9
  0
DIMSTYLE
105
DC
330
A
100
AcDbSymbolTableRecord
100
AcDbDimStyleTableRecord
  2
Führungslinie-Ursprungsindikator(DIN)
 70
     0
 40
2.0
 41
2.5
340
55
342
C9
  0
DIMSTYLE
105
DD
330
A
100
AcDbSymbolTableRecord
100
AcDbDimStyleTableRecord
  2
Führungslinie - Bezugsstelle(DIN)
 70
     0
 40
2.0
 41
2.5
340
55
342
C9
  0
DIMSTYLE
105
DE
330
A
100
AcDbSymbolTableRecord
100
AcDbDimStyleTableRecord
  2
Führungslinie - groß(DIN)
 70
     0
 40
2.0
 41
5.0
340
55
342
C9
  0
DIMSTYLE
105
DF
330
A
100
AcDbSymbolTableRecord
100
AcDbDimStyleTableRecord
  2
Führungslinie - Punkt(DIN)
 70
     0
 40
2.0
 41
2.5
340
55
342
C9
  0
DIMSTYLE
105
E0
330
A
100
AcDbSymbolTableRecord
100
AcDbDimStyleTableRecord
  2
Führungslinie(DIN)
 70
     0
 40
2.0
 41
2.5
340
55
342
C9
  0
DIMSTYLE
105
EF
330
A
100
AcDbSymbolTableRecord
100
AcDbDimStyleTableRecord
  2
Groß (ISO)
 70
     0
 40
2.0
 41
5.0
340
55
342
C9
  0
ENDTAB
  0
TABLE
  2
BLOCK_RECORD
  5
1
330
0
100
AcDbSymbolTable
 70
    28
  0
BLOCK_RECORD
  5
6C
330
1
100
AcDbSymbolTableRecord
100
AcDbBlockTableRecord
  2
*Model_Space
340
6F
 70
     0
280
     1
281
     0
  0
BLOCK_RECORD
  5
68
330
1
100
AcDbSymbolTableRecord
100
AcDbBlockTableRecord
  2
*Paper_Space
340
6B
 70
     0
280
     1
281
     0
  0
BLOCK_RECORD
  5
70
330
1
100
AcDbSymbolTableRecord
100
AcDbBlockTableRecord
  2
*Paper_Space0
340
73
 70
     0
280
     1
281
     0
  0
BLOCK_RECORD
  5
C9
330
1
100
AcDbSymbolTableRecord
100
AcDbBlockTableRecord
  2
_Closed
340
0
 70
     0
280
     1
281
     0
  0
BLOCK_RECORD
  5
D0
330
1
100
AcDbSymbolTableRecord
100
AcDbBlockTableRecord
  2
DatumFilled45
340
0
 70
     0
280
     1
281
     0
  0
BLOCK_RECORD
  5
E1
330
1
100
AcDbSymbolTableRecord
100
AcDbBlockTableRecord
  2
Filled-1
340
0
 70
     0
280
     1
281
     0
  0
BLOCK_RECORD
  5
F0
330
1
100
AcDbSymbolTableRecord
100
AcDbBlockTableRecord
  2
Carbonitrieren
340
0
 70
     0
280
     1
281
     0
  0
BLOCK_RECORD
  5
F5
330
1
100
AcDbSymbolTableRecord
100
AcDbBlockTableRecord
  2
Federangaben
340
0
 70
     0
280
     1
281
     0
  0
BLOCK_RECORD
  5
F9
330
1
100
AcDbSymbolTableRecord
100
AcDbBlockTableRecord
  2
Nassschliff
340
0
 70
     0
280
     1
281
     0
  0
BLOCK_RECORD
  5
FD
330
1
100
AcDbSymbolTableRecord
100
AcDbBlockTableRecord
  2
Schleiffrichtung horizontal
340
0
 70
     0
280
     1
281
     0
  0
BLOCK_RECORD
  5
110
330
1
100
AcDbSymbolTableRecord
100
AcDbBlockTableRecord
  2
Schleiffrichtung vertikal
340
0
 70
     0
280
     1
281
     0
  0
BLOCK_RECORD
  5
123
330
1
100
AcDbSymbolTableRecord
100
AcDbBlockTableRecord
  2
Stanz-_Laserteil
340
0
 70
     0
280
     1
281
     0
  0
BLOCK_RECORD
  5
127
330
1
100
AcDbSymbolTableRecord
100
AcDbBlockTableRecord
  2
Stanzrundung_1
340
0
 70
     0
280
     1
281
     0
  0
BLOCK_RECORD
  5
12D
330
1
100
AcDbSymbolTableRecord
100
AcDbBlockTableRecord
  2
Stanzrundung_2
340
0
 70
     0
280
     1
281
     0
  0
BLOCK_RECORD
  5
133
330
1
100
AcDbSymbolTableRecord
100
AcDbBlockTableRecord
  2
Verzinkt
340
0
 70
     0
280
     1
281
     0
  0
BLOCK_RECORD
  5
137
330
1
100
AcDbSymbolTableRecord
100
AcDbBlockTableRecord
  2
Vierkant-Tabelle
340
0
 70
     0
280
     1
281
     0
  0
BLOCK_RECORD
  5
162
330
1
100
AcDbSymbolTableRecord
100
AcDbBlockTableRecord
  2
Laserpunkt_Text
340
0
 70
     0
280
     1
281
     0
  0
BLOCK_RECORD
  5
169
330
1
100
AcDbSymbolTableRecord
100
AcDbBlockTableRecord
  2
Laserpunkt
340
0
 70
     0
280
     1
281
     0
  0
BLOCK_RECORD
  5
16F
330
1
100
AcDbSymbolTableRecord
100
AcDbBlockTableRecord
  2
Kantenbruch
340
0
 70
     0
280
     1
281
     0
  0
BLOCK_RECORD
  5
26B
330
1
100
AcDbSymbolTableRecord
100
AcDbBlockTableRecord
  2
*D17
340
0
 70
     0
280
     1
281
     0
  0
BLOCK_RECORD
  5
34D
330
1
100
AcDbSymbolTableRecord
100
AcDbBlockTableRecord
  2
*D18
340
0
 70
     0
280
     1
281
     0
  0
BLOCK_RECORD
  5
42F
330
1
100
AcDbSymbolTableRecord
100
AcDbBlockTableRecord
  2
*D19
340
0
 70
     0
280
     1
281
     0
  0
BLOCK_RECORD
  5
511
330
1
100
AcDbSymbolTableRecord
100
AcDbBlockTableRecord
  2
*D20
340
0
 70
     0
280
     1
281
     0
  0
BLOCK_RECORD
  5
5FC
330
1
100
AcDbSymbolTableRecord
100
AcDbBlockTableRecord
  2
*D21
340
0
 70
     0
280
     1
281
     0
  0
BLOCK_RECORD
  5
6E8
330
1
100
AcDbSymbolTableRecord
100
AcDbBlockTableRecord
  2
*D22
340
0
 70
     0
280
     1
281
     0
  0
BLOCK_RECORD
  5
7CA
330
1
100
AcDbSymbolTableRecord
100
AcDbBlockTableRecord
  2
*D23
340
0
 70
     0
280
     1
281
     0
  0
BLOCK_RECORD
  5
8B6
330
1
100
AcDbSymbolTableRecord
100
AcDbBlockTableRecord
  2
*D24
340
0
 70
     0
280
     1
281
     0
  0
BLOCK_RECORD
  5
9AC
330
1
100
AcDbSymbolTableRecord
100
AcDbBlockTableRecord
  2
*D25
340
0
 70
     0
280
     1
281
     0
  0
BLOCK_RECORD
  5
A97
330
1
100
AcDbSymbolTableRecord
100
AcDbBlockTableRecord
  2
*D26
340
0
 70
     0
280
     1
281
     0
  0
BLOCK_RECORD
  5
B79
330
1
100
AcDbSymbolTableRecord
100
AcDbBlockTableRecord
  2
*D27
340
0
 70
     0
280
     1
281
     0
  0
ENDTAB
  0
ENDSEC
  0
SECTION
  2
BLOCKS
  0
BLOCK
  5
6D
330
6C
100
AcDbEntity
  8
0
100
AcDbBlockBegin
  2
*Model_Space
 70
     0
 10
0.0
 20
0.0
 30
0.0
  3
*Model_Space
  1

  0
ENDBLK
  5
6E
330
6C
100
AcDbEntity
  8
0
100
AcDbBlockEnd
  0
BLOCK
  5
69
330
68
100
AcDbEntity
 67
     1
  8
0
100
AcDbBlockBegin
  2
*Paper_Space
 70
     0
 10
0.0
 20
0.0
 30
0.0
  3
*Paper_Space
  1

  0
ENDBLK
  5
6A
330
68
100
AcDbEntity
 67
     1
  8
0
100
AcDbBlockEnd
  0
BLOCK
  5
71
330
70
100
AcDbEntity
 67
     1
  8
0
100
AcDbBlockBegin
  2
*Paper_Space0
 70
     0
 10
0.0
 20
0.0
 30
0.0
  3
*Paper_Space0
  1

  0
ENDBLK
  5
72
330
70
100
AcDbEntity
 67
     1
  8
0
100
AcDbBlockEnd
  0
BLOCK
  5
CE
330
C9
100
AcDbEntity
  8
0
100
AcDbBlockBegin
  2
_Closed
 70
     0
 10
0.0
 20
0.0
 30
0.0
  3
_Closed
  1

  0
LINE
  5
CA
330
C9
100
AcDbEntity
  8
0
  6
ByBlock
 62
     0
370
    -2
100
AcDbLine
 10
-1.0
 20
0.1666666666666666
 30
0.0
 11
0.0
 21
0.0
 31
0.0
  0
LINE
  5
CB
330
C9
100
AcDbEntity
  8
0
  6
ByBlock
 62
     0
370
    -2
100
AcDbLine
 10
0.0
 20
0.0
 30
0.0
 11
-1.0
 21
-0.1666666666666666
 31
0.0
  0
LINE
  5
CC
330
C9
100
AcDbEntity
  8
0
  6
ByBlock
 62
     0
370
    -2
100
AcDbLine
 10
-1.0
 20
0.1666666666666666
 30
0.0
 11
-1.0
 21
-0.1666666666666666
 31
0.0
  0
LINE
  5
CD
330
C9
100
AcDbEntity
  8
0
  6
ByBlock
 62
     0
370
    -2
100
AcDbLine
 10
0.0
 20
0.0
 30
0.0
 11
-1.0
 21
0.0
 31
0.0
  0
ENDBLK
  5
CF
330
C9
100
AcDbEntity
  8
0
100
AcDbBlockEnd
  0
BLOCK
  5
D1
330
D0
100
AcDbEntity
  8
0
100
AcDbBlockBegin
  2
DatumFilled45
 70
     0
 10
0.0
 20
0.0
 30
0.0
  3
DatumFilled45
  1

  0
POLYLINE
  5
D3
330
D0
100
AcDbEntity
  8
0
 62
     0
100
AcDb2dPolyline
 66
     1
 10
0.0
 20
0.0
 30
0.0
 70
   128
  0
VERTEX
  5
D4
330
D3
100
AcDbEntity
  8
0
 62
     0
100
AcDbVertex
100
AcDb2dVertex
 10
0.0
 20
1.0
 30
0.0
  0
VERTEX
  5
D5
330
D3
100
AcDbEntity
  8
0
 62
     0
100
AcDbVertex
100
AcDb2dVertex
 10
0.0
 20
-1.0
 30
0.0
  0
VERTEX
  5
D7
330
D3
100
AcDbEntity
  8
0
 62
     0
100
AcDbVertex
100
AcDb2dVertex
 10
-1.0
 20
0.0
 30
0.0
  0
VERTEX
  5
D8
330
D3
100
AcDbEntity
  8
0
 62
     0
100
AcDbVertex
100
AcDb2dVertex
 10
0.0
 20
1.0
 30
0.0
  0
SEQEND
  5
D6
330
D3
100
AcDbEntity
  8
0
 62
     0
  0
SOLID
  5
DA
330
D0
100
AcDbEntity
  8
0
 62
     0
100
AcDbTrace
 10
0.0
 20
1.0
 30
0.0
 11
0.0
 21
-1.0
 31
0.0
 12
-1.0
 22
0.0
 32
0.0
 13
0.0
 23
1.0
 33
0.0
  0
ENDBLK
  5
D2
330
D0
100
AcDbEntity
  8
0
100
AcDbBlockEnd
  0
BLOCK
  5
E2
330
E1
100
AcDbEntity
  8
0
100
AcDbBlockBegin
  2
Filled-1
 70
     0
 10
0.0
 20
0.0
 30
0.0
  3
Filled-1
  1

  0
LINE
  5
E4
330
E1
100
AcDbEntity
  8
0
 62
     0
100
AcDbLine
 10
-1.0
 20
0.0
 30
0.0
 11
0.0
 21
0.0
 31
0.0
  0
POLYLINE
  5
E5
330
E1
100
AcDbEntity
  8
0
 62
     0
100
AcDb2dPolyline
 66
     1
 10
0.0
 20
0.0
 30
0.0
 70
   128
  0
VERTEX
  5
E6
330
E5
100
AcDbEntity
  8
0
 62
     0
100
AcDbVertex
100
AcDb2dVertex
 10
-1.0
 20
-0.1
 30
0.0
  0
VERTEX
  5
E7
330
E5
100
AcDbEntity
  8
0
 62
     0
100
AcDbVertex
100
AcDb2dVertex
 10
0.0
 20
0.0
 30
0.0
  0
VERTEX
  5
E9
330
E5
100
AcDbEntity
  8
0
 62
     0
100
AcDbVertex
100
AcDb2dVertex
 10
-1.0
 20
0.1
 30
0.0
  0
VERTEX
  5
EA
330
E5
100
AcDbEntity
  8
0
 62
     0
100
AcDbVertex
100
AcDb2dVertex
 10
-1.0
 20
-0.1
 30
0.0
  0
SEQEND
  5
E8
330
E5
100
AcDbEntity
  8
0
 62
     0
  0
SOLID
  5
EB
330
E1
100
AcDbEntity
  8
0
 62
     0
100
AcDbTrace
 10
-1.0
 20
-0.1
 30
0.0
 11
0.0
 21
0.0
 31
0.0
 12
-1.0
 22
0.1
 32
0.0
 13
-1.0
 23
-0.1
 33
0.0
  0
LINE
  5
EC
330
E1
100
AcDbEntity
  8
0
 62
     0
100
AcDbLine
 10
-1.0
 20
-0.1
 30
0.0
 11
0.0
 21
0.0
 31
0.0
  0
LINE
  5
ED
330
E1
100
AcDbEntity
  8
0
 62
     0
100
AcDbLine
 10
0.0
 20
0.0
 30
0.0
 11
-1.0
 21
0.1
 31
0.0
  0
LINE
  5
EE
330
E1
100
AcDbEntity
  8
0
 62
     0
100
AcDbLine
 10
-1.0
 20
0.1
 30
0.0
 11
-1.0
 21
-0.1
 31
0.0
  0
ENDBLK
  5
E3
330
E1
100
AcDbEntity
  8
0
100
AcDbBlockEnd
  0
BLOCK
  5
F1
330
F0
100
AcDbEntity
  8
0
100
AcDbBlockBegin
  2
Carbonitrieren
 70
     0
 10
0.0
 20
0.0
 30
0.0
  3
Carbonitrieren
  1

  0
MTEXT
  5
F3
330
F0
100
AcDbEntity
  8
Titel (ISO)
100
AcDbMText
 10
-75.71151256561281
 20
15.48921793699264
 30
0.0
 40
3.499999940395355
 41
147.2330421884934
 46
0.0
 71
     1
 72
     1
  3
- Carbonitriert: 0.3 ±0.1 tief;HV 500...600 (Prüfkraft DIN 50133)\P- elektrolytisch verkupfert 1-2µ, el. vernickelt 8-10µ\fArial|b0|i0;\H3.3000;\P\fArial|b0|i0;\H3.5000;- Entspröden: glühen 190-210°C, ca 3h innerhalb 4h nach Veredelung\P \P-TriboCoat
  1
ing TC D1050, 4...8µ\P 
  7
_Schriftfeld_3.5mm
 73
     2
 44
0.9442214965820312
  0
ENDBLK
  5
F2
330
F0
100
AcDbEntity
  8
0
100
AcDbBlockEnd
  0
BLOCK
  5
F6
330
F5
100
AcDbEntity
  8
0
100
AcDbBlockBegin
  2
Federangaben
 70
     0
 10
0.0
 20
0.0
 30
0.0
  3
Federangaben
  1

  0
MTEXT
  5
F8
330
F5
100
AcDbEntity
  8
Titel (ISO)
100
AcDbMText
 10
-23.02877426147463
 20
32.04377174377441
 30
0.0
 40
3.499999940395355
 41
201.4264025634256
 46
0.0
 71
     1
 72
     1
  1
getrommelt\Pzunderfrei\Pohne Druckstellen\Pund Sicken\P \PEinfederung ...°\PMd ... Nmm\PSb ... N/mm2\P \PWindungszahl ...\P50 HRc +/- 2 eingeölt\P 
  7
_Schriftfeld_3.5mm
 73
     2
 44
0.9442216157913208
  0
ENDBLK
  5
F7
330
F5
100
AcDbEntity
  8
0
100
AcDbBlockEnd
  0
BLOCK
  5
FA
330
F9
100
AcDbEntity
  8
0
100
AcDbBlockBegin
  2
Nassschliff
 70
     0
 10
0.0
 20
0.0
 30
0.0
  3
Nassschliff
  1

  0
MTEXT
  5
FC
330
F9
100
AcDbEntity
  8
Titel (ISO)
100
AcDbMText
 10
-59.37195301055908
 20
2.29287352412939
 30
0.0
 40
3.499999940395355
 41
0.0
 46
0.0
 71
     1
 72
     1
  1
Verfahren IV: Nassschliff, Korn 220-240, Folie einseitig
  7
_Schriftfeld_3.5mm
 73
     1
 44
1.0
  0
ENDBLK
  5
FB
330
F9
100
AcDbEntity
  8
0
100
AcDbBlockEnd
  0
BLOCK
  5
FE
330
FD
100
AcDbEntity
  8
0
100
AcDbBlockBegin
  2
Schleiffrichtung horizontal
 70
     0
 10
0.0
 20
0.0
 30
0.0
  3
Schleiffrichtung horizontal
  1

  0
HATCH
  5
103
330
FD
100
AcDbEntity
  8
Schraffur (ISO)
100
AcDbHatch
 10
0.0
 20
0.0
 30
0.0
210
0.0
220
0.0
230
1.0
  2
SOLID
 70
     1
 71
     0
 91
        1
 92
        1
 93
        3
 72
     1
 10
-20.0
 20
0.0
 11
-17.50000000000001
 21
-0.4999999999999895
 72
     1
 10
-17.50000000000001
 20
-0.4999999999999895
 11
-17.50000000000001
 21
0.5000000000000071
 72
     1
 10
-17.50000000000001
 20
0.5000000000000071
 11
-20.0
 21
0.0
 97
        0
 75
     0
 76
     1
 98
        1
 10
0.0
 20
0.0
450
        0
451
        0
460
0.0
461
0.0
452
        0
462
0.0
453
        0
470

  0
HATCH
  5
107
330
FD
100
AcDbEntity
  8
Schraffur (ISO)
100
AcDbHatch
 10
0.0
 20
0.0
 30
0.0
210
0.0
220
0.0
230
1.0
  2
SOLID
 70
     1
 71
     0
 91
        1
 92
        1
 93
        3
 72
     1
 10
19.99999999999998
 20
0.0
 11
17.5
 21
0.5000000000000071
 72
     1
 10
17.5
 20
0.5000000000000071
 11
17.49999999999998
 21
-0.4999999999999894
 72
     1
 10
17.49999999999998
 20
-0.4999999999999895
 11
19.99999999999998
 21
0.0
 97
        0
 75
     0
 76
     1
 98
        1
 10
0.0
 20
0.0
450
        0
451
        0
460
0.0
461
0.0
452
        0
462
0.0
453
        0
470

  0
LINE
  5
108
330
FD
100
AcDbEntity
  8
Titel (ISO)
370
    25
100
AcDbLine
 10
-20.0
 20
0.0
 30
0.0
 11
19.99999999999998
 21
0.0
 31
0.0
  0
LINE
  5
109
330
FD
100
AcDbEntity
  8
Titel (ISO)
100
AcDbLine
 10
19.99999999999998
 20
0.0
 30
0.0
 11
17.5
 21
0.5000000000000071
 31
0.0
  0
LINE
  5
10A
330
FD
100
AcDbEntity
  8
Titel (ISO)
100
AcDbLine
 10
17.5
 20
0.5000000000000071
 30
0.0
 11
17.49999999999998
 21
-0.4999999999999895
 31
0.0
  0
LINE
  5
10B
330
FD
100
AcDbEntity
  8
Titel (ISO)
100
AcDbLine
 10
17.49999999999998
 20
-0.4999999999999895
 30
0.0
 11
19.99999999999998
 21
0.0
 31
0.0
  0
LINE
  5
10C
330
FD
100
AcDbEntity
  8
Titel (ISO)
100
AcDbLine
 10
-17.50000000000001
 20
0.5000000000000071
 30
0.0
 11
-20.0
 21
0.0
 31
0.0
  0
LINE
  5
10D
330
FD
100
AcDbEntity
  8
Titel (ISO)
100
AcDbLine
 10
-20.0
 20
0.0
 30
0.0
 11
-17.50000000000001
 21
-0.4999999999999895
 31
0.0
  0
LINE
  5
10E
330
FD
100
AcDbEntity
  8
Titel (ISO)
100
AcDbLine
 10
-17.50000000000001
 20
-0.4999999999999895
 30
0.0
 11
-17.50000000000001
 21
0.5000000000000071
 31
0.0
  0
MTEXT
  5
10F
330
FD
100
AcDbEntity
  8
Titel (ISO)
100
AcDbMText
 10
-15.50000000000001
 20
5.0
 30
0.0
 40
3.499999940395355
 41
0.0
 46
0.0
 71
     1
 72
     1
  1
Schliffrichtung
  7
_Schriftfeld_3.5mm
 73
     1
 44
1.0
  0
ENDBLK
  5
FF
330
FD
100
AcDbEntity
  8
0
100
AcDbBlockEnd
  0
BLOCK
  5
111
330
110
100
AcDbEntity
  8
0
100
AcDbBlockBegin
  2
Schleiffrichtung vertikal
 70
     0
 10
0.0
 20
0.0
 30
0.0
  3
Schleiffrichtung vertikal
  1

  0
HATCH
  5
116
330
110
100
AcDbEntity
  8
Schraffur (ISO)
100
AcDbHatch
 10
0.0
 20
0.0
 30
0.0
210
0.0
220
0.0
230
1.0
  2
SOLID
 70
     1
 71
     0
 91
        1
 92
        1
 93
        3
 72
     1
 10
0.0
 20
-20.0
 11
0.4999999999999984
 21
-17.5
 72
     1
 10
0.4999999999999984
 20
-17.5
 11
-0.4999999999999984
 21
-17.5
 72
     1
 10
-0.4999999999999984
 20
-17.5
 11
0.0
 21
-20.0
 97
        0
 75
     0
 76
     1
 98
        1
 10
0.0
 20
0.0
450
        0
451
        0
460
0.0
461
0.0
452
        0
462
0.0
453
        0
470

  0
HATCH
  5
11A
330
110
100
AcDbEntity
  8
Schraffur (ISO)
100
AcDbHatch
 10
0.0
 20
0.0
 30
0.0
210
0.0
220
0.0
230
1.0
  2
SOLID
 70
     1
 71
     0
 91
        1
 92
        1
 93
        3
 72
     1
 10
0.0
 20
20.0
 11
-0.5000000000000071
 21
17.5
 72
     1
 10
-0.5000000000000071
 20
17.5
 11
0.4999999999999983
 21
17.5
 72
     1
 10
0.4999999999999984
 20
17.5
 11
0.0
 21
20.0
 97
        0
 75
     0
 76
     1
 98
        1
 10
0.0
 20
0.0
450
        0
451
        0
460
0.0
461
0.0
452
        0
462
0.0
453
        0
470

  0
LINE
  5
11B
330
110
100
AcDbEntity
  8
Titel (ISO)
370
    25
100
AcDbLine
 10
0.0
 20
-20.0
 30
0.0
 11
0.0
 21
20.0
 31
0.0
  0
LINE
  5
11C
330
110
100
AcDbEntity
  8
Titel (ISO)
100
AcDbLine
 10
0.0
 20
20.0
 30
0.0
 11
-0.5000000000000071
 21
17.5
 31
0.0
  0
LINE
  5
11D
330
110
100
AcDbEntity
  8
Titel (ISO)
100
AcDbLine
 10
-0.5000000000000071
 20
17.5
 30
0.0
 11
0.4999999999999984
 21
17.5
 31
0.0
  0
LINE
  5
11E
330
110
100
AcDbEntity
  8
Titel (ISO)
100
AcDbLine
 10
0.4999999999999984
 20
17.5
 30
0.0
 11
0.0
 21
20.0
 31
0.0
  0
LINE
  5
11F
330
110
100
AcDbEntity
  8
Titel (ISO)
100
AcDbLine
 10
-0.4999999999999984
 20
-17.5
 30
0.0
 11
0.0
 21
-20.0
 31
0.0
  0
LINE
  5
120
330
110
100
AcDbEntity
  8
Titel (ISO)
100
AcDbLine
 10
0.0
 20
-20.0
 30
0.0
 11
0.4999999999999984
 21
-17.5
 31
0.0
  0
LINE
  5
121
330
110
100
AcDbEntity
  8
Titel (ISO)
100
AcDbLine
 10
0.4999999999999984
 20
-17.5
 30
0.0
 11
-0.4999999999999984
 21
-17.5
 31
0.0
  0
MTEXT
  5
122
330
110
100
AcDbEntity
  8
Titel (ISO)
100
AcDbMText
 10
-5.0
 20
-15.5
 30
0.0
 40
3.499999940395355
 41
0.0
 46
0.0
 71
     1
 72
     1
  1
Schliffrichtung
  7
_Schriftfeld_3.5mm
 11
0.0000000000000001
 21
1.0
 31
0.0
 73
     1
 44
1.0
  0
ENDBLK
  5
112
330
110
100
AcDbEntity
  8
0
100
AcDbBlockEnd
  0
BLOCK
  5
124
330
123
100
AcDbEntity
  8
0
100
AcDbBlockBegin
  2
Stanz-_Laserteil
 70
     0
 10
0.0
 20
0.0
 30
0.0
  3
Stanz-_Laserteil
  1

  0
MTEXT
  5
126
330
123
100
AcDbEntity
  8
Titel (ISO)
100
AcDbMText
 10
-49.3854808807373
 20
9.981259405612943
 30
0.0
 40
3.499999940395355
 41
193.6792332340631
 46
0.0
 71
     1
 72
     1
  1
Als Stanzteil konzipiert\PWenn als Laserteil hergestellt, \Pmuss ganze Kontur innerhalb +/- 0.1 mm sein\P
  7
_Schriftfeld_3.5mm
 73
     2
 44
0.9442214965820312
  0
ENDBLK
  5
125
330
123
100
AcDbEntity
  8
0
100
AcDbBlockEnd
  0
BLOCK
  5
128
330
127
100
AcDbEntity
  8
0
100
AcDbBlockBegin
  2
Stanzrundung_1
 70
     0
 10
0.0
 20
0.0
 30
0.0
  3
Stanzrundung_1
  1

  0
ARC
  5
12A
330
127
100
AcDbEntity
  8
Titel (ISO)
100
AcDbCircle
 10
-2.44997217222222
 20
1.477407396909721
 30
0.0
 40
1.999999999999999
100
AcDbArc
 50
270.0
 51
0.0
  0
LINE
  5
12B
330
127
100
AcDbEntity
  8
Titel (ISO)
100
AcDbLine
 10
-1.049223178106464
 20
0.0498562575512551
 30
0.0
 11
2.449972272222211
 21
-1.477407496909711
 31
0.0
  0
MTEXT
  5
12C
330
127
100
AcDbEntity
  8
Titel (ISO)
100
AcDbMText
 10
3.130367236014626
 20
-0.28633610801851
 30
0.0
 40
3.499999940395355
 41
0.0
 46
0.0
 71
     1
 72
     1
  1
Stanzrundung
  7
_Schriftfeld_3.5mm
 73
     1
 44
1.0
  0
ENDBLK
  5
129
330
127
100
AcDbEntity
  8
0
100
AcDbBlockEnd
  0
BLOCK
  5
12E
330
12D
100
AcDbEntity
  8
0
100
AcDbBlockBegin
  2
Stanzrundung_2
 70
     0
 10
0.0
 20
0.0
 30
0.0
  3
Stanzrundung_2
  1

  0
ARC
  5
130
330
12D
100
AcDbEntity
  8
Titel (ISO)
100
AcDbCircle
 10
1.855973276181241
 20
1.952432954041681
 30
0.0
 40
1.566421450686395
100
AcDbArc
 50
180.0
 51
270.0
  0
LINE
  5
131
330
12D
100
AcDbEntity
  8
Titel (ISO)
100
AcDbLine
 10
-1.855973376181214
 20
-1.952433054041673
 30
0.0
 11
0.776746247326834
 21
0.8171157378590976
 31
0.0
  0
MTEXT
  5
132
330
12D
100
AcDbEntity
  8
Titel (ISO)
100
AcDbMText
 10
-35.05451959893437
 20
-0.5734039390297241
 30
0.0
 40
3.499999940395355
 41
0.0
 46
0.0
 71
     1
 72
     1
  1
Stanzrundung
  7
_Schriftfeld_3.5mm
 73
     1
 44
1.0
  0
ENDBLK
  5
12F
330
12D
100
AcDbEntity
  8
0
100
AcDbBlockEnd
  0
BLOCK
  5
134
330
133
100
AcDbEntity
  8
0
100
AcDbBlockBegin
  2
Verzinkt
 70
     0
 10
0.0
 20
0.0
 30
0.0
  3
Verzinkt
  1

  0
MTEXT
  5
136
330
133
100
AcDbEntity
  8
Titel (ISO)
100
AcDbMText
 10
-34.96665477752687
 20
2.242187596857546
 30
0.0
 40
3.499999940395355
 41
0.0
 46
0.0
 71
     1
 72
     1
  1
verzinkt und blau passiviert 8µm
  7
_Schriftfeld_3.5mm
 73
     1
 44
1.0
  0
ENDBLK
  5
135
330
133
100
AcDbEntity
  8
0
100
AcDbBlockEnd
  0
BLOCK
  5
138
330
137
100
AcDbEntity
  8
0
100
AcDbBlockBegin
  2
Vierkant-Tabelle
 70
     0
 10
0.0
 20
0.0
 30
0.0
  3
Vierkant-Tabelle
  1

  0
LINE
  5
13A
330
137
100
AcDbEntity
  8
Titel (ISO)
 62
     7
100
AcDbLine
 10
-33.99999999999998
 20
-24.00000000000006
 30
0.0
 11
33.99999999999999
 21
-23.99999999999999
 31
0.0
  0
LINE
  5
13B
330
137
100
AcDbEntity
  8
Titel (ISO)
 62
     7
100
AcDbLine
 10
-33.99999999999999
 20
0.0
 30
0.0
 11
33.99999999999999
 21
0.0
 31
0.0
  0
LINE
  5
13C
330
137
100
AcDbEntity
  8
Titel (ISO)
 62
     7
100
AcDbLine
 10
-33.99999999999999
 20
23.99999999999999
 30
0.0
 11
33.99999999999999
 21
24.00000000000006
 31
0.0
  0
LINE
  5
13D
330
137
100
AcDbEntity
  8
Titel (ISO)
 62
     7
100
AcDbLine
 10
-33.99999999999999
 20
15.99999999999998
 30
0.0
 11
34.0
 21
16.00000000000005
 31
0.0
  0
LINE
  5
13E
330
137
100
AcDbEntity
  8
Titel (ISO)
 62
     7
100
AcDbLine
 10
-33.99999999999999
 20
7.999999999999971
 30
0.0
 11
34.0
 21
8.000000000000042
 31
0.0
  0
LINE
  5
13F
330
137
100
AcDbEntity
  8
Titel (ISO)
 62
     7
100
AcDbLine
 10
-33.99999999999999
 20
-8.000000000000042
 30
0.0
 11
33.99999999999999
 21
-7.999999999999971
 31
0.0
  0
LINE
  5
140
330
137
100
AcDbEntity
  8
Titel (ISO)
 62
     7
100
AcDbLine
 10
-33.99999999999999
 20
-16.00000000000005
 30
0.0
 11
33.99999999999999
 21
-15.99999999999998
 31
0.0
  0
LINE
  5
141
330
137
100
AcDbEntity
  8
Titel (ISO)
 62
     7
100
AcDbLine
 10
-25.99999999999997
 20
-24.00000000000006
 30
0.0
 11
-26.0
 21
23.99999999999999
 31
0.0
  0
LINE
  5
142
330
137
100
AcDbEntity
  8
Titel (ISO)
 62
     7
100
AcDbLine
 10
-33.99999999999998
 20
-24.00000000000006
 30
0.0
 11
-33.99999999999999
 21
23.99999999999999
 31
0.0
  0
LINE
  5
143
330
137
100
AcDbEntity
  8
Titel (ISO)
 62
     7
100
AcDbLine
 10
-5.999999999999968
 20
-24.00000000000002
 30
0.0
 11
-5.999999999999996
 21
24.00000000000002
 31
0.0
  0
LINE
  5
144
330
137
100
AcDbEntity
  8
Titel (ISO)
 62
     7
100
AcDbLine
 10
13.99999999999999
 20
-24.00000000000002
 30
0.0
 11
14.0
 21
24.00000000000002
 31
0.0
  0
LINE
  5
145
330
137
100
AcDbEntity
  8
Titel (ISO)
 62
     7
100
AcDbLine
 10
33.99999999999999
 20
-23.99999999999999
 30
0.0
 11
33.99999999999999
 21
24.00000000000006
 31
0.0
  0
MTEXT
  5
146
330
137
100
AcDbEntity
  8
Titel (ISO)
100
AcDbMText
 10
-31.0
 20
-9.999999850988423
 30
0.0
 40
2.5
 41
0.0
 46
0.0
 71
     1
 72
     1
  1
\fArial|b0|i0;\W0.60;\H2.5000;4
  7
_Schriftfeld_3.5mm
 73
     1
 44
1.0
  0
MTEXT
  5
147
330
137
100
AcDbEntity
  8
Titel (ISO)
100
AcDbMText
 10
-31.0
 20
5.999999999999976
 30
0.0
 40
2.5
 41
0.0
 46
0.0
 71
     1
 72
     1
  1
\fArial|b0|i0;\W0.60;\H2.5000;2
  7
_Schriftfeld_3.5mm
 73
     1
 44
1.0
  0
MTEXT
  5
148
330
137
100
AcDbEntity
  8
Titel (ISO)
100
AcDbMText
 10
-31.42346487563099
 20
21.00000014901159
 30
0.0
 40
2.5
 41
0.0
 46
0.0
 71
     1
 72
     1
  1
\fArial|b0|i0;\W0.65;\H2.5000;Pos.
  7
_Schriftfeld_3.5mm
 73
     1
 44
1.0
  0
MTEXT
  5
149
330
137
100
AcDbEntity
  8
Titel (ISO)
100
AcDbMText
 10
-31.0
 20
13.99999999999998
 30
0.0
 40
2.5
 41
0.0
 46
0.0
 71
     1
 72
     1
  1
\fArial|b0|i0;\W0.60;\H2.5000;1
  7
_Schriftfeld_3.5mm
 73
     1
 44
1.0
  0
MTEXT
  5
14A
330
137
100
AcDbEntity
  8
Titel (ISO)
100
AcDbMText
 10
-0.9999999999999964
 20
-18.00000000000004
 30
0.0
 40
2.5
 41
0.0
 46
0.0
 71
     1
 72
     1
  1
\fArial|b0|i0;\W0.88;\H2.5000;4kt. 10
  7
_Schriftfeld_3.5mm
 73
     1
 44
1.0
  0
MTEXT
  5
14B
330
137
100
AcDbEntity
  8
Titel (ISO)
100
AcDbMText
 10
-21.0
 20
-18.00000000000004
 30
0.0
 40
2.5
 41
0.0
 46
0.0
 71
     1
 72
     1
  1
\fAIGDT|b0|i0;\W0.65;\H2.5000;n\fArial|b0|i0;\W0.65;\H2.5000; 11.5
  7
_Schriftfeld_3.5mm
 73
     1
 44
1.0
  0
MTEXT
  5
14C
330
137
100
AcDbEntity
  8
Titel (ISO)
100
AcDbMText
 10
19.0
 20
-18.00000000000004
 30
0.0
 40
2.5
 41
0.0
 46
0.0
 71
     1
 72
     1
  1
\fArial|b0|i0;\W0.88;\H2.5000;13.6
  7
_Schriftfeld_3.5mm
 73
     1
 44
1.0
  0
MTEXT
  5
14D
330
137
100
AcDbEntity
  8
Titel (ISO)
100
AcDbMText
 10
-3.999999999999993
 20
21.00000014901159
 30
0.0
 40
2.5
 41
0.0
 46
0.0
 71
     1
 72
     1
  1
\fArial|b0|i0;\W0.78;\H2.5000;Mass B
  7
_Schriftfeld_3.5mm
 73
     1
 44
1.0
  0
MTEXT
  5
14E
330
137
100
AcDbEntity
  8
Titel (ISO)
100
AcDbMText
 10
-0.9999999999999964
 20
5.999999999999976
 30
0.0
 40
2.5
 41
0.0
 46
0.0
 71
     1
 72
     1
  1
\fArial|b0|i0;\W0.90;\H2.5000;4kt.  8
  7
_Schriftfeld_3.5mm
 73
     1
 44
1.0
  0
MTEXT
  5
14F
330
137
100
AcDbEntity
  8
Titel (ISO)
100
AcDbMText
 10
-0.9999999999999964
 20
-2.000000000000027
 30
0.0
 40
2.5
 41
0.0
 46
0.0
 71
     1
 72
     1
  1
\fArial|b0|i0;\W0.83;\H2.5000;4kt. 8.5
  7
_Schriftfeld_3.5mm
 73
     1
 44
1.0
  0
MTEXT
  5
150
330
137
100
AcDbEntity
  8
Titel (ISO)
100
AcDbMText
 10
-0.9999999999999964
 20
14.00000014901159
 30
0.0
 40
2.5
 41
0.0
 46
0.0
 71
     1
 72
     1
  1
\fArial|b0|i0;\W0.90;\H2.5000;4kt.  7
  7
_Schriftfeld_3.5mm
 73
     1
 44
1.0
  0
MTEXT
  5
151
330
137
100
AcDbEntity
  8
Titel (ISO)
100
AcDbMText
 10
-0.9999999999999964
 20
-10.00000000000003
 30
0.0
 40
2.5
 41
0.0
 46
0.0
 71
     1
 72
     1
  1
\fArial|b0|i0;\W0.90;\H2.5000;4kt.  9
  7
_Schriftfeld_3.5mm
 73
     1
 44
1.0
  0
MTEXT
  5
152
330
137
100
AcDbEntity
  8
Titel (ISO)
100
AcDbMText
 10
-21.0
 20
-2.000000000000027
 30
0.0
 40
2.5
 41
0.0
 46
0.0
 71
     1
 72
     1
  1
\fAIGDT|b0|i0;\W0.76;\H2.5000;n\fArial|b0|i0;\W0.76;\H2.5000; 10.5
  7
_Schriftfeld_3.5mm
 73
     1
 44
1.0
  0
MTEXT
  5
153
330
137
100
AcDbEntity
  8
Titel (ISO)
100
AcDbMText
 10
-21.0
 20
5.999999999999976
 30
0.0
 40
2.5
 41
0.0
 46
0.0
 71
     1
 72
     1
  1
\fAIGDT|b0|i0;\W0.73;\H2.5000;n\fArial|b0|i0;\W0.73;\H2.5000; 10
  7
_Schriftfeld_3.5mm
 73
     1
 44
1.0
  0
MTEXT
  5
154
330
137
100
AcDbEntity
  8
Titel (ISO)
100
AcDbMText
 10
-21.0
 20
-10.00000000000003
 30
0.0
 40
2.5
 41
0.0
 46
0.0
 71
     1
 72
     1
  1
\fAIGDT|b0|i0;\W0.69;\H2.5000;n\fArial|b0|i0;\W0.69;\H2.5000; 11
  7
_Schriftfeld_3.5mm
 73
     1
 44
1.0
  0
MTEXT
  5
155
330
137
100
AcDbEntity
  8
Titel (ISO)
100
AcDbMText
 10
-21.0
 20
13.99999999999998
 30
0.0
 40
2.5
 41
0.0
 46
0.0
 71
     1
 72
     1
  1
\fAIGDT|b0|i0;\W0.84;\H2.5000;n\fArial|b0|i0;\W0.84;\H2.5000; 8
  7
_Schriftfeld_3.5mm
 73
     1
 44
1.0
  0
MTEXT
  5
156
330
137
100
AcDbEntity
  8
Titel (ISO)
100
AcDbMText
 10
-22.02576666302078
 20
21.00000014901159
 30
0.0
 40
2.5
 41
0.0
 46
0.0
 71
     1
 72
     1
  1
\fArial|b0|i0;\W0.79;\H2.5000;Mass A
  7
_Schriftfeld_3.5mm
 73
     1
 44
1.0
  0
MTEXT
  5
157
330
137
100
AcDbEntity
  8
Titel (ISO)
100
AcDbMText
 10
-31.0
 20
-17.96760666370396
 30
0.0
 40
2.5
 41
0.0
 46
0.0
 71
     1
 72
     1
  1
\fArial|b0|i0;\W0.56;\H2.5000;5
  7
_Schriftfeld_3.5mm
 73
     1
 44
1.0
  0
MTEXT
  5
158
330
137
100
AcDbEntity
  8
Titel (ISO)
100
AcDbMText
 10
19.0
 20
-2.000000000000027
 30
0.0
 40
2.5
 41
0.0
 46
0.0
 71
     1
 72
     1
  1
\fArial|b0|i0;\W0.83;\H2.5000;12
  7
_Schriftfeld_3.5mm
 73
     1
 44
1.0
  0
MTEXT
  5
159
330
137
100
AcDbEntity
  8
Titel (ISO)
100
AcDbMText
 10
19.0
 20
5.999999999999976
 30
0.0
 40
2.5
 41
0.0
 46
0.0
 71
     1
 72
     1
  1
\fArial|b0|i0;\W0.90;\H2.5000;11.3
  7
_Schriftfeld_3.5mm
 73
     1
 44
1.0
  0
MTEXT
  5
15A
330
137
100
AcDbEntity
  8
Titel (ISO)
100
AcDbMText
 10
16.0
 20
20.99999999999998
 30
0.0
 40
2.5
 41
0.0
 46
0.0
 71
     1
 72
     1
  1
\fArial|b0|i0;\W0.78;\H2.5000;Mass C
  7
_Schriftfeld_3.5mm
 73
     1
 44
1.0
  0
MTEXT
  5
15B
330
137
100
AcDbEntity
  8
Titel (ISO)
100
AcDbMText
 10
19.0
 20
-10.00000000000003
 30
0.0
 40
2.5
 41
0.0
 46
0.0
 71
     1
 72
     1
  1
\fArial|b0|i0;\W0.90;\H2.5000;12.7
  7
_Schriftfeld_3.5mm
 73
     1
 44
1.0
  0
MTEXT
  5
15C
330
137
100
AcDbEntity
  8
Titel (ISO)
100
AcDbMText
 10
19.0
 20
13.99999999999998
 30
0.0
 40
2.5
 41
0.0
 46
0.0
 71
     1
 72
     1
  1
\fArial|b0|i0;\W0.90;\H2.5000;10
  7
_Schriftfeld_3.5mm
 73
     1
 44
1.0
  0
MTEXT
  5
15D
330
137
100
AcDbEntity
  8
Titel (ISO)
100
AcDbMText
 10
7.52309499999999
 20
23.50279363516371
 30
0.0
 40
2.5
 41
0.0
 46
0.0
 71
     1
 72
     1
  1
\fArial|b0|i0;\W0.68;\H2.5000;+0.05
  7
_Schriftfeld_3.5mm
 73
     1
 44
1.0
  0
MTEXT
  5
15E
330
137
100
AcDbEntity
  8
Titel (ISO)
100
AcDbMText
 10
28.821548797772
 20
20.00279363516373
 30
0.0
 40
2.5
 41
0.0
 46
0.0
 71
     1
 72
     1
  1
\fArial|b0|i0;\W0.63;\H2.5000;0
  7
_Schriftfeld_3.5mm
 73
     1
 44
1.0
  0
MTEXT
  5
15F
330
137
100
AcDbEntity
  8
Titel (ISO)
100
AcDbMText
 10
27.523095
 20
23.50279363516371
 30
0.0
 40
2.5
 41
0.0
 46
0.0
 71
     1
 72
     1
  1
\fArial|b0|i0;\W0.68;\H2.5000;+0.2
  7
_Schriftfeld_3.5mm
 73
     1
 44
1.0
  0
MTEXT
  5
160
330
137
100
AcDbEntity
  8
Titel (ISO)
100
AcDbMText
 10
-31.0
 20
-2.000000000000027
 30
0.0
 40
2.5
 41
0.0
 46
0.0
 71
     1
 72
     1
  1
\fArial|b0|i0;\W0.60;\H2.5000;3
  7
_Schriftfeld_3.5mm
 73
     1
 44
1.0
  0
MTEXT
  5
161
330
137
100
AcDbEntity
  8
Titel (ISO)
100
AcDbMText
 10
7.52309499999999
 20
20.00279363516373
 30
0.0
 40
2.5
 41
0.0
 46
0.0
 71
     1
 72
     1
  1
\fArial|b0|i0;\W0.63;\H2.5000;+0.01
  7
_Schriftfeld_3.5mm
 73
     1
 44
1.0
  0
ENDBLK
  5
139
330
137
100
AcDbEntity
  8
0
100
AcDbBlockEnd
  0
BLOCK
  5
163
330
162
100
AcDbEntity
  8
0
100
AcDbBlockBegin
  2
Laserpunkt_Text
 70
     0
 10
0.0
 20
0.0
 30
0.0
  3
Laserpunkt_Text
  1

  0
CIRCLE
  5
165
330
162
100
AcDbEntity
  8
Skizziergeometrie(DIN)
370
    70
100
AcDbCircle
 10
3.715998998176778
 20
2.645602535338599
 30
0.0
 40
2.250000000000003
  0
LINE
  5
166
330
162
100
AcDbEntity
  8
Skizziergeometrie(DIN)
370
    70
100
AcDbLine
 10
6.014096037033062
 20
0.3475054964822988
 30
0.0
 11
1.417901959320495
 21
4.943699574194866
 31
0.0
  0
LINE
  5
167
330
162
100
AcDbEntity
  8
Skizziergeometrie(DIN)
370
    70
100
AcDbLine
 10
1.417901959320513
 20
0.3475054964822988
 30
0.0
 11
6.01409603703308
 21
4.943699574194866
 31
0.0
  0
MTEXT
  5
168
330
162
100
AcDbEntity
  8
Symbole(DIN)
 62
   179
420
  2500185
100
AcDbMText
 10
0.0
 20
-0.1396086563666721
 30
0.0
 40
3.499999940395355
 41
0.0
 46
0.0
 71
     7
 72
     1
  1
Kontur gelasert nach DXF-File\P      = Anfang/Ende Laserkontur 
  7
Aktuell-DIN
 73
     2
 44
0.9442214965820312
  0
ENDBLK
  5
164
330
162
100
AcDbEntity
  8
0
100
AcDbBlockEnd
  0
BLOCK
  5
16A
330
169
100
AcDbEntity
  8
0
100
AcDbBlockBegin
  2
Laserpunkt
 70
     0
 10
0.0
 20
0.0
 30
0.0
  3
Laserpunkt
  1

  0
CIRCLE
  5
16C
330
169
100
AcDbEntity
  8
Skizziergeometrie(DIN)
370
    70
100
AcDbCircle
 10
0.0
 20
0.0
 30
0.0
 40
2.250000000000003
  0
LINE
  5
16D
330
169
100
AcDbEntity
  8
Skizziergeometrie(DIN)
370
    70
100
AcDbLine
 10
2.298097038856282
 20
-2.2980970388563
 30
0.0
 11
-2.298097038856282
 21
2.298097038856266
 31
0.0
  0
LINE
  5
16E
330
169
100
AcDbEntity
  8
Skizziergeometrie(DIN)
370
    70
100
AcDbLine
 10
-2.298097038856266
 20
-2.2980970388563
 30
0.0
 11
2.2980970388563
 21
2.298097038856266
 31
0.0
  0
ENDBLK
  5
16B
330
169
100
AcDbEntity
  8
0
100
AcDbBlockEnd
  0
BLOCK
  5
170
330
16F
100
AcDbEntity
  8
0
100
AcDbBlockBegin
  2
Kantenbruch
 70
     2
 10
0.0
 20
0.0
 30
0.0
  3
Kantenbruch
  1

  0
HATCH
  5
175
330
16F
100
AcDbEntity
  8
Schraffur
100
AcDbHatch
 10
0.0
 20
0.0
 30
0.0
210
0.0
220
0.0
230
1.0
  2
SOLID
 70
     1
 71
     0
 91
        1
 92
        1
 93
        3
 72
     1
 10
2.551045103405299
 20
2.440182479852524
 11
0.0
 21
0.0
 72
     1
 10
0.0
 20
0.0
 11
1.832554653580372
 21
3.017294333708306
 72
     1
 10
1.832554653580372
 20
3.017294333708306
 11
2.551045103405299
 21
2.440182479852524
 97
        0
 75
     0
 76
     1
 98
        1
 10
0.0
 20
0.0
450
        0
451
        0
460
0.0
461
0.0
452
        0
462
0.0
453
        0
470

  0
HATCH
  5
179
330
16F
100
AcDbEntity
  8
Schraffur
100
AcDbHatch
 10
0.0
 20
0.0
 30
0.0
210
0.0
220
0.0
230
1.0
  2
SOLID
 70
     1
 71
     0
 91
        1
 92
        1
 93
        3
 72
     1
 10
23.39589716406273
 20
3.017294333708662
 11
21.56334251048213
 21
0.0
 72
     1
 10
21.56334251048213
 20
0.0
 11
24.11438761388769
 21
2.440182479852808
 72
     1
 10
24.11438761388769
 20
2.440182479852808
 11
23.39589716406273
 21
3.017294333708662
 97
        0
 75
     0
 76
     1
 98
        1
 10
0.0
 20
0.0
450
        0
451
        0
460
0.0
461
0.0
452
        0
462
0.0
453
        0
470

  0
LINE
  5
17A
330
16F
100
AcDbEntity
  8
AM_5
  6
Continuous
 62
     7
100
AcDbLine
 10
14.41413346606271
 20
6.589009726759619
 30
0.0
 11
5.486542746190784
 21
6.589009726759619
 31
0.0
  0
LINE
  5
17B
330
16F
100
AcDbEntity
  8
AM_5
  6
Continuous
 62
     7
100
AcDbLine
 10
6.021339289383168
 20
7.425192947268967
 30
0.0
 11
10.92133928938317
 21
7.425192947268967
 31
0.0
  0
LINE
  5
17C
330
16F
100
AcDbEntity
  8
AM_5
  6
Continuous
 62
     7
100
AcDbLine
 10
6.021339289383168
 20
12.32519294726897
 30
0.0
 11
6.021339289383168
 21
7.425192947268967
 31
0.0
  0
LINE
  5
17D
330
16F
100
AcDbEntity
  8
AM_5
  6
Continuous
 62
     7
100
AcDbLine
 10
27.49096644559973
 20
12.32519294726897
 30
0.0
 11
27.49096644559973
 21
7.425192947268967
 31
0.0
  0
LINE
  5
17E
330
16F
100
AcDbEntity
  8
AM_5
  6
Continuous
 62
     7
100
AcDbLine
 10
2.551045103405299
 20
2.440182479852559
 30
0.0
 11
1.832554653580372
 21
3.017294333708306
 31
0.0
  0
LINE
  5
17F
330
16F
100
AcDbEntity
  8
AM_5
 62
     7
100
AcDbLine
 10
5.486542746190784
 20
6.589009726759619
 30
0.0
 11
2.259523567491451
 21
2.674322428928999
 31
0.0
  0
LINE
  5
180
330
16F
100
AcDbEntity
  8
AM_5
  6
Continuous
 62
     7
100
AcDbLine
 10
0.0
 20
0.0
 30
0.0
 11
2.551045103405299
 21
2.440182479852524
 31
0.0
  0
LINE
  5
181
330
16F
100
AcDbEntity
  8
AM_5
  6
Continuous
 62
     7
100
AcDbLine
 10
21.56334251048156
 20
0.0
 30
0.0
 11
24.11438761388769
 21
2.440182479852808
 31
0.0
  0
LINE
  5
182
330
16F
100
AcDbEntity
  8
Skizziergeometrie(DIN)
100
AcDbLine
 10
2.551045103405299
 20
2.440182479852524
 30
0.0
 11
1.832554653580372
 21
3.017294333708306
 31
0.0
  0
LINE
  5
183
330
16F
100
AcDbEntity
  8
AM_5
  6
Continuous
 62
     7
100
AcDbLine
 10
1.832554653580372
 20
3.017294333708306
 30
0.0
 11
0.0
 21
0.0
 31
0.0
  0
LINE
  5
184
330
16F
100
AcDbEntity
  8
Skizziergeometrie(DIN)
100
AcDbLine
 10
1.832554653580372
 20
3.017294333708306
 30
0.0
 11
0.0
 21
0.0
 31
0.0
  0
LINE
  5
185
330
16F
100
AcDbEntity
  8
Skizziergeometrie(DIN)
100
AcDbLine
 10
0.0
 20
0.0
 30
0.0
 11
2.551045103405299
 21
2.440182479852524
 31
0.0
  0
LINE
  5
186
330
16F
100
AcDbEntity
  8
AM_0
370
    25
100
AcDbLine
 10
0.0
 20
0.0
 30
0.0
 11
-8.000000000000008
 21
0.0
 31
0.0
  0
LINE
  5
187
330
16F
100
AcDbEntity
  8
Skizziergeometrie(DIN)
370
    25
100
AcDbLine
 10
0.0
 20
0.0
 30
0.0
 11
0.0
 21
-7.999999999999997
 31
0.0
  0
LINE
  5
188
330
16F
100
AcDbEntity
  8
Skizziergeometrie(DIN)
100
AcDbLine
 10
24.11438761388769
 20
2.440182479852808
 30
0.0
 11
21.56334251048213
 21
0.0
 31
0.0
  0
LINE
  5
189
330
16F
100
AcDbEntity
  8
AM_5
  6
Continuous
 62
     7
100
AcDbLine
 10
27.49096644559973
 20
7.425192947268967
 30
0.0
 11
32.39096644559975
 21
7.425192947268967
 31
0.0
  0
LINE
  5
18A
330
16F
100
AcDbEntity
  8
AM_5
  6
Continuous
 62
     7
100
AcDbLine
 10
35.8837606222793
 20
6.589009726759619
 30
0.0
 11
26.95616990240735
 21
6.589009726759619
 31
0.0
  0
LINE
  5
18B
330
16F
100
AcDbEntity
  8
AM_5
  6
Continuous
 62
     7
100
AcDbLine
 10
26.95616990240735
 20
6.589009726759619
 30
0.0
 11
23.70310776989253
 21
2.640671625589323
 31
0.0
  0
LINE
  5
18C
330
16F
100
AcDbEntity
  8
Skizziergeometrie(DIN)
100
AcDbLine
 10
23.39589716406273
 20
3.017294333708662
 30
0.0
 11
24.11438761388769
 21
2.440182479852808
 31
0.0
  0
LINE
  5
18D
330
16F
100
AcDbEntity
  8
AM_5
  6
Continuous
 62
     7
100
AcDbLine
 10
24.11438761388677
 20
2.309315017511791
 30
0.0
 11
23.39589716406191
 21
2.886426871367539
 31
0.0
  0
LINE
  5
18E
330
16F
100
AcDbEntity
  8
AM_0
370
    25
100
AcDbLine
 10
21.56334251048213
 20
7.999999999999988
 30
0.0
 11
21.56334251048213
 21
0.0
 31
0.0
  0
LINE
  5
18F
330
16F
100
AcDbEntity
  8
AM_5
  6
Continuous
 62
     7
100
AcDbLine
 10
23.39589716406273
 20
3.017294333708662
 30
0.0
 11
21.56334251048213
 21
0.0
 31
0.0
  0
LINE
  5
190
330
16F
100
AcDbEntity
  8
Skizziergeometrie(DIN)
100
AcDbLine
 10
21.56334251048213
 20
0.0
 30
0.0
 11
23.39589716406273
 21
3.017294333708662
 31
0.0
  0
LINE
  5
191
330
16F
100
AcDbEntity
  8
AM_0
370
    25
100
AcDbLine
 10
21.56334251048145
 20
0.0
 30
0.0
 11
29.56334251048146
 21
0.0
 31
0.0
  0
ATTDEF
  5
193
102
{ACAD_XDICTIONARY
360
C6A
102
}
330
16F
100
AcDbEntity
  8
AM_5
 62
     7
100
AcDbText
 10
27.71846645364636
 20
13.12519300687362
 30
0.0
 40
3.499999940395355
  1
-1
 41
0.9
  7
Textstil122
100
AcDbAttributeDefinition
  3
Innenkante obere Grenze
  2
Innenkante_obere_Grenze_001
 70
     0
280
     0
  0
ATTDEF
  5
196
102
{ACAD_XDICTIONARY
360
C6D
102
}
330
16F
100
AcDbEntity
  8
AM_5
 62
     7
100
AcDbText
 10
27.71846645364636
 20
8.124504030507404
 30
0.0
 40
3.499999940395355
  1
-0.25
 41
0.9
  7
Textstil122
100
AcDbAttributeDefinition
  3
Innenkante untere Grenze
  2
Innenkante_untere_Grenze_001
 70
     0
280
     0
  0
ATTDEF
  5
197
102
{ACAD_XDICTIONARY
360
C70
102
}
330
16F
100
AcDbEntity
  8
AM_5
 62
     7
100
AcDbText
 10
6.248839297429796
 20
13.12519300687362
 30
0.0
 40
3.499999940395355
  1
+0.3
 41
0.9
  7
Textstil122
100
AcDbAttributeDefinition
  3
Aussenkante obere Grenze
  2
Aussenkante_obere_Grenze_001
 70
     0
280
     0
  0
ATTDEF
  5
198
102
{ACAD_XDICTIONARY
360
C73
102
}
330
16F
100
AcDbEntity
  8
AM_5
 62
     7
100
AcDbText
 10
6.248839297429796
 20
8.125193006873624
 30
0.0
 40
3.499999940395355
  1
+0.1
 41
0.9
  7
Textstil122
100
AcDbAttributeDefinition
  3
Aussenkante untere Grenze
  2
Aussenkante_untere_Grenze_001
 70
     0
280
     0
  0
ENDBLK
  5
171
330
16F
100
AcDbEntity
  8
0
100
AcDbBlockEnd
  0
BLOCK
  5
26C
330
26B
100
AcDbEntity
  8
0
100
AcDbBlockBegin
  2
*D17
 70
     1
 10
0.0
 20
0.0
 30
0.0
  3
*D17
  1

  0
LINE
  5
343
330
26B
100
AcDbEntity
  8
Bemaßungen(DIN)
  6
Continuous
 62
   250
420
  4144959
440
 16777216
370
    25
100
AcDbLine
 10
132.6136431011631
 20
362.2234495938296
 30
0.0
 11
63.96283598027954
 21
362.2234495938296
 31
0.0
  0
LINE
  5
344
330
26B
100
AcDbEntity
  8
Bemaßungen(DIN)
  6
Continuous
 62
   250
420
  4144959
440
 16777216
370
    25
100
AcDbLine
 10
132.6136431011631
 20
434.4929048121741
 30
0.0
 11
63.96283598027956
 21
434.4929048121742
 31
0.0
  0
LINE
  5
345
330
26B
100
AcDbEntity
  8
Bemaßungen(DIN)
  6
Continuous
 62
   250
420
  4144959
440
 16777216
370
    25
100
AcDbLine
 10
70.31283598027954
 20
367.2234495938296
 30
0.0
 11
70.31283598027956
 21
429.4929048121742
 31
0.0
  0
SOLID
  5
346
330
26B
100
AcDbEntity
  8
Bemaßungen(DIN)
  6
Continuous
 62
   250
420
  4144959
440
 16777216
100
AcDbTrace
 10
69.47950264694622
 20
367.2234495938296
 30
0.0
 11
71.14616931361287
 21
367.2234495938296
 31
0.0
 12
70.31283598027954
 22
362.2234495938296
 32
0.0
 13
70.31283598027954
 23
362.2234495938296
 33
0.0
  0
SOLID
  5
347
330
26B
100
AcDbEntity
  8
Bemaßungen(DIN)
  6
Continuous
 62
   250
420
  4144959
440
 16777216
100
AcDbTrace
 10
69.47950264694623
 20
429.4929048121742
 30
0.0
 11
71.14616931361289
 21
429.4929048121742
 31
0.0
 12
70.31283598027956
 22
434.4929048121742
 32
0.0
 13
70.31283598027956
 23
434.4929048121742
 33
0.0
  0
MTEXT
  5
348
330
26B
100
AcDbEntity
  8
Bemaßungen(DIN)
  6
Continuous
 62
   250
420
  4144959
440
 16777216
370
    25
100
AcDbMText
 10
61.68418655328278
 20
393.388995728082
 30
0.0
 40
7.0
 41
0.0
 46
0.0
 71
     1
 72
     1
  1
\A1;72
  7
STANDARD-DIN~0
 11
0.0000000000000001
 21
1.0
 31
0.0
 73
     1
 44
1.0
  0
POINT
  5
349
330
26B
100
AcDbEntity
  8
Defpoints
  6
Continuous
 62
     0
440
 16777216
100
AcDbPoint
 10
132.6136431011631
 20
362.2234495938296
 30
0.0
  0
POINT
  5
34A
330
26B
100
AcDbEntity
  8
Defpoints
  6
Continuous
 62
     0
440
 16777216
100
AcDbPoint
 10
132.6136431011631
 20
434.4929048121741
 30
0.0
  0
POINT
  5
34B
330
26B
100
AcDbEntity
  8
Defpoints
  6
Continuous
 62
     0
440
 16777216
100
AcDbPoint
 10
70.31283598027956
 20
434.4929048121742
 30
0.0
  0
ENDBLK
  5
26D
330
26B
100
AcDbEntity
  8
0
100
AcDbBlockEnd
  0
BLOCK
  5
34E
330
34D
100
AcDbEntity
  8
0
100
AcDbBlockBegin
  2
*D18
 70
     1
 10
0.0
 20
0.0
 30
0.0
  3
*D18
  1

  0
LINE
  5
425
330
34D
100
AcDbEntity
  8
Bemaßungen(DIN)
  6
Continuous
 62
   250
420
  4144959
440
 16777216
370
    25
100
AcDbLine
 10
122.9108866726428
 20
423.3429048121739
 30
0.0
 11
87.96283598027956
 21
423.3429048121739
 31
0.0
  0
LINE
  5
426
330
34D
100
AcDbEntity
  8
Bemaßungen(DIN)
  6
Continuous
 62
   250
420
  4144959
440
 16777216
370
    25
100
AcDbLine
 10
122.9108866726428
 20
373.3429048121742
 30
0.0
 11
87.96283598027953
 21
373.3429048121742
 31
0.0
  0
LINE
  5
427
330
34D
100
AcDbEntity
  8
Bemaßungen(DIN)
  6
Continuous
 62
   250
420
  4144959
440
 16777216
370
    25
100
AcDbLine
 10
94.31283598027956
 20
418.3429048121739
 30
0.0
 11
94.31283598027954
 21
378.3429048121742
 31
0.0
  0
SOLID
  5
428
330
34D
100
AcDbEntity
  8
Bemaßungen(DIN)
  6
Continuous
 62
   250
420
  4144959
440
 16777216
100
AcDbTrace
 10
93.47950264694622
 20
418.3429048121739
 30
0.0
 11
95.14616931361288
 21
418.3429048121739
 31
0.0
 12
94.31283598027956
 22
423.3429048121739
 32
0.0
 13
94.31283598027956
 23
423.3429048121739
 33
0.0
  0
SOLID
  5
429
330
34D
100
AcDbEntity
  8
Bemaßungen(DIN)
  6
Continuous
 62
   250
420
  4144959
440
 16777216
100
AcDbTrace
 10
93.47950264694622
 20
378.3429048121742
 30
0.0
 11
95.14616931361286
 21
378.3429048121742
 31
0.0
 12
94.31283598027954
 22
373.3429048121742
 32
0.0
 13
94.31283598027954
 23
373.3429048121742
 33
0.0
  0
MTEXT
  5
42A
330
34D
100
AcDbEntity
  8
Bemaßungen(DIN)
  6
Continuous
 62
   250
420
  4144959
440
 16777216
370
    25
100
AcDbMText
 10
85.56481411056884
 20
393.3211994624601
 30
0.0
 40
7.0
 41
0.0
 46
0.0
 71
     1
 72
     1
  1
\A1;50
  7
STANDARD-DIN~0
 11
0.0000000000000001
 21
1.0
 31
0.0
 73
     1
 44
1.0
  0
POINT
  5
42B
330
34D
100
AcDbEntity
  8
Defpoints
  6
Continuous
 62
     0
440
 16777216
100
AcDbPoint
 10
122.9108866726428
 20
423.3429048121739
 30
0.0
  0
POINT
  5
42C
330
34D
100
AcDbEntity
  8
Defpoints
  6
Continuous
 62
     0
440
 16777216
100
AcDbPoint
 10
122.9108866726428
 20
373.3429048121742
 30
0.0
  0
POINT
  5
42D
330
34D
100
AcDbEntity
  8
Defpoints
  6
Continuous
 62
     0
440
 16777216
100
AcDbPoint
 10
94.31283598027954
 20
373.3429048121742
 30
0.0
  0
ENDBLK
  5
34F
330
34D
100
AcDbEntity
  8
0
100
AcDbBlockEnd
  0
BLOCK
  5
430
330
42F
100
AcDbEntity
  8
0
100
AcDbBlockBegin
  2
*D19
 70
     1
 10
0.0
 20
0.0
 30
0.0
  3
*D19
  1

  0
LINE
  5
507
330
42F
100
AcDbEntity
  8
Bemaßungen(DIN)
  6
Continuous
 62
   250
420
  4144959
440
 16777216
370
    25
100
AcDbLine
 10
116.363643101163
 20
418.2429048121742
 30
0.0
 11
116.363643101163
 21
462.8937119330577
 31
0.0
  0
LINE
  5
508
330
42F
100
AcDbEntity
  8
Bemaßungen(DIN)
  6
Continuous
 62
   250
420
  4144959
440
 16777216
370
    25
100
AcDbLine
 10
148.8636431011632
 20
418.2429048121742
 30
0.0
 11
148.8636431011632
 21
462.8937119330577
 31
0.0
  0
LINE
  5
509
330
42F
100
AcDbEntity
  8
Bemaßungen(DIN)
  6
Continuous
 62
   250
420
  4144959
440
 16777216
370
    25
100
AcDbLine
 10
121.363643101163
 20
456.5437119330576
 30
0.0
 11
143.8636431011632
 21
456.5437119330576
 31
0.0
  0
SOLID
  5
50A
330
42F
100
AcDbEntity
  8
Bemaßungen(DIN)
  6
Continuous
 62
   250
420
  4144959
440
 16777216
100
AcDbTrace
 10
121.363643101163
 20
457.377045266391
 30
0.0
 11
121.363643101163
 21
455.7103785997242
 31
0.0
 12
116.363643101163
 22
456.5437119330576
 32
0.0
 13
116.363643101163
 23
456.5437119330576
 33
0.0
  0
SOLID
  5
50B
330
42F
100
AcDbEntity
  8
Bemaßungen(DIN)
  6
Continuous
 62
   250
420
  4144959
440
 16777216
100
AcDbTrace
 10
143.8636431011632
 20
457.377045266391
 30
0.0
 11
143.8636431011632
 21
455.7103785997242
 31
0.0
 12
148.8636431011632
 22
456.5437119330576
 32
0.0
 13
148.8636431011632
 23
456.5437119330576
 33
0.0
  0
MTEXT
  5
50C
330
42F
100
AcDbEntity
  8
Bemaßungen(DIN)
  6
Continuous
 62
   250
420
  4144959
440
 16777216
370
    25
100
AcDbMText
 10
123.4783633755268
 20
465.2965087004768
 30
0.0
 40
7.0
 41
0.0
 46
0.0
 71
     1
 72
     1
  1
\A1;32.5
  7
STANDARD-DIN~0
 73
     1
 44
1.0
  0
POINT
  5
50D
330
42F
100
AcDbEntity
  8
Defpoints
  6
Continuous
 62
     0
440
 16777216
100
AcDbPoint
 10
116.363643101163
 20
418.2429048121742
 30
0.0
  0
POINT
  5
50E
330
42F
100
AcDbEntity
  8
Defpoints
  6
Continuous
 62
     0
440
 16777216
100
AcDbPoint
 10
148.8636431011632
 20
418.2429048121742
 30
0.0
  0
POINT
  5
50F
330
42F
100
AcDbEntity
  8
Defpoints
  6
Continuous
 62
     0
440
 16777216
100
AcDbPoint
 10
148.8636431011632
 20
456.5437119330576
 30
0.0
  0
ENDBLK
  5
431
330
42F
100
AcDbEntity
  8
0
100
AcDbBlockEnd
  0
BLOCK
  5
512
330
511
100
AcDbEntity
  8
0
100
AcDbBlockBegin
  2
*D20
 70
     1
 10
0.0
 20
0.0
 30
0.0
  3
*D20
  1

  0
LINE
  5
5F2
330
511
100
AcDbEntity
  8
Bemaßungen(DIN)
  6
Continuous
 62
   250
420
  4144959
440
 16777216
370
    25
100
AcDbLine
 10
181.6136431011161
 20
157.4568438564812
 30
0.0
 11
62.0883067079799
 21
157.4568438564812
 31
0.0
  0
LINE
  5
5F3
330
511
100
AcDbEntity
  8
Bemaßungen(DIN)
  6
Continuous
 62
   250
420
  4144959
440
 16777216
370
    25
100
AcDbLine
 10
118.3128359802325
 20
226.156843856487
 30
0.0
 11
62.08830670797991
 21
226.156843856487
 31
0.0
  0
LINE
  5
5F4
330
511
100
AcDbEntity
  8
Bemaßungen(DIN)
  6
Continuous
 62
   250
420
  4144959
440
 16777216
370
    25
100
AcDbLine
 10
68.43830670797991
 20
162.4568438564812
 30
0.0
 11
68.43830670797991
 21
221.156843856487
 31
0.0
  0
SOLID
  5
5F5
330
511
100
AcDbEntity
  8
Bemaßungen(DIN)
  6
Continuous
 62
   250
420
  4144959
440
 16777216
100
AcDbTrace
 10
67.60497337464656
 20
162.4568438564812
 30
0.0
 11
69.27164004131324
 21
162.4568438564812
 31
0.0
 12
68.43830670797989
 22
157.4568438564812
 32
0.0
 13
68.43830670797989
 23
157.4568438564812
 33
0.0
  0
SOLID
  5
5F6
330
511
100
AcDbEntity
  8
Bemaßungen(DIN)
  6
Continuous
 62
   250
420
  4144959
440
 16777216
100
AcDbTrace
 10
67.60497337464656
 20
221.156843856487
 30
0.0
 11
69.27164004131324
 21
221.156843856487
 31
0.0
 12
68.43830670797991
 22
226.156843856487
 32
0.0
 13
68.43830670797991
 23
226.156843856487
 33
0.0
  0
MTEXT
  5
5F7
330
511
100
AcDbEntity
  8
Bemaßungen(DIN)
  6
Continuous
 62
   250
420
  4144959
440
 16777216
370
    25
100
AcDbMText
 10
59.69028483826922
 20
186.8337878930214
 30
0.0
 40
7.0
 41
0.0
 46
0.0
 71
     1
 72
     1
  1
\A1;70
  7
STANDARD-DIN~0
 11
0.0000000000000001
 21
1.0
 31
0.0
 73
     1
 44
1.0
  0
POINT
  5
5F8
330
511
100
AcDbEntity
  8
Defpoints
  6
Continuous
 62
     0
440
 16777216
100
AcDbPoint
 10
181.6136431011161
 20
157.4568438564812
 30
0.0
  0
POINT
  5
5F9
330
511
100
AcDbEntity
  8
Defpoints
  6
Continuous
 62
     0
440
 16777216
100
AcDbPoint
 10
118.3128359802325
 20
226.156843856487
 30
0.0
  0
POINT
  5
5FA
330
511
100
AcDbEntity
  8
Defpoints
  6
Continuous
 62
     0
440
 16777216
100
AcDbPoint
 10
68.43830670797991
 20
226.156843856487
 30
0.0
  0
ENDBLK
  5
513
330
511
100
AcDbEntity
  8
0
100
AcDbBlockEnd
  0
BLOCK
  5
5FD
330
5FC
100
AcDbEntity
  8
0
100
AcDbBlockBegin
  2
*D21
 70
     1
 10
0.0
 20
0.0
 30
0.0
  3
*D21
  1

  0
LINE
  5
6DA
330
5FC
100
AcDbEntity
  8
Bemaßungen(DIN)
  6
Continuous
 62
   250
420
  4144959
440
 16777216
370
    25
100
AcDbLine
 10
116.3636431011161
 20
240.156843856487
 30
0.0
 11
62.08830670797992
 21
240.156843856487
 31
0.0
  0
LINE
  5
6DB
330
5FC
100
AcDbEntity
  8
Bemaßungen(DIN)
  6
Continuous
 62
   250
420
  4144959
440
 16777216
370
    25
100
AcDbLine
 10
118.3128359802326
 20
226.156843856487
 30
0.0
 11
62.08830670797991
 21
226.156843856487
 31
0.0
  0
LINE
  5
6DC
330
5FC
100
AcDbEntity
  8
Bemaßungen(DIN)
  6
Continuous
 62
   250
420
  4144959
440
 16777216
370
    25
100
AcDbLine
 10
68.43830670797991
 20
235.156843856487
 30
0.0
 11
68.43830670797991
 21
231.156843856487
 31
0.0
  0
SOLID
  5
6DD
330
5FC
100
AcDbEntity
  8
Bemaßungen(DIN)
  6
Continuous
 62
   250
420
  4144959
440
 16777216
100
AcDbTrace
 10
67.60497337464659
 20
245.156843856487
 30
0.0
 11
69.27164004131324
 21
245.156843856487
 31
0.0
 12
68.43830670797991
 22
240.156843856487
 32
0.0
 13
68.43830670797991
 23
240.156843856487
 33
0.0
  0
LINE
  5
6DE
330
5FC
100
AcDbEntity
  8
Bemaßungen(DIN)
  6
Continuous
 62
   250
420
  4144959
440
 16777216
370
    25
100
AcDbLine
 10
68.43830670797991
 20
245.156843856487
 30
0.0
 11
68.43830670797991
 21
250.156843856487
 31
0.0
  0
LINE
  5
6DF
330
5FC
100
AcDbEntity
  8
Bemaßungen(DIN)
  6
Continuous
 62
   250
420
  4144959
440
 16777216
370
    25
100
AcDbLine
 10
68.43830670797991
 20
240.156843856487
 30
0.0
 11
68.43830670797991
 21
235.156843856487
 31
0.0
  0
SOLID
  5
6E0
330
5FC
100
AcDbEntity
  8
Bemaßungen(DIN)
  6
Continuous
 62
   250
420
  4144959
440
 16777216
100
AcDbTrace
 10
67.60497337464656
 20
221.156843856487
 30
0.0
 11
69.27164004131324
 21
221.156843856487
 31
0.0
 12
68.43830670797991
 22
226.156843856487
 32
0.0
 13
68.43830670797991
 23
226.156843856487
 33
0.0
  0
LINE
  5
6E1
330
5FC
100
AcDbEntity
  8
Bemaßungen(DIN)
  6
Continuous
 62
   250
420
  4144959
440
 16777216
370
    25
100
AcDbLine
 10
68.43830670797991
 20
221.156843856487
 30
0.0
 11
68.43830670797991
 21
216.156843856487
 31
0.0
  0
LINE
  5
6E2
330
5FC
100
AcDbEntity
  8
Bemaßungen(DIN)
  6
Continuous
 62
   250
420
  4144959
440
 16777216
370
    25
100
AcDbLine
 10
68.43830670797991
 20
226.156843856487
 30
0.0
 11
68.43830670797991
 21
231.156843856487
 31
0.0
  0
MTEXT
  5
6E3
330
5FC
100
AcDbEntity
  8
Bemaßungen(DIN)
  6
Continuous
 62
   250
420
  4144959
440
 16777216
370
    25
100
AcDbMText
 10
59.80965728098317
 20
228.4869938975177
 30
0.0
 40
7.0
 41
0.0
 46
0.0
 71
     1
 72
     1
  1
\A1;14
  7
STANDARD-DIN~0
 11
0.0000000000000001
 21
1.0
 31
0.0
 73
     1
 44
1.0
  0
POINT
  5
6E4
330
5FC
100
AcDbEntity
  8
Defpoints
  6
Continuous
 62
     0
440
 16777216
100
AcDbPoint
 10
116.3636431011161
 20
240.156843856487
 30
0.0
  0
POINT
  5
6E5
330
5FC
100
AcDbEntity
  8
Defpoints
  6
Continuous
 62
     0
440
 16777216
100
AcDbPoint
 10
118.3128359802326
 20
226.156843856487
 30
0.0
  0
POINT
  5
6E6
330
5FC
100
AcDbEntity
  8
Defpoints
  6
Continuous
 62
     0
440
 16777216
100
AcDbPoint
 10
68.43830670797991
 20
226.156843856487
 30
0.0
  0
ENDBLK
  5
5FE
330
5FC
100
AcDbEntity
  8
0
100
AcDbBlockEnd
  0
BLOCK
  5
6E9
330
6E8
100
AcDbEntity
  8
0
100
AcDbBlockBegin
  2
*D22
 70
     1
 10
0.0
 20
0.0
 30
0.0
  3
*D22
  1

  0
LINE
  5
7C0
330
6E8
100
AcDbEntity
  8
Bemaßungen(DIN)
  6
Continuous
 62
   250
420
  4144959
440
 16777216
370
    25
100
AcDbLine
 10
122.6136431011161
 20
197.4568438564811
 30
0.0
 11
122.6136431011161
 21
127.1068438564812
 31
0.0
  0
LINE
  5
7C1
330
6E8
100
AcDbEntity
  8
Bemaßungen(DIN)
  6
Continuous
 62
   250
420
  4144959
440
 16777216
370
    25
100
AcDbLine
 10
282.6136431011162
 20
194.4568438564811
 30
0.0
 11
282.6136431011162
 21
127.1068438564812
 31
0.0
  0
LINE
  5
7C2
330
6E8
100
AcDbEntity
  8
Bemaßungen(DIN)
  6
Continuous
 62
   250
420
  4144959
440
 16777216
370
    25
100
AcDbLine
 10
127.6136431011161
 20
133.4568438564812
 30
0.0
 11
277.6136431011161
 21
133.4568438564812
 31
0.0
  0
SOLID
  5
7C3
330
6E8
100
AcDbEntity
  8
Bemaßungen(DIN)
  6
Continuous
 62
   250
420
  4144959
440
 16777216
100
AcDbTrace
 10
127.6136431011161
 20
134.2901771898146
 30
0.0
 11
127.6136431011161
 21
132.6235105231479
 31
0.0
 12
122.6136431011161
 22
133.4568438564812
 32
0.0
 13
122.6136431011161
 23
133.4568438564812
 33
0.0
  0
SOLID
  5
7C4
330
6E8
100
AcDbEntity
  8
Bemaßungen(DIN)
  6
Continuous
 62
   250
420
  4144959
440
 16777216
100
AcDbTrace
 10
277.6136431011161
 20
134.2901771898146
 30
0.0
 11
277.6136431011161
 21
132.6235105231479
 31
0.0
 12
282.6136431011162
 22
133.4568438564812
 32
0.0
 13
282.6136431011162
 23
133.4568438564812
 33
0.0
  0
MTEXT
  5
7C5
330
6E8
100
AcDbEntity
  8
Bemaßungen(DIN)
  6
Continuous
 62
   250
420
  4144959
440
 16777216
370
    25
100
AcDbMText
 10
195.242101448269
 20
142.2048657261919
 30
0.0
 40
7.0
 41
0.0
 46
0.0
 71
     1
 72
     1
  1
\A1;160
  7
STANDARD-DIN~0
 73
     1
 44
1.0
  0
POINT
  5
7C6
330
6E8
100
AcDbEntity
  8
Defpoints
  6
Continuous
 62
     0
440
 16777216
100
AcDbPoint
 10
122.6136431011161
 20
197.4568438564811
 30
0.0
  0
POINT
  5
7C7
330
6E8
100
AcDbEntity
  8
Defpoints
  6
Continuous
 62
     0
440
 16777216
100
AcDbPoint
 10
282.6136431011162
 20
194.4568438564811
 30
0.0
  0
POINT
  5
7C8
330
6E8
100
AcDbEntity
  8
Defpoints
  6
Continuous
 62
     0
440
 16777216
100
AcDbPoint
 10
282.6136431011162
 20
133.4568438564812
 30
0.0
  0
ENDBLK
  5
6EA
330
6E8
100
AcDbEntity
  8
0
100
AcDbBlockEnd
  0
BLOCK
  5
7CB
330
7CA
100
AcDbEntity
  8
0
100
AcDbBlockBegin
  2
*D23
 70
     1
 10
0.0
 20
0.0
 30
0.0
  3
*D23
  1

  0
LINE
  5
8AC
330
7CA
100
AcDbEntity
  8
Bemaßungen(DIN)
  6
Continuous
 62
   250
420
  4144959
440
 16777216
370
    25
100
AcDbLine
 10
262.6136431011161
 20
207.4568438564812
 30
0.0
 11
222.2636431011162
 21
207.4568438564812
 31
0.0
  0
LINE
  5
8AD
330
7CA
100
AcDbEntity
  8
Bemaßungen(DIN)
  6
Continuous
 62
   250
420
  4144959
440
 16777216
370
    25
100
AcDbLine
 10
146.9144502219997
 20
226.156843856487
 30
0.0
 11
234.9636431011162
 21
226.156843856487
 31
0.0
  0
LINE
  5
8AE
330
7CA
100
AcDbEntity
  8
Bemaßungen(DIN)
  6
Continuous
 62
   250
420
  4144959
440
 16777216
370
    25
100
AcDbLine
 10
228.6136431011162
 20
212.4568438564812
 30
0.0
 11
228.6136431011162
 21
221.156843856487
 31
0.0
  0
SOLID
  5
8AF
330
7CA
100
AcDbEntity
  8
Bemaßungen(DIN)
  6
Continuous
 62
   250
420
  4144959
440
 16777216
100
AcDbTrace
 10
227.7803097677828
 20
212.4568438564812
 30
0.0
 11
229.4469764344495
 21
212.4568438564812
 31
0.0
 12
228.6136431011162
 22
207.4568438564812
 32
0.0
 13
228.6136431011162
 23
207.4568438564812
 33
0.0
  0
SOLID
  5
8B0
330
7CA
100
AcDbEntity
  8
Bemaßungen(DIN)
  6
Continuous
 62
   250
420
  4144959
440
 16777216
100
AcDbTrace
 10
227.7803097677828
 20
221.156843856487
 30
0.0
 11
229.4469764344495
 21
221.156843856487
 31
0.0
 12
228.6136431011162
 22
226.156843856487
 32
0.0
 13
228.6136431011162
 23
226.156843856487
 33
0.0
  0
MTEXT
  5
8B1
330
7CA
100
AcDbEntity
  8
Bemaßungen(DIN)
  6
Continuous
 62
   250
420
  4144959
440
 16777216
370
    25
100
AcDbMText
 10
219.8656212314055
 20
211.7454522854131
 30
0.0
 40
7.0
 41
0.0
 46
0.0
 71
     1
 72
     1
  1
\A1;20
  7
STANDARD-DIN~0
 11
0.0000000000000001
 21
1.0
 31
0.0
 73
     1
 44
1.0
  0
POINT
  5
8B2
330
7CA
100
AcDbEntity
  8
Defpoints
  6
Continuous
 62
     0
440
 16777216
100
AcDbPoint
 10
262.6136431011161
 20
207.4568438564812
 30
0.0
  0
POINT
  5
8B3
330
7CA
100
AcDbEntity
  8
Defpoints
  6
Continuous
 62
     0
440
 16777216
100
AcDbPoint
 10
146.9144502219997
 20
226.156843856487
 30
0.0
  0
POINT
  5
8B4
330
7CA
100
AcDbEntity
  8
Defpoints
  6
Continuous
 62
     0
440
 16777216
100
AcDbPoint
 10
228.6136431011162
 20
226.156843856487
 30
0.0
  0
ENDBLK
  5
7CC
330
7CA
100
AcDbEntity
  8
0
100
AcDbBlockEnd
  0
BLOCK
  5
8B7
330
8B6
100
AcDbEntity
  8
0
100
AcDbBlockBegin
  2
*D24
 70
     1
 10
0.0
 20
0.0
 30
0.0
  3
*D24
  1

  0
LINE
  5
99C
330
8B6
100
AcDbEntity
  8
Bemaßungen(DIN)
  6
Continuous
 62
   250
420
  4144959
440
 16777216
370
    25
100
AcDbLine
 10
272.6136431011631
 20
408.3429048121741
 30
0.0
 11
312.9636431011632
 21
408.3429048121741
 31
0.0
  0
LINE
  5
99D
330
8B6
100
AcDbEntity
  8
Bemaßungen(DIN)
  6
Continuous
 62
   250
420
  4144959
440
 16777216
370
    25
100
AcDbLine
 10
272.6136431011631
 20
388.3429048121742
 30
0.0
 11
312.9636431011632
 21
388.3429048121742
 31
0.0
  0
LINE
  5
99E
330
8B6
100
AcDbEntity
  8
Bemaßungen(DIN)
  6
Continuous
 62
   250
420
  4144959
440
 16777216
370
    25
100
AcDbLine
 10
306.6136431011632
 20
393.3429048121742
 30
0.0
 11
306.6136431011632
 21
403.3429048121742
 31
0.0
  0
LINE
  5
99F
330
8B6
100
AcDbEntity
  8
Bemaßungen(DIN)
  6
Continuous
 62
   250
420
  4144959
440
 16777216
370
    25
100
AcDbLine
 10
306.6136431011632
 20
408.3429048121741
 30
0.0
 11
306.6136431011632
 21
434.5132854348348
 31
0.0
  0
SOLID
  5
9A0
330
8B6
100
AcDbEntity
  8
Bemaßungen(DIN)
  6
Continuous
 62
   250
420
  4144959
440
 16777216
100
AcDbTrace
 10
305.7803097678299
 20
393.3429048121742
 30
0.0
 11
307.4469764344965
 21
393.3429048121742
 31
0.0
 12
306.6136431011632
 22
388.3429048121742
 32
0.0
 13
306.6136431011632
 23
388.3429048121742
 33
0.0
  0
SOLID
  5
9A1
330
8B6
100
AcDbEntity
  8
Bemaßungen(DIN)
  6
Continuous
 62
   250
420
  4144959
440
 16777216
100
AcDbTrace
 10
305.7803097678299
 20
403.3429048121742
 30
0.0
 11
307.4469764344965
 21
403.3429048121742
 31
0.0
 12
306.6136431011632
 22
408.3429048121741
 32
0.0
 13
306.6136431011632
 23
408.3429048121741
 33
0.0
  0
MTEXT
  5
9A2
330
8B6
100
AcDbEntity
  8
Bemaßungen(DIN)
  6
Continuous
 62
   250
420
  4144959
440
 16777216
370
    25
100
AcDbMText
 10
294.4814488887347
 20
414.9429048121742
 30
0.0
 40
7.0
 41
0.0
 46
0.0
 71
     1
 72
     1
  1
\A1;{\fAIGDT|b0|i0;\H7.0000;n\fArial|b0|i0;\H7.0000;}20
  7
STANDARD-DIN~0
 11
0.0000000000000001
 21
1.0
 31
0.0
 73
     1
 44
1.0
  0
POINT
  5
9A3
330
8B6
100
AcDbEntity
  8
Defpoints
  6
Continuous
 62
     0
440
 16777216
100
AcDbPoint
 10
272.6136431011631
 20
408.3429048121741
 30
0.0
  0
POINT
  5
9A4
330
8B6
100
AcDbEntity
  8
Defpoints
  6
Continuous
 62
     0
440
 16777216
100
AcDbPoint
 10
272.6136431011631
 20
388.3429048121742
 30
0.0
  0
POINT
  5
9A5
330
8B6
100
AcDbEntity
  8
Defpoints
  6
Continuous
 62
     0
440
 16777216
100
AcDbPoint
 10
306.6136431011632
 20
388.3429048121742
 30
0.0
  0
ENDBLK
  5
8B8
330
8B6
100
AcDbEntity
  8
0
100
AcDbBlockEnd
  0
BLOCK
  5
9AD
330
9AC
100
AcDbEntity
  8
0
100
AcDbBlockBegin
  2
*D25
 70
     1
 10
0.0
 20
0.0
 30
0.0
  3
*D25
  1

  0
LINE
  5
A8D
330
9AC
100
AcDbEntity
  8
Bemaßungen(DIN)
  6
Continuous
 62
   250
420
  4144959
440
 16777216
370
    25
100
AcDbLine
 10
122.6136431011161
 20
197.4568438564827
 30
0.0
 11
86.08830670797992
 21
197.4568438564827
 31
0.0
  0
LINE
  5
A8E
330
9AC
100
AcDbEntity
  8
Bemaßungen(DIN)
  6
Continuous
 62
   250
420
  4144959
440
 16777216
370
    25
100
AcDbLine
 10
118.3128359802325
 20
226.156843856487
 30
0.0
 11
86.08830670797996
 21
226.156843856487
 31
0.0
  0
LINE
  5
A8F
330
9AC
100
AcDbEntity
  8
Bemaßungen(DIN)
  6
Continuous
 62
   250
420
  4144959
440
 16777216
370
    25
100
AcDbLine
 10
92.43830670797994
 20
202.4568438564827
 30
0.0
 11
92.43830670797994
 21
221.156843856487
 31
0.0
  0
SOLID
  5
A90
330
9AC
100
AcDbEntity
  8
Bemaßungen(DIN)
  6
Continuous
 62
   250
420
  4144959
440
 16777216
100
AcDbTrace
 10
91.6049733746466
 20
202.4568438564827
 30
0.0
 11
93.27164004131324
 21
202.4568438564827
 31
0.0
 12
92.43830670797994
 22
197.4568438564827
 32
0.0
 13
92.43830670797994
 23
197.4568438564827
 33
0.0
  0
SOLID
  5
A91
330
9AC
100
AcDbEntity
  8
Bemaßungen(DIN)
  6
Continuous
 62
   250
420
  4144959
440
 16777216
100
AcDbTrace
 10
91.6049733746466
 20
221.156843856487
 30
0.0
 11
93.27164004131324
 21
221.156843856487
 31
0.0
 12
92.43830670797995
 22
226.156843856487
 32
0.0
 13
92.43830670797995
 23
226.156843856487
 33
0.0
  0
MTEXT
  5
A92
330
9AC
100
AcDbEntity
  8
Bemaßungen(DIN)
  6
Continuous
 62
   250
420
  4144959
440
 16777216
370
    25
100
AcDbMText
 10
83.6855099405607
 20
206.7875259556251
 30
0.0
 40
7.0
 41
0.0
 46
0.0
 71
     1
 72
     1
  1
\A1;30
  7
STANDARD-DIN~0
 11
0.0000000000000001
 21
1.0
 31
0.0
 73
     1
 44
1.0
  0
POINT
  5
A93
330
9AC
100
AcDbEntity
  8
Defpoints
  6
Continuous
 62
     0
440
 16777216
100
AcDbPoint
 10
122.6136431011161
 20
197.4568438564827
 30
0.0
  0
POINT
  5
A94
330
9AC
100
AcDbEntity
  8
Defpoints
  6
Continuous
 62
     0
440
 16777216
100
AcDbPoint
 10
118.3128359802325
 20
226.156843856487
 30
0.0
  0
POINT
  5
A95
330
9AC
100
AcDbEntity
  8
Defpoints
  6
Continuous
 62
     0
440
 16777216
100
AcDbPoint
 10
92.43830670797995
 20
226.156843856487
 30
0.0
  0
ENDBLK
  5
9AE
330
9AC
100
AcDbEntity
  8
0
100
AcDbBlockEnd
  0
BLOCK
  5
A98
330
A97
100
AcDbEntity
  8
0
100
AcDbBlockBegin
  2
*D26
 70
     1
 10
0.0
 20
0.0
 30
0.0
  3
*D26
  1

  0
LINE
  5
B6F
330
A97
100
AcDbEntity
  8
Bemaßungen(DIN)
  6
Continuous
 62
   250
420
  4144959
440
 16777216
370
    25
100
AcDbLine
 10
245.613643101116
 20
157.4568438564812
 30
0.0
 11
312.9636431011631
 21
157.4568438564812
 31
0.0
  0
LINE
  5
B70
330
A97
100
AcDbEntity
  8
Bemaßungen(DIN)
  6
Continuous
 62
   250
420
  4144959
440
 16777216
370
    25
100
AcDbLine
 10
282.6136431011162
 20
207.4568438564812
 30
0.0
 11
312.9636431011631
 21
207.4568438564812
 31
0.0
  0
LINE
  5
B71
330
A97
100
AcDbEntity
  8
Bemaßungen(DIN)
  6
Continuous
 62
   250
420
  4144959
440
 16777216
370
    25
100
AcDbLine
 10
306.6136431011631
 20
162.4568438564812
 30
0.0
 11
306.6136431011631
 21
202.4568438564811
 31
0.0
  0
SOLID
  5
B72
330
A97
100
AcDbEntity
  8
Bemaßungen(DIN)
  6
Continuous
 62
   250
420
  4144959
440
 16777216
100
AcDbTrace
 10
305.7803097678298
 20
162.4568438564812
 30
0.0
 11
307.4469764344964
 21
162.4568438564812
 31
0.0
 12
306.6136431011631
 22
157.4568438564812
 32
0.0
 13
306.6136431011631
 23
157.4568438564812
 33
0.0
  0
SOLID
  5
B73
330
A97
100
AcDbEntity
  8
Bemaßungen(DIN)
  6
Continuous
 62
   250
420
  4144959
440
 16777216
100
AcDbTrace
 10
305.7803097678298
 20
202.4568438564811
 30
0.0
 11
307.4469764344964
 21
202.4568438564811
 31
0.0
 12
306.6136431011631
 22
207.4568438564812
 32
0.0
 13
306.6136431011631
 23
207.4568438564812
 33
0.0
  0
MTEXT
  5
B74
330
A97
100
AcDbEntity
  8
Bemaßungen(DIN)
  6
Continuous
 62
   250
420
  4144959
440
 16777216
370
    25
100
AcDbMText
 10
297.8656212314524
 20
177.4551385067672
 30
0.0
 40
7.0
 41
0.0
 46
0.0
 71
     1
 72
     1
  1
\A1;50
  7
STANDARD-DIN~0
 11
0.0000000000000001
 21
1.0
 31
0.0
 73
     1
 44
1.0
  0
POINT
  5
B75
330
A97
100
AcDbEntity
  8
Defpoints
  6
Continuous
 62
     0
440
 16777216
100
AcDbPoint
 10
245.613643101116
 20
157.4568438564812
 30
0.0
  0
POINT
  5
B76
330
A97
100
AcDbEntity
  8
Defpoints
  6
Continuous
 62
     0
440
 16777216
100
AcDbPoint
 10
282.6136431011162
 20
207.4568438564812
 30
0.0
  0
POINT
  5
B77
330
A97
100
AcDbEntity
  8
Defpoints
  6
Continuous
 62
     0
440
 16777216
100
AcDbPoint
 10
306.6136431011631
 20
207.4568438564812
 30
0.0
  0
ENDBLK
  5
A99
330
A97
100
AcDbEntity
  8
0
100
AcDbBlockEnd
  0
BLOCK
  5
B7A
330
B79
100
AcDbEntity
  8
0
100
AcDbBlockBegin
  2
*D27
 70
     1
 10
0.0
 20
0.0
 30
0.0
  3
*D27
  1

  0
LINE
  5
C51
330
B79
100
AcDbEntity
  8
Bemaßungen(DIN)
  6
Continuous
 62
   250
420
  4144959
440
 16777216
370
    25
100
AcDbLine
 10
132.6136431011631
 20
378.4429048121742
 30
0.0
 11
132.6136431011631
 21
331.9922320259018
 31
0.0
  0
LINE
  5
C52
330
B79
100
AcDbEntity
  8
Bemaßungen(DIN)
  6
Continuous
 62
   250
420
  4144959
440
 16777216
370
    25
100
AcDbLine
 10
282.6136431011631
 20
398.3429048121742
 30
0.0
 11
282.6136431011631
 21
331.9922320259018
 31
0.0
  0
LINE
  5
C53
330
B79
100
AcDbEntity
  8
Bemaßungen(DIN)
  6
Continuous
 62
   250
420
  4144959
440
 16777216
370
    25
100
AcDbLine
 10
137.6136431011631
 20
338.3422320259017
 30
0.0
 11
277.613643101163
 21
338.3422320259017
 31
0.0
  0
SOLID
  5
C54
330
B79
100
AcDbEntity
  8
Bemaßungen(DIN)
  6
Continuous
 62
   250
420
  4144959
440
 16777216
100
AcDbTrace
 10
137.6136431011631
 20
339.1755653592351
 30
0.0
 11
137.6136431011631
 21
337.5088986925685
 31
0.0
 12
132.6136431011631
 22
338.3422320259017
 32
0.0
 13
132.6136431011631
 23
338.3422320259017
 33
0.0
  0
SOLID
  5
C55
330
B79
100
AcDbEntity
  8
Bemaßungen(DIN)
  6
Continuous
 62
   250
420
  4144959
440
 16777216
100
AcDbTrace
 10
277.613643101163
 20
339.1755653592351
 30
0.0
 11
277.613643101163
 21
337.5088986925685
 31
0.0
 12
282.6136431011631
 22
338.3422320259017
 32
0.0
 13
282.6136431011631
 23
338.3422320259017
 33
0.0
  0
MTEXT
  5
C56
330
B79
100
AcDbEntity
  8
Bemaßungen(DIN)
  6
Continuous
 62
   250
420
  4144959
440
 16777216
370
    25
100
AcDbMText
 10
200.242101448316
 20
347.0902538956124
 30
0.0
 40
7.0
 41
0.0
 46
0.0
 71
     1
 72
     1
  1
\A1;150
  7
STANDARD-DIN~0
 73
     1
 44
1.0
  0
POINT
  5
C57
330
B79
100
AcDbEntity
  8
Defpoints
  6
Continuous
 62
     0
440
 16777216
100
AcDbPoint
 10
132.6136431011631
 20
378.4429048121742
 30
0.0
  0
POINT
  5
C58
330
B79
100
AcDbEntity
  8
Defpoints
  6
Continuous
 62
     0
440
 16777216
100
AcDbPoint
 10
282.6136431011631
 20
398.3429048121742
 30
0.0
  0
POINT
  5
C59
330
B79
100
AcDbEntity
  8
Defpoints
  6
Continuous
 62
     0
440
 16777216
100
AcDbPoint
 10
282.6136431011631
 20
338.3422320259017
 30
0.0
  0
ENDBLK
  5
B7B
330
B79
100
AcDbEntity
  8
0
100
AcDbBlockEnd
  0
ENDSEC
  0
SECTION
  2
ENTITIES
  0
CIRCLE
  5
199
330
6C
100
AcDbEntity
  8
Verdeckte Kanten(DIN)
100
AcDbCircle
 10
132.6136431011631
 20
373.3429048121742
 30
0.0
 40
3.649999999999991
  0
CIRCLE
  5
19A
330
6C
100
AcDbEntity
  8
Verdeckte Kanten(DIN)
100
AcDbCircle
 10
132.6136431011631
 20
423.3429048121739
 30
0.0
 40
3.649999999999991
  0
SPLINE
  5
19B
330
6C
100
AcDbEntity
  8
Verdeckte Kanten(DIN)
100
AcDbSpline
210
0.0
220
0.0
230
1.0
 70
     8
 71
     3
 72
    28
 73
    24
 74
     0
 42
0.0000000001
 43
0.0000000001
 40
-0.0000012116983804
 40
-0.0000012116983804
 40
-0.0000012116983804
 40
-0.0000012116983804
 40
0.0
 40
0.0
 40
0.0000012046688544
 40
0.0000012046688544
 40
0.0000036080647843
 40
0.0000036080647843
 40
0.0000084083573401
 40
0.0000084083573401
 40
0.0000180183886636
 40
0.0000180183886636
 40
0.0000373485416214
 40
0.0000373485416214
 40
0.0000766069530918
 40
0.0000766069530918
 40
0.0001579564043796
 40
0.0001579564043796
 40
0.0003340619219223
 40
0.0003340619219223
 40
0.0006995203427395
 40
0.0006995203427395
 40
0.0011970552950088
 40
0.0011970552950088
 40
0.0011970552950088
 40
0.0011970552950088
 10
147.4247473255859
 20
408.3429048122096
 30
0.0
 10
147.4247472433344
 20
408.3429048182871
 30
0.0
 10
147.4247471142131
 20
408.3429050100908
 30
0.0
 10
147.4247469036207
 20
408.3429054032838
 30
0.0
 10
147.4247467963895
 20
408.342905651974
 30
0.0
 10
147.4247464811679
 20
408.3429064850841
 30
0.0
 10
147.4247462668398
 20
408.3429071890602
 30
0.0
 10
147.4247456366455
 20
408.3429095488107
 30
0.0
 10
147.4247452085073
 20
408.3429115432951
 30
0.0
 10
147.4247439491549
 20
408.3429182363726
 30
0.0
 10
147.4247430949635
 20
408.3429238965758
 30
0.0
 10
147.424740580459
 20
408.342942934033
 30
0.0
 10
147.4247388805892
 20
408.3429590517562
 30
0.0
 10
147.4247338686979
 20
408.3430135150948
 30
0.0
 10
147.4247305043824
 20
408.3430597307924
 30
0.0
 10
147.4247205518739
 20
408.3432174441141
 30
0.0
 10
147.4247139769276
 20
408.34335190113
 30
0.0
 10
147.4246943816359
 20
408.3438210059012
 30
0.0
 10
147.4246819602352
 20
408.3442248754248
 30
0.0
 10
147.424647907601
 20
408.3455717516799
 30
0.0
 10
147.4246260223881
 20
408.3468138688012
 30
0.0
 10
147.42458466126
 20
408.3505514786877
 30
0.0
 10
147.4245697626305
 20
408.3532609819142
 30
0.0
 10
147.4245697626305
 20
408.3564687189351
 30
0.0
  0
ARC
  5
19C
330
6C
100
AcDbEntity
  8
Sichtbare Kanten(DIN)
100
AcDbCircle
 10
132.6136431011631
 20
398.3429048121741
 30
0.0
 40
10.41749773270517
100
AcDbArc
 50
73.72413122699639
 51
286.2758687730007
  0
SPLINE
  5
19D
330
6C
100
AcDbEntity
  8
Verdeckte Kanten(DIN)
100
AcDbSpline
210
0.0
220
0.0
230
1.0
 70
     8
 71
     3
 72
    28
 73
    24
 74
     0
 42
0.0000000001
 43
0.0000000001
 40
0.0
 40
0.0
 40
0.0
 40
0.0
 40
0.0009623211026792
 40
0.0009623211026792
 40
0.0016691827005179
 40
0.0016691827005179
 40
0.0020098020960183
 40
0.0020098020960183
 40
0.0021671464056915
 40
0.0021671464056915
 40
0.0022430791580098
 40
0.0022430791580098
 40
0.0022804670940853
 40
0.0022804670940853
 40
0.0022990546224918
 40
0.0022990546224918
 40
0.0023083392250539
 40
0.0023083392250539
 40
0.0023129878222456
 40
0.0023129878222456
 40
0.0023153180112852
 40
0.0023153180112852
 40
0.0023176605141888
 40
0.0023176605141888
 40
0.0023176605141888
 40
0.0023176605141888
 10
147.4245697626305
 20
388.329340905413
 30
0.0
 10
147.4245697626305
 20
388.3325486424219
 30
0.0
 10
147.4245846612598
 20
388.335258145635
 30
0.0
 10
147.4246260223875
 20
388.3389957555074
 30
0.0
 10
147.4246479076004
 20
388.3402378726422
 30
0.0
 10
147.424681960235
 20
388.341584748918
 30
0.0
 10
147.4246943816358
 20
388.3419886184455
 30
0.0
 10
147.4247139769277
 20
388.3424577232211
 30
0.0
 10
147.424720551874
 20
388.3425921802359
 30
0.0
 10
147.4247305043826
 20
388.3427498935578
 30
0.0
 10
147.424733868698
 20
388.3427961092546
 30
0.0
 10
147.4247388805884
 20
388.3428505725833
 30
0.0
 10
147.4247405804587
 20
388.3428666903138
 30
0.0
 10
147.4247430949648
 20
388.3428857277835
 30
0.0
 10
147.4247439491553
 20
388.3428913879778
 30
0.0
 10
147.4247452085059
 20
388.342898081045
 30
0.0
 10
147.4247456366449
 20
388.3429000755357
 30
0.0
 10
147.4247462668403
 20
388.3429024352907
 30
0.0
 10
147.4247464811679
 20
388.3429031392645
 30
0.0
 10
147.4247467963957
 20
388.3429039723911
 30
0.0
 10
147.4247469036231
 20
388.3429042210673
 30
0.0
 10
147.4247471141538
 20
388.3429046141438
 30
0.0
 10
147.4247472420835
 20
388.3429048037775
 30
0.0
 10
147.4247473254067
 20
388.34290481214
 30
0.0
  0
ARC
  5
19E
330
6C
100
AcDbEntity
  8
Sichtbare Kanten(DIN)
100
AcDbCircle
 10
132.6136431011631
 20
398.3429048121741
 30
0.0
 40
10.39999999999997
100
AcDbArc
 50
74.05763139436986
 51
285.9423686056271
  0
ARC
  5
19F
330
6C
100
AcDbEntity
  8
Sichtbare Kanten(DIN)
100
AcDbCircle
 10
132.6136431011631
 20
398.3429048121741
 30
0.0
 40
10.60000000000004
100
AcDbArc
 50
70.62996175445843
 51
289.3700382455396
  0
SPLINE
  5
1A0
330
6C
100
AcDbEntity
  8
Sichtbare Kanten(DIN)
100
AcDbSpline
210
0.0
220
0.0
230
1.0
 70
     8
 71
     3
 72
    10
 73
     6
 74
     0
 42
0.0000000001
 43
0.0000000001
 40
0.0
 40
0.0
 40
0.0
 40
0.0
 40
0.0354338992975095
 40
0.0684455786844918
 40
0.0960338296174126
 40
0.0960338296174126
 40
0.0960338296174126
 40
0.0960338296174126
 10
130.0107445504394
 20
374.8505250609655
 30
0.0
 10
130.1284643888256
 20
374.8490946947947
 30
0.0
 10
130.3558568751376
 20
374.8463317406117
 30
0.0
 10
130.6792703647307
 20
374.7830272370546
 30
0.0
 10
130.8404311291285
 20
374.6573746536301
 30
0.0
 10
130.9137999199057
 20
374.6001710399695
 30
0.0
  0
SPLINE
  5
1A1
330
6C
100
AcDbEntity
  8
Sichtbare Kanten(DIN)
100
AcDbSpline
210
0.0
220
0.0
230
1.0
 70
     8
 71
     3
 72
    10
 73
     6
 74
     0
 42
0.0000000001
 43
0.0000000001
 40
0.0
 40
0.0
 40
0.0
 40
0.0
 40
0.0723321057415699
 40
0.1345901391067777
 40
0.2030247413826518
 40
0.2030247413826518
 40
0.2030247413826518
 40
0.2030247413826518
 10
128.620711980452
 20
373.5957244432898
 30
0.0
 10
128.6854853055466
 20
373.8316938409725
 30
0.0
 10
128.8060106344516
 20
374.2707679386151
 30
0.0
 10
129.3415540389855
 20
374.7569607306283
 30
0.0
 10
129.7807620177774
 20
374.8183695517503
 30
0.0
 10
130.0107445504394
 20
374.8505250609655
 30
0.0
  0
SPLINE
  5
1A2
330
6C
100
AcDbEntity
  8
Sichtbare Kanten(DIN)
100
AcDbSpline
210
0.0
220
0.0
230
1.0
 70
     8
 71
     3
 72
    13
 73
     9
 74
     0
 42
0.0000000001
 43
0.0000000001
 40
0.0
 40
0.0
 40
0.0
 40
0.0
 40
0.0186749164535748
 40
0.038933954733922
 40
0.0619956196745443
 40
0.0740314537115046
 40
0.0845940360920342
 40
0.0958450056458658
 40
0.0958450056458658
 40
0.0958450056458658
 40
0.0958450056458658
 10
128.7828631165198
 20
372.6792936628537
 30
0.0
 10
128.747225879581
 20
372.7307042148756
 30
0.0
 10
128.672928435024
 20
372.8378862796654
 30
0.0
 10
128.610761228518
 20
373.0379106159674
 30
0.0
 10
128.5902789287849
 20
373.2220556843669
 30
0.0
 10
128.5933934124891
 20
373.3743845327948
 30
0.0
 10
128.6031042546636
 20
373.4868911917067
 30
0.0
 10
128.6147205437748
 20
373.558691407731
 30
0.0
 10
128.620711980452
 20
373.5957244432898
 30
0.0
  0
SPLINE
  5
1A3
330
6C
100
AcDbEntity
  8
Sichtbare Kanten(DIN)
100
AcDbSpline
210
0.0
220
0.0
230
1.0
 70
     8
 71
     3
 72
    10
 73
     6
 74
     0
 42
0.0000000001
 43
0.0000000001
 40
0.0
 40
0.0
 40
0.0
 40
0.0
 40
0.0343803142273133
 40
0.062320419931901
 40
0.0875627097703437
 40
0.0875627097703437
 40
0.0875627097703437
 40
0.0875627097703437
 10
129.5682522831867
 20
372.3515493269161
 30
0.0
 10
129.4538636007418
 20
372.3615610369449
 30
0.0
 10
129.2465138168425
 20
372.3797090378356
 30
0.0
 10
128.968350441848
 20
372.4921322088745
 30
0.0
 10
128.8425652983585
 20
372.619052634854
 30
0.0
 10
128.7828631165198
 20
372.6792936628537
 30
0.0
  0
SPLINE
  5
1A4
330
6C
100
AcDbEntity
  8
Sichtbare Kanten(DIN)
100
AcDbSpline
210
0.0
220
0.0
230
1.0
 70
     8
 71
     3
 72
    10
 73
     6
 74
     0
 42
0.0000000001
 43
0.0000000001
 40
0.0
 40
0.0
 40
0.0
 40
0.0
 40
0.0253636577144429
 40
0.0591587427094875
 40
0.1036416293921764
 40
0.1036416293921764
 40
0.1036416293921764
 40
0.1036416293921764
 10
130.5958205693197
 20
372.469458719006
 30
0.0
 10
130.5132087558592
 20
372.4514440185907
 30
0.0
 10
130.3205231790274
 20
372.4094261425077
 30
0.0
 10
129.9776122654266
 20
372.3620265606968
 30
0.0
 10
129.716585505564
 20
372.3553457943672
 30
0.0
 10
129.5682522831867
 20
372.3515493269161
 30
0.0
  0
SPLINE
  5
1A5
330
6C
100
AcDbEntity
  8
Sichtbare Kanten(DIN)
100
AcDbSpline
210
0.0
220
0.0
230
1.0
 70
     8
 71
     3
 72
    10
 73
     6
 74
     0
 42
0.0000000001
 43
0.0000000001
 40
0.0
 40
0.0
 40
0.0
 40
0.0
 40
0.0000629610420065
 40
0.0018692616811628
 40
0.004181264246394
 40
0.004181264246394
 40
0.004181264246394
 40
0.004181264246394
 10
130.6366202494954
 20
372.4786063776974
 30
0.0
 10
130.636414980638
 20
372.4785626712425
 30
0.0
 10
130.6303207166702
 20
372.4772650624572
 30
0.0
 10
130.6167380515887
 20
372.4741365954332
 30
0.0
 10
130.6033414049373
 20
372.4711406393822
 30
0.0
 10
130.5958205693197
 20
372.469458719006
 30
0.0
  0
SPLINE
  5
1A6
330
6C
100
AcDbEntity
  8
Sichtbare Kanten(DIN)
100
AcDbSpline
210
0.0
220
0.0
230
1.0
 70
     8
 71
     3
 72
    10
 73
     6
 74
     0
 42
0.0000000001
 43
0.0000000001
 40
0.0
 40
0.0
 40
0.0
 40
0.0
 40
0.0062279393423901
 40
0.0112592926308834
 40
0.0126740723008073
 40
0.0126740723008073
 40
0.0126740723008073
 40
0.0126740723008073
 10
130.749011115381
 20
372.5342406045854
 30
0.0
 10
130.732541883132
 20
372.5213714996327
 30
0.0
 10
130.7027676841389
 20
372.4981058557985
 30
0.0
 10
130.6622119408878
 20
372.4841494236443
 30
0.0
 10
130.6412261529589
 20
372.4796039957967
 30
0.0
 10
130.6366202494954
 20
372.4786063776974
 30
0.0
  0
SPLINE
  5
1A7
330
6C
100
AcDbEntity
  8
Sichtbare Kanten(DIN)
100
AcDbSpline
210
0.0
220
0.0
230
1.0
 70
     8
 71
     3
 72
    10
 73
     6
 74
     0
 42
0.0000000001
 43
0.0000000001
 40
0.0
 40
0.0
 40
0.0
 40
0.0
 40
0.0014451006219226
 40
0.005817614222278
 40
0.0109995755152577
 40
0.0109995755152577
 40
0.0109995755152577
 40
0.0109995755152577
 10
130.7946558744955
 20
372.632844508394
 30
0.0
 10
130.7938045767429
 20
372.6281076143612
 30
0.0
 10
130.7903774645838
 20
372.6090380619186
 30
0.0
 10
130.7791949878265
 20
372.5734590659822
 30
0.0
 10
130.7596250560046
 20
372.5480314931258
 30
0.0
 10
130.749011115381
 20
372.5342406045854
 30
0.0
  0
SPLINE
  5
1A8
330
6C
100
AcDbEntity
  8
Sichtbare Kanten(DIN)
100
AcDbSpline
210
0.0
220
0.0
230
1.0
 70
    24
 71
     3
 72
    10
 73
     6
 74
     0
 42
0.0000000001
 43
0.0000000001
 40
0.0
 40
0.0
 40
0.0
 40
0.0
 40
0.0282805628125049
 40
0.080801608035788
 40
0.109082170848312
 40
0.109082170848312
 40
0.109082170848312
 40
0.109082170848312
 10
130.984119038558
 20
373.7070864314083
 30
0.0
 10
130.9677456787009
 20
373.6142507096663
 30
0.0
 10
130.9209646505375
 20
373.3490057904035
 30
0.0
 10
130.8578102625163
 20
372.9909251493988
 30
0.0
 10
130.8110292343527
 20
372.7256802301361
 30
0.0
 10
130.7946558744955
 20
372.632844508394
 30
0.0
  0
SPLINE
  5
1A9
330
6C
100
AcDbEntity
  8
Sichtbare Kanten(DIN)
100
AcDbSpline
210
0.0
220
0.0
230
1.0
 70
     8
 71
     3
 72
    10
 73
     6
 74
     0
 42
0.0000000001
 43
0.0000000001
 40
0.0
 40
0.0
 40
0.0
 40
0.0
 40
0.0011974721338972
 40
0.0024275869633851
 40
0.0037663461996526
 40
0.0037663461996526
 40
0.0037663461996526
 40
0.0037663461996526
 10
130.9753829309735
 20
373.74261077467
 30
0.0
 10
130.9776821745372
 20
373.7393185982467
 30
0.0
 10
130.9823433382861
 20
373.7326445017564
 30
0.0
 10
130.9853906243233
 20
373.7201030270836
 30
0.0
 10
130.9845546851647
 20
373.7115459306342
 30
0.0
 10
130.984119038558
 20
373.7070864314083
 30
0.0
  0
LINE
  5
1AA
330
6C
100
AcDbEntity
  8
Sichtbare Kanten(DIN)
100
AcDbLine
 10
129.9357300077961
 20
373.7572956664343
 30
0.0
 11
130.941897636377
 21
373.7572956664343
 31
0.0
  0
SPLINE
  5
1AB
330
6C
100
AcDbEntity
  8
Sichtbare Kanten(DIN)
100
AcDbSpline
210
0.0
220
0.0
230
1.0
 70
     8
 71
     3
 72
    10
 73
     6
 74
     0
 42
0.0000000001
 43
0.0000000001
 40
0.0
 40
0.0
 40
0.0
 40
0.0
 40
0.002887171775603
 40
0.0058375627860816
 40
0.0087027008604811
 40
0.0087027008604811
 40
0.0087027008604811
 40
0.0087027008604811
 10
129.8740721692544
 20
373.7045610041622
 30
0.0
 10
129.8770990631374
 20
373.7138191750454
 30
0.0
 10
129.8832191295768
 20
373.7325382392421
 30
0.0
 10
129.906804377955
 20
373.7526936795023
 30
0.0
 10
129.926182824168
 20
373.7557767361799
 30
0.0
 10
129.9357300077961
 20
373.7572956664343
 30
0.0
  0
SPLINE
  5
1AC
330
6C
100
AcDbEntity
  8
Sichtbare Kanten(DIN)
100
AcDbSpline
210
0.0
220
0.0
230
1.0
 70
    24
 71
     3
 72
    10
 73
     6
 74
     0
 42
0.0000000001
 43
0.0000000001
 40
0.0
 40
0.0
 40
0.0
 40
0.0
 40
0.007630850476983
 40
0.021802429934259
 40
0.0294332804112467
 40
0.0294332804112467
 40
0.0294332804112467
 40
0.0294332804112467
 10
129.8175400126789
 20
373.4157082478146
 30
0.0
 10
129.8224255076916
 20
373.4406708316964
 30
0.0
 10
129.8363840648707
 20
373.5119924999303
 30
0.0
 10
129.8552281170627
 20
373.6082767520463
 30
0.0
 10
129.8691866742418
 20
373.6795984202803
 30
0.0
 10
129.8740721692544
 20
373.7045610041622
 30
0.0
  0
SPLINE
  5
1AD
330
6C
100
AcDbEntity
  8
Sichtbare Kanten(DIN)
100
AcDbSpline
210
0.0
220
0.0
230
1.0
 70
     8
 71
     3
 72
    10
 73
     6
 74
     0
 42
0.0000000001
 43
0.0000000001
 40
0.0
 40
0.0
 40
0.0
 40
0.0
 40
0.001208614172212
 40
0.0024446859839358
 40
0.0037855685811102
 40
0.0037855685811102
 40
0.0037855685811102
 40
0.0037855685811102
 10
129.8267437919758
 20
373.3800903702103
 30
0.0
 10
129.8243983404976
 20
373.3833949671754
 30
0.0
 10
129.8196541529094
 20
373.3900792358767
 30
0.0
 10
129.8164447901333
 20
373.4026416076599
 30
0.0
 10
129.8171651719571
 20
373.4112361806101
 30
0.0
 10
129.8175400126789
 20
373.4157082478146
 30
0.0
  0
SPLINE
  5
1AE
330
6C
100
AcDbEntity
  8
Sichtbare Kanten(DIN)
100
AcDbSpline
210
0.0
220
0.0
230
1.0
 70
     8
 71
     3
 72
    10
 73
     6
 74
     0
 42
0.0000000001
 43
0.0000000001
 40
0.0
 40
0.0
 40
0.0
 40
0.0
 40
0.0013458088946092
 40
0.0025859262922667
 40
0.0037986230102094
 40
0.0037986230102094
 40
0.0037986230102094
 40
0.0037986230102094
 10
129.8605658102049
 20
373.3653119441036
 30
0.0
 10
129.8560740131608
 20
373.3656480184276
 30
0.0
 10
129.8474431769979
 20
373.3662937738791
 30
0.0
 10
129.8355057293267
 20
373.3714717222192
 30
0.0
 10
129.8296425892105
 20
373.3772389787926
 30
0.0
 10
129.8267437919758
 20
373.3800903702103
 30
0.0
  0
LINE
  5
1AF
330
6C
100
AcDbEntity
  8
Sichtbare Kanten(DIN)
100
AcDbLine
 10
130.345560082666
 20
373.3653119441036
 30
0.0
 11
129.8605658102049
 21
373.3653119441036
 31
0.0
  0
SPLINE
  5
1B0
330
6C
100
AcDbEntity
  8
Sichtbare Kanten(DIN)
100
AcDbSpline
210
0.0
220
0.0
230
1.0
 70
    24
 71
     3
 72
    10
 73
     6
 74
     0
 42
0.0000000001
 43
0.0000000001
 40
0.0
 40
0.0
 40
0.0
 40
0.0
 40
0.0124984602829984
 40
0.0357098865228624
 40
0.048208346805891
 40
0.048208346805891
 40
0.048208346805891
 40
0.048208346805891
 10
130.2628196033365
 20
372.8903819668901
 30
0.0
 10
130.2699700151304
 20
372.9314252982541
 30
0.0
 10
130.2903997631131
 20
373.0486919592943
 30
0.0
 10
130.3179799228894
 20
373.207001951699
 30
0.0
 10
130.338409670872
 20
373.3242686127394
 30
0.0
 10
130.345560082666
 20
373.3653119441036
 30
0.0
  0
SPLINE
  5
1B1
330
6C
100
AcDbEntity
  8
Sichtbare Kanten(DIN)
100
AcDbSpline
210
0.0
220
0.0
230
1.0
 70
     8
 71
     3
 72
    10
 73
     6
 74
     0
 42
0.0000000001
 43
0.0000000001
 40
0.0
 40
0.0
 40
0.0
 40
0.0
 40
0.0001061140021708
 40
0.0008753003865788
 40
0.0033406392921189
 40
0.0033406392921189
 40
0.0033406392921189
 40
0.0033406392921189
 10
130.2495751404458
 20
372.8603948567013
 30
0.0
 10
130.2498963208378
 20
372.8605469476106
 30
0.0
 10
130.2525456349299
 20
372.8618014967653
 30
0.0
 10
130.25851349822
 20
372.8721273790812
 30
0.0
 10
130.2609571013345
 20
372.8824863848224
 30
0.0
 10
130.2628196033365
 20
372.8903819668901
 30
0.0
  0
SPLINE
  5
1B2
330
6C
100
AcDbEntity
  8
Sichtbare Kanten(DIN)
100
AcDbSpline
210
0.0
220
0.0
230
1.0
 70
     8
 71
     3
 72
    10
 73
     6
 74
     0
 42
0.0000000001
 43
0.0000000001
 40
0.0
 40
0.0
 40
0.0
 40
0.0
 40
0.0015313901309452
 40
0.003066487739373
 40
0.004374818392879
 40
0.004374818392879
 40
0.004374818392879
 40
0.004374818392879
 10
130.21174985236
 20
372.8394431639928
 30
0.0
 10
130.2166756341304
 20
372.8408422287947
 30
0.0
 10
130.2265391229309
 20
372.8436437455177
 30
0.0
 10
130.2392331855336
 20
372.8511873987392
 30
0.0
 10
130.2463161129097
 20
372.8574933396002
 30
0.0
 10
130.2495751404458
 20
372.8603948567013
 30
0.0
  0
SPLINE
  5
1B3
330
6C
100
AcDbEntity
  8
Sichtbare Kanten(DIN)
100
AcDbSpline
210
0.0
220
0.0
230
1.0
 70
     8
 71
     3
 72
    13
 73
     9
 74
     0
 42
0.0000000001
 43
0.0000000001
 40
0.0
 40
0.0
 40
0.0
 40
0.0
 40
0.0141330863714494
 40
0.0294904350099191
 40
0.0479706055027398
 40
0.0625618731963478
 40
0.0763426695093359
 40
0.0889650430344739
 40
0.0889650430344739
 40
0.0889650430344739
 40
0.0889650430344739
 10
129.3750103316892
 20
372.9933071573197
 30
0.0
 10
129.4086937387153
 20
372.9598220460908
 30
0.0
 10
129.4789783389583
 20
372.8899512145866
 30
0.0
 10
129.6300432111788
 20
372.8276117455743
 30
0.0
 10
129.7906086004743
 20
372.8033889131138
 30
0.0
 10
129.9470642708131
 20
372.8070704197997
 30
0.0
 10
130.0833338897762
 20
372.8183558301745
 30
0.0
 10
130.1702151520937
 20
372.8326227027983
 30
0.0
 10
130.21174985236
 20
372.8394431639928
 30
0.0
  0
SPLINE
  5
1B4
330
6C
100
AcDbEntity
  8
Sichtbare Kanten(DIN)
100
AcDbSpline
210
0.0
220
0.0
230
1.0
 70
     8
 71
     3
 72
    10
 73
     6
 74
     0
 42
0.0000000001
 43
0.0000000001
 40
0.0
 40
0.0
 40
0.0
 40
0.0
 40
0.0257321364148008
 40
0.0459975558651696
 40
0.0631323921591002
 40
0.0631323921591002
 40
0.0631323921591002
 40
0.0631323921591002
 10
129.2698403170408
 20
373.59795056064
 30
0.0
 10
129.2592762192629
 20
373.5127574051878
 30
0.0
 10
129.2403923353184
 20
373.3604701304714
 30
0.0
 10
129.2743860521847
 20
373.1465880932745
 30
0.0
 10
129.3433943484376
 20
373.0414677754907
 30
0.0
 10
129.3750103316892
 20
372.9933071573197
 30
0.0
  0
SPLINE
  5
1B5
330
6C
100
AcDbEntity
  8
Sichtbare Kanten(DIN)
100
AcDbSpline
210
0.0
220
0.0
230
1.0
 70
     8
 71
     3
 72
    13
 73
     9
 74
     0
 42
0.0000000001
 43
0.0000000001
 40
0.0
 40
0.0
 40
0.0
 40
0.0
 40
0.0126149146707674
 40
0.0254558351656709
 40
0.0436022211516248
 40
0.0815882182461035
 40
0.1224783790911748
 40
0.1679868711023061
 40
0.1679868711023061
 40
0.1679868711023061
 40
0.1679868711023061
 10
130.4123248963053
 20
374.1642074698197
 30
0.0
 10
130.3995549480534
 20
374.2054767724309
 30
0.0
 10
130.3737862681806
 20
374.2887547487066
 30
0.0
 10
130.2450578299023
 20
374.3743389227603
 30
0.0
 10
130.0165713224253
 20
374.4122272824907
 30
0.0
 10
129.6800077242263
 20
374.3520381094243
 30
0.0
 10
129.3799231372853
 20
374.027441931247
 30
0.0
 10
129.3078193298585
 20
373.7461267995221
 30
0.0
 10
129.2698403170408
 20
373.59795056064
 30
0.0
  0
SPLINE
  5
1B6
330
6C
100
AcDbEntity
  8
Sichtbare Kanten(DIN)
100
AcDbSpline
210
0.0
220
0.0
230
1.0
 70
     8
 71
     3
 72
    10
 73
     6
 74
     0
 42
0.0000000001
 43
0.0000000001
 40
0.0
 40
0.0
 40
0.0
 40
0.0
 40
0.002047765729652
 40
0.0040061257373829
 40
0.0064275562272811
 40
0.0064275562272811
 40
0.0064275562272811
 40
0.0064275562272811
 10
130.4600461178223
 20
374.0873222403275
 30
0.0
 10
130.4531237816217
 20
374.0881806725369
 30
0.0
 10
130.4395813393325
 20
374.0898600576924
 30
0.0
 10
130.4230454284989
 20
374.1058479197406
 30
0.0
 10
130.4194665994068
 20
374.1202037816113
 30
0.0
 10
130.4174879920085
 20
374.1281406273718
 30
0.0
  0
LINE
  5
1B7
330
6C
100
AcDbEntity
  8
Sichtbare Kanten(DIN)
100
AcDbLine
 10
130.9908160974773
 20
374.0873222403275
 30
0.0
 11
130.4600461178223
 21
374.0873222403275
 31
0.0
  0
SPLINE
  5
1B8
330
6C
100
AcDbEntity
  8
Sichtbare Kanten(DIN)
100
AcDbSpline
210
0.0
220
0.0
230
1.0
 70
     8
 71
     3
 72
    10
 73
     6
 74
     0
 42
0.0000000001
 43
0.0000000001
 40
0.0
 40
0.0
 40
0.0
 40
0.0
 40
0.0031448691298877
 40
0.0055525733140845
 40
0.0078622774006783
 40
0.0078622774006783
 40
0.0078622774006783
 40
0.0078622774006783
 10
131.0414930042156
 20
374.1392712141232
 30
0.0
 10
131.0387724989985
 20
374.1290574135212
 30
0.0
 10
131.0339691815805
 20
374.1110239519315
 30
0.0
 10
131.0145478335567
 20
374.0907281758012
 30
0.0
 10
130.9986163552528
 20
374.0884417190951
 30
0.0
 10
130.9908160974773
 20
374.0873222403275
 30
0.0
  0
SPLINE
  5
1B9
330
6C
100
AcDbEntity
  8
Sichtbare Kanten(DIN)
100
AcDbSpline
210
0.0
220
0.0
230
1.0
 70
     8
 71
     3
 72
    10
 73
     6
 74
     0
 42
0.0000000001
 43
0.0000000001
 40
0.0
 40
0.0
 40
0.0
 40
0.0
 40
0.0149600583058825
 40
0.0306900242774319
 40
0.04923021989059
 40
0.04923021989059
 40
0.04923021989059
 40
0.04923021989059
 10
130.9137999199057
 20
374.6001710399695
 30
0.0
 10
130.9443068410945
 20
374.5602719658856
 30
0.0
 10
131.0068906982406
 20
374.4784204431679
 30
0.0
 10
131.0507576219571
 20
374.3156067270384
 30
0.0
 10
131.0447455447081
 20
374.2011775347099
 30
0.0
 10
131.0414930042156
 20
374.1392712141232
 30
0.0
  0
SPLINE
  5
1BA
330
6C
100
AcDbEntity
  8
Sichtbare Kanten(DIN)
100
AcDbSpline
210
0.0
220
0.0
230
1.0
 70
     8
 71
     3
 72
    13
 73
     9
 74
     0
 42
0.0000000001
 43
0.0000000001
 40
0.0
 40
0.0
 40
0.0
 40
0.0
 40
0.0229026576484617
 40
0.0432739635693801
 40
0.0645629699844578
 40
0.0801076089824919
 40
0.0932173039948864
 40
0.1051889127042267
 40
0.1051889127042267
 40
0.1051889127042267
 40
0.1051889127042267
 10
133.051134472315
 20
372.5589336709916
 30
0.0
 10
132.9926825922274
 20
372.509025075447
 30
0.0
 10
132.8822393166783
 20
372.4147241092207
 30
0.0
 10
132.6770768329589
 20
372.3375894772213
 30
0.0
 10
132.4851641866965
 20
372.320321419851
 30
0.0
 10
132.3192175898736
 20
372.3414034765688
 30
0.0
 10
132.1904003258939
 20
372.392631816523
 30
0.0
 10
132.1302732203178
 20
372.4517148257398
 30
0.0
 10
132.1015738277835
 20
372.4799158584916
 30
0.0
  0
SPLINE
  5
1BB
330
6C
100
AcDbEntity
  8
Sichtbare Kanten(DIN)
100
AcDbSpline
210
0.0
220
0.0
230
1.0
 70
    24
 71
     3
 72
    10
 73
     6
 74
     0
 42
0.0000000001
 43
0.0000000001
 40
0.0
 40
0.0
 40
0.0
 40
0.0
 40
0.000445625072251
 40
0.0012732144921481
 40
0.0017188395643828
 40
0.0017188395643828
 40
0.0017188395643828
 40
0.0017188395643828
 10
133.0635932467291
 20
372.5707751187457
 30
0.0
 10
133.0625165625205
 20
372.5697517837545
 30
0.0
 10
133.0594403219244
 20
372.5668279694941
 30
0.0
 10
133.0552873971196
 20
372.562880820243
 30
0.0
 10
133.0522111565236
 20
372.5599570059827
 30
0.0
 10
133.051134472315
 20
372.5589336709916
 30
0.0
  0
SPLINE
  5
1BC
330
6C
100
AcDbEntity
  8
Sichtbare Kanten(DIN)
100
AcDbSpline
210
0.0
220
0.0
230
1.0
 70
    24
 71
     3
 72
    10
 73
     6
 74
     0
 42
0.0000000001
 43
0.0000000001
 40
0.0
 40
0.0
 40
0.0
 40
0.0
 40
0.0004437027607032
 40
0.0012677221734459
 40
0.0017114249341747
 40
0.0017114249341747
 40
0.0017114249341747
 40
0.0017114249341747
 10
133.062021869776
 20
372.5537331615515
 30
0.0
 10
133.0621576677843
 20
372.5552059232843
 30
0.0
 10
133.0625456620937
 20
372.5594138139493
 30
0.0
 10
133.0630694544111
 20
372.5650944663474
 30
0.0
 10
133.0634574487207
 20
372.5693023570127
 30
0.0
 10
133.0635932467291
 20
372.5707751187457
 30
0.0
  0
SPLINE
  5
1BD
330
6C
100
AcDbEntity
  8
Sichtbare Kanten(DIN)
100
AcDbSpline
210
0.0
220
0.0
230
1.0
 70
     8
 71
     3
 72
    10
 73
     6
 74
     0
 42
0.0000000001
 43
0.0000000001
 40
0.0
 40
0.0
 40
0.0
 40
0.0
 40
0.0000978161838524
 40
0.0052407690406007
 40
0.0138474745991061
 40
0.0138474745991061
 40
0.0138474745991061
 40
0.0138474745991061
 10
133.0504610250494
 20
372.4157512995724
 30
0.0
 10
133.0504464643521
 20
372.4160770526195
 30
0.0
 10
133.0496663352494
 20
372.4335301612658
 30
0.0
 10
133.0567564591088
 20
372.4794943931216
 30
0.0
 10
133.0599948031514
 20
372.525152878029
 30
0.0
 10
133.062021869776
 20
372.5537331615515
 30
0.0
  0
SPLINE
  5
1BE
330
6C
100
AcDbEntity
  8
Sichtbare Kanten(DIN)
100
AcDbSpline
210
0.0
220
0.0
230
1.0
 70
     8
 71
     3
 72
    10
 73
     6
 74
     0
 42
0.0000000001
 43
0.0000000001
 40
0.0
 40
0.0
 40
0.0
 40
0.0
 40
0.001937478184313
 40
0.0036503024713538
 40
0.0058461245166667
 40
0.0058461245166667
 40
0.0058461245166667
 40
0.0058461245166667
 10
133.0857421790207
 20
372.3772338573524
 30
0.0
 10
133.079139497301
 20
372.3779818850053
 30
0.0
 10
133.066699726059
 20
372.3793912052301
 30
0.0
 10
133.0523966180125
 20
372.3950713156427
 30
0.0
 10
133.0511572720338
 20
372.4083125576868
 30
0.0
 10
133.0504610250494
 20
372.4157512995724
 30
0.0
  0
LINE
  5
1BF
330
6C
100
AcDbEntity
  8
Sichtbare Kanten(DIN)
100
AcDbLine
 10
133.5883209078621
 20
372.3772338573524
 30
0.0
 11
133.0857421790207
 21
372.3772338573524
 31
0.0
  0
SPLINE
  5
1C0
330
6C
100
AcDbEntity
  8
Sichtbare Kanten(DIN)
100
AcDbSpline
210
0.0
220
0.0
230
1.0
 70
     8
 71
     3
 72
    10
 73
     6
 74
     0
 42
0.0000000001
 43
0.0000000001
 40
0.0
 40
0.0
 40
0.0
 40
0.0
 40
0.002621898199471
 40
0.0048850710384235
 40
0.0075494481327262
 40
0.0075494481327262
 40
0.0075494481327262
 40
0.0075494481327262
 10
133.6415980693203
 20
372.4214194807247
 30
0.0
 10
133.6391895814866
 20
372.4128505867693
 30
0.0
 10
133.6347021325972
 20
372.3968851859382
 30
0.0
 10
133.6139733855277
 20
372.3796514823778
 30
0.0
 10
133.5973236121368
 20
372.3780823197674
 30
0.0
 10
133.5883209078621
 20
372.3772338573524
 30
0.0
  0
SPLINE
  5
1C1
330
6C
100
AcDbEntity
  8
Sichtbare Kanten(DIN)
100
AcDbSpline
210
0.0
220
0.0
230
1.0
 70
     8
 71
     3
 72
    10
 73
     6
 74
     0
 42
0.0000000001
 43
0.0000000001
 40
0.0
 40
0.0
 40
0.0
 40
0.0
 40
0.0000133877693436
 40
0.0011214026620799
 40
0.0052633669803299
 40
0.0052633669803299
 40
0.0052633669803299
 40
0.0052633669803299
 10
133.6461625452318
 20
372.473854833101
 30
0.0
 10
133.646157936778
 20
372.4738104457612
 30
0.0
 10
133.6457719178607
 20
372.4700924192676
 30
0.0
 10
133.6443886190114
 20
372.4526005573717
 30
0.0
 10
133.6428287365632
 20
372.4351707247004
 30
0.0
 10
133.6415980693203
 20
372.4214194807247
 30
0.0
  0
SPLINE
  5
1C2
330
6C
100
AcDbEntity
  8
Sichtbare Kanten(DIN)
100
AcDbSpline
210
0.0
220
0.0
230
1.0
 70
     8
 71
     3
 72
    10
 73
     6
 74
     0
 42
0.0000000001
 43
0.0000000001
 40
0.0
 40
0.0
 40
0.0
 40
0.0
 40
0.0013651074904652
 40
0.0157406004844246
 40
0.0266332792872953
 40
0.0266332792872953
 40
0.0266332792872953
 40
0.0266332792872953
 10
133.6754200875496
 20
372.7385757290971
 30
0.0
 10
133.6749201946742
 20
372.7340529127415
 30
0.0
 10
133.6691560961756
 20
372.6819018214804
 30
0.0
 10
133.6594038147292
 20
372.5936614971004
 30
0.0
 10
133.6501511929871
 20
372.5099440148472
 30
0.0
 10
133.6461625452318
 20
372.473854833101
 30
0.0
  0
SPLINE
  5
1C3
330
6C
100
AcDbEntity
  8
Sichtbare Kanten(DIN)
100
AcDbSpline
210
0.0
220
0.0
230
1.0
 70
     8
 71
     3
 72
    10
 73
     6
 74
     0
 42
0.0000000001
 43
0.0000000001
 40
0.0
 40
0.0
 40
0.0
 40
0.0
 40
0.0000276844043069
 40
0.0023284350569945
 40
0.006811561276057
 40
0.006811561276057
 40
0.006811561276057
 40
0.006811561276057
 10
133.6861204163256
 20
372.8058456281857
 30
0.0
 10
133.6861055701384
 20
372.8057545488872
 30
0.0
 10
133.6848569110607
 20
372.7980941987187
 30
0.0
 10
133.6813369051846
 20
372.775663353618
 30
0.0
 10
133.6777743817713
 20
372.7533328477871
 30
0.0
 10
133.6754200875496
 20
372.7385757290971
 30
0.0
  0
SPLINE
  5
1C4
330
6C
100
AcDbEntity
  8
Sichtbare Kanten(DIN)
100
AcDbSpline
210
0.0
220
0.0
230
1.0
 70
     8
 71
     3
 72
    10
 73
     6
 74
     0
 42
0.0000000001
 43
0.0000000001
 40
0.0
 40
0.0
 40
0.0
 40
0.0
 40
0.0232114797897229
 40
0.0868708613137958
 40
0.1248352191515127
 40
0.1248352191515127
 40
0.1248352191515127
 40
0.1248352191515127
 10
133.9132966272631
 20
374.0333529247351
 30
0.0
 10
133.8992183314095
 20
373.9572729275973
 30
0.0
 10
133.8465291578748
 20
373.6725373165989
 30
0.0
 10
133.7707980360444
 20
373.2633692759456
 30
0.0
 10
133.7091505422485
 20
372.9302802456871
 30
0.0
 10
133.6861204163256
 20
372.8058456281857
 30
0.0
  0
SPLINE
  5
1C5
330
6C
100
AcDbEntity
  8
Sichtbare Kanten(DIN)
100
AcDbSpline
210
0.0
220
0.0
230
1.0
 70
     8
 71
     3
 72
    10
 73
     6
 74
     0
 42
0.0000000001
 43
0.0000000001
 40
0.0
 40
0.0
 40
0.0
 40
0.0
 40
0.0136948136430338
 40
0.0394152339470988
 40
0.0541152299756576
 40
0.0541152299756576
 40
0.0541152299756576
 40
0.0541152299756576
 10
133.3721443355964
 20
374.0334464590776
 30
0.0
 10
133.4177937136926
 20
374.0334383868893
 30
0.0
 10
133.5491778247949
 20
374.0334151542121
 30
0.0
 10
133.7295619218325
 20
374.0333828806436
 30
0.0
 10
133.864296641152
 20
374.03336091364
 30
0.0
 10
133.9132966272631
 20
374.0333529247351
 30
0.0
  0
SPLINE
  5
1C6
330
6C
100
AcDbEntity
  8
Sichtbare Kanten(DIN)
100
AcDbSpline
210
0.0
220
0.0
230
1.0
 70
     8
 71
     3
 72
    10
 73
     6
 74
     0
 42
0.0000000001
 43
0.0000000001
 40
0.0
 40
0.0
 40
0.0
 40
0.0
 40
0.0028830672147747
 40
0.0058563601479538
 40
0.0087290673659723
 40
0.0087290673659723
 40
0.0087290673659723
 40
0.0087290673659723
 10
133.3096259811042
 20
373.9810298135697
 30
0.0
 10
133.3128210508351
 20
373.9902104905017
 30
0.0
 10
133.3193111801483
 20
374.008859154064
 30
0.0
 10
133.3431077608134
 20
374.02882336118
 30
0.0
 10
133.3625771400898
 20
374.0319232049829
 30
0.0
 10
133.3721443355964
 20
374.0334464590776
 30
0.0
  0
SPLINE
  5
1C7
330
6C
100
AcDbEntity
  8
Sichtbare Kanten(DIN)
100
AcDbSpline
210
0.0
220
0.0
230
1.0
 70
     8
 71
     3
 72
    10
 73
     6
 74
     0
 42
0.0000000001
 43
0.0000000001
 40
0.0
 40
0.0
 40
0.0
 40
0.0
 40
0.0003033916010682
 40
0.0329732673994525
 40
0.091433609618394
 40
0.091433609618394
 40
0.091433609618394
 40
0.091433609618394
 10
133.1539100077968
 20
373.080050906506
 30
0.0
 10
133.1540857458417
 20
373.0810468255199
 30
0.0
 10
133.1731853436126
 20
373.1892854973892
 30
0.0
 10
133.2244893454194
 20
373.4897169477207
 30
0.0
 10
133.2763543839549
 20
373.7890235918619
 30
0.0
 10
133.3096259811042
 20
373.9810298135697
 30
0.0
  0
SPLINE
  5
1C8
330
6C
100
AcDbEntity
  8
Sichtbare Kanten(DIN)
100
AcDbSpline
210
0.0
220
0.0
230
1.0
 70
     8
 71
     3
 72
    13
 73
     9
 74
     0
 42
0.0000000001
 43
0.0000000001
 40
0.0
 40
0.0
 40
0.0
 40
0.0
 40
0.007011922375534
 40
0.0145744932704933
 40
0.0248805847956153
 40
0.0499072791905735
 40
0.0721278514224026
 40
0.0795745374886445
 40
0.0795745374886445
 40
0.0795745374886445
 40
0.0795745374886445
 10
132.6215873580572
 20
372.8543151244422
 30
0.0
 10
132.6293817230794
 20
372.8319976269367
 30
0.0
 10
132.645582547116
 20
372.7856100316686
 30
0.0
 10
132.7106902589826
 20
372.7275808594624
 30
0.0
 10
132.855528854163
 20
372.6987046609892
 30
0.0
 10
133.0550663502485
 20
372.7818583741655
 30
0.0
 10
133.1333485806201
 20
372.9583928086577
 30
0.0
 10
133.1497844831219
 20
373.0556409528454
 30
0.0
 10
133.1539100077968
 20
373.080050906506
 30
0.0
  0
SPLINE
  5
1C9
330
6C
100
AcDbEntity
  8
Sichtbare Kanten(DIN)
100
AcDbSpline
210
0.0
220
0.0
230
1.0
 70
     8
 71
     3
 72
    10
 73
     6
 74
     0
 42
0.0000000001
 43
0.0000000001
 40
0.0
 40
0.0
 40
0.0
 40
0.0
 40
0.0005599645648466
 40
0.0060567009795872
 40
0.0151421821733425
 40
0.0151421821733425
 40
0.0151421821733425
 40
0.0151421821733425
 10
132.6193612407068
 20
373.005429208101
 30
0.0
 10
132.6191421536753
 20
373.0035756359919
 30
0.0
 10
132.6167724597308
 20
372.9835269887847
 30
0.0
 10
132.6140512826881
 20
372.9329635075966
 30
0.0
 10
132.6186944333325
 20
372.8845064164659
 30
0.0
 10
132.6215873580572
 20
372.8543151244422
 30
0.0
  0
SPLINE
  5
1CA
330
6C
100
AcDbEntity
  8
Sichtbare Kanten(DIN)
100
AcDbSpline
210
0.0
220
0.0
230
1.0
 70
     8
 71
     3
 72
    10
 73
     6
 74
     0
 42
0.0000000001
 43
0.0000000001
 40
0.0
 40
0.0
 40
0.0
 40
0.0
 40
0.0364553241020064
 40
0.086543356765523
 40
0.0992284203541535
 40
0.0992284203541535
 40
0.0992284203541535
 40
0.0992284203541535
 10
132.7883029700362
 20
373.9832185171828
 30
0.0
 10
132.767361644622
 20
373.8635195950538
 30
0.0
 10
132.7176478472242
 20
373.5793595504667
 30
0.0
 10
132.6594790962223
 20
373.2537379870985
 30
0.0
 10
132.6261053429925
 20
373.0471717135881
 30
0.0
 10
132.6193612407068
 20
373.005429208101
 30
0.0
  0
SPLINE
  5
1CB
330
6C
100
AcDbEntity
  8
Sichtbare Kanten(DIN)
100
AcDbSpline
210
0.0
220
0.0
230
1.0
 70
     8
 71
     3
 72
    10
 73
     6
 74
     0
 42
0.0000000001
 43
0.0000000001
 40
0.0
 40
0.0
 40
0.0
 40
0.0
 40
0.0011963695904978
 40
0.0024277293993698
 40
0.0037682802801585
 40
0.0037682802801585
 40
0.0037682802801585
 40
0.0037682802801585
 10
132.7796229830572
 20
374.0187802741817
 30
0.0
 10
132.7819123386742
 20
374.0154859432176
 30
0.0
 10
132.786558006686
 20
374.0088009320003
 30
0.0
 10
132.7895892131891
 20
373.9962498486144
 30
0.0
 10
132.7887436834747
 20
373.9876835227847
 30
0.0
 10
132.7883029700362
 20
373.9832185171828
 30
0.0
  0
SPLINE
  5
1CC
330
6C
100
AcDbEntity
  8
Sichtbare Kanten(DIN)
100
AcDbSpline
210
0.0
220
0.0
230
1.0
 70
     8
 71
     3
 72
    10
 73
     6
 74
     0
 42
0.0000000001
 43
0.0000000001
 40
0.0
 40
0.0
 40
0.0
 40
0.0
 40
0.0013342302801217
 40
0.0025597299351589
 40
0.0037566332053006
 40
0.0037566332053006
 40
0.0037566332053006
 40
0.0037566332053006
 10
132.7462125159348
 20
374.0334464590775
 30
0.0
 10
132.7506658016124
 20
374.0331131766947
 30
0.0
 10
132.759209460701
 20
374.0324737721595
 30
0.0
 10
132.7710103702785
 20
374.027331626997
 30
0.0
 10
132.7767747950778
 20
374.021608203513
 30
0.0
 10
132.7796229830572
 20
374.0187802741817
 30
0.0
  0
LINE
  5
1CD
330
6C
100
AcDbEntity
  8
Sichtbare Kanten(DIN)
100
AcDbLine
 10
132.2688506458174
 20
374.0334464590776
 30
0.0
 11
132.7462125159348
 21
374.0334464590775
 31
0.0
  0
SPLINE
  5
1CE
330
6C
100
AcDbEntity
  8
Sichtbare Kanten(DIN)
100
AcDbSpline
210
0.0
220
0.0
230
1.0
 70
     8
 71
     3
 72
    10
 73
     6
 74
     0
 42
0.0000000001
 43
0.0000000001
 40
0.0
 40
0.0
 40
0.0
 40
0.0
 40
0.0028822323715622
 40
0.0058561909534102
 40
0.0087413965309754
 40
0.0087413965309754
 40
0.0087413965309754
 40
0.0087413965309754
 10
132.2063135844568
 20
373.9809549860958
 30
0.0
 10
132.2094702879659
 20
373.9901488830055
 30
0.0
 10
132.2158841561588
 20
374.0088292699307
 30
0.0
 10
132.2397251308558
 20
374.0288315351753
 30
0.0
 10
132.2592406795483
 20
374.0319237645228
 30
0.0
 10
132.2688506458174
 20
374.0334464590776
 30
0.0
  0
SPLINE
  5
1CF
330
6C
100
AcDbEntity
  8
Sichtbare Kanten(DIN)
100
AcDbSpline
210
0.0
220
0.0
230
1.0
 70
    24
 71
     3
 72
    10
 73
     6
 74
     0
 42
0.0000000001
 43
0.0000000001
 40
0.0
 40
0.0
 40
0.0
 40
0.0
 40
0.0277236344761274
 40
0.0792103842174597
 40
0.1069340186935556
 40
0.1069340186935556
 40
0.1069340186935556
 40
0.1069340186935556
 10
132.0162705074711
 20
372.9286375129513
 30
0.0
 10
132.0326939832599
 20
373.0195785291491
 30
0.0
 10
132.0796181997994
 20
373.2794100039996
 30
0.0
 10
132.1429658921282
 20
373.6301824950477
 30
0.0
 10
132.1898901086679
 20
373.8900139698981
 30
0.0
 10
132.2063135844568
 20
373.9809549860958
 30
0.0
  0
SPLINE
  5
1D0
330
6C
100
AcDbEntity
  8
Sichtbare Kanten(DIN)
100
AcDbSpline
210
0.0
220
0.0
230
1.0
 70
     8
 71
     3
 72
    10
 73
     6
 74
     0
 42
0.0000000001
 43
0.0000000001
 40
0.0
 40
0.0
 40
0.0
 40
0.0
 40
0.0132753393276217
 40
0.0283927478350573
 40
0.0470112911819627
 40
0.0470112911819627
 40
0.0470112911819627
 40
0.0470112911819627
 10
132.1015738277835
 20
372.4799158584916
 30
0.0
 10
132.0767857472661
 20
372.5170088777077
 30
0.0
 10
132.0237700237446
 20
372.5963418962507
 30
0.0
 10
131.9955028302043
 20
372.7550673715037
 30
0.0
 10
132.0088850117669
 20
372.8669117109957
 30
0.0
 10
132.0162705074711
 20
372.9286375129513
 30
0.0
  0
SPLINE
  5
1D1
330
6C
100
AcDbEntity
  8
Sichtbare Kanten(DIN)
100
AcDbSpline
210
0.0
220
0.0
230
1.0
 70
    24
 71
     3
 72
    10
 73
     6
 74
     0
 42
0.0000000001
 43
0.0000000001
 40
0.0
 40
0.0
 40
0.0
 40
0.0
 40
0.0181734283307943
 40
0.0519240809451679
 40
0.0700975092759946
 40
0.0700975092759946
 40
0.0700975092759946
 40
0.0700975092759946
 10
134.3854205742033
 20
374.0332780972611
 30
0.0
 10
134.3959513864179
 20
374.0929338389764
 30
0.0
 10
134.4260394213168
 20
374.2633788153057
 30
0.0
 10
134.4666582684309
 20
374.4934795333504
 30
0.0
 10
134.4967463033299
 20
374.6639245096799
 30
0.0
 10
134.5072771155445
 20
374.7235802513952
 30
0.0
  0
SPLINE
  5
1D2
330
6C
100
AcDbEntity
  8
Sichtbare Kanten(DIN)
100
AcDbSpline
210
0.0
220
0.0
230
1.0
 70
     8
 71
     3
 72
    10
 73
     6
 74
     0
 42
0.0000000001
 43
0.0000000001
 40
0.0
 40
0.0
 40
0.0
 40
0.0
 40
0.0069541430205842
 40
0.0235633077492395
 40
0.0332682957643675
 40
0.0332682957643675
 40
0.0332682957643675
 40
0.0332682957643675
 10
134.0527376249847
 20
374.0333529247351
 30
0.0
 10
134.0759181012213
 20
374.033348113732
 30
0.0
 10
134.1544624586957
 20
374.0333318122056
 30
0.0
 10
134.2653567748633
 20
374.033305765382
 30
0.0
 10
134.3530706150123
 20
374.0332855521525
 30
0.0
 10
134.3854205742033
 20
374.0332780972611
 30
0.0
  0
SPLINE
  5
1D3
330
6C
100
AcDbEntity
  8
Sichtbare Kanten(DIN)
100
AcDbSpline
210
0.0
220
0.0
230
1.0
 70
     8
 71
     3
 72
    10
 73
     6
 74
     0
 42
0.0000000001
 43
0.0000000001
 40
0.0
 40
0.0
 40
0.0
 40
0.0
 40
0.0089865303058279
 40
0.0301677392837074
 40
0.0385831811169096
 40
0.0385831811169096
 40
0.0385831811169096
 40
0.0385831811169096
 10
133.9825494544117
 20
373.6539589248978
 30
0.0
 10
133.9880002089567
 20
373.6834139304641
 30
0.0
 10
134.0062983659115
 20
373.7822942433635
 30
0.0
 10
134.0296840886584
 20
373.9087608218288
 30
0.0
 10
134.0476338361504
 20
374.0057696605171
 30
0.0
 10
134.0527376249847
 20
374.0333529247351
 30
0.0
  0
LINE
  5
1D4
330
6C
100
AcDbEntity
  8
Sichtbare Kanten(DIN)
100
AcDbLine
 10
134.3184873987476
 20
373.6539589248978
 30
0.0
 11
133.9825494544117
 21
373.6539589248978
 31
0.0
  0
SPLINE
  5
1D5
330
6C
100
AcDbEntity
  8
Sichtbare Kanten(DIN)
100
AcDbSpline
210
0.0
220
0.0
230
1.0
 70
    24
 71
     3
 72
    10
 73
     6
 74
     0
 42
0.0000000001
 43
0.0000000001
 40
0.0
 40
0.0
 40
0.0
 40
0.0
 40
0.0322906859289818
 40
0.0922591026542162
 40
0.1245497885832192
 40
0.1245497885832192
 40
0.1245497885832192
 40
0.1245497885832192
 10
134.1019741028491
 20
372.4274243855099
 30
0.0
 10
134.1206851284206
 20
372.5334211975559
 30
0.0
 10
134.174145201482
 20
372.8362692319723
 30
0.0
 10
134.2463163001146
 20
373.2451140784352
 30
0.0
 10
134.299776373176
 20
373.5479621128519
 30
0.0
 10
134.3184873987476
 20
373.6539589248978
 30
0.0
  0
SPLINE
  5
1D6
330
6C
100
AcDbEntity
  8
Sichtbare Kanten(DIN)
100
AcDbSpline
210
0.0
220
0.0
230
1.0
 70
     8
 71
     3
 72
    10
 73
     6
 74
     0
 42
0.0000000001
 43
0.0000000001
 40
0.0
 40
0.0
 40
0.0
 40
0.0
 40
0.0011976530204214
 40
0.0024246863521626
 40
0.0037634452255886
 40
0.0037634452255886
 40
0.0037634452255886
 40
0.0037634452255886
 10
134.1105792623543
 20
372.3919000422482
 30
0.0
 10
134.1082906610766
 20
372.3952002916048
 30
0.0
 10
134.1036573155341
 20
372.4018817506231
 30
0.0
 10
134.1006495119784
 20
372.4144224693313
 30
0.0
 10
134.10151993853
 20
372.4229664003778
 30
0.0
 10
134.1019741028491
 20
372.4274243855099
 30
0.0
  0
SPLINE
  5
1D7
330
6C
100
AcDbEntity
  8
Sichtbare Kanten(DIN)
100
AcDbSpline
210
0.0
220
0.0
230
1.0
 70
     8
 71
     3
 72
    10
 73
     6
 74
     0
 42
0.0000000001
 43
0.0000000001
 40
0.0
 40
0.0
 40
0.0
 40
0.0
 40
0.0013335986207283
 40
0.0025607713672859
 40
0.0037563435304863
 40
0.0037563435304863
 40
0.0037563435304863
 40
0.0037563435304863
 10
134.1439897294767
 20
372.3772338573524
 30
0.0
 10
134.1395388203346
 20
372.3775689996165
 30
0.0
 10
134.1309922003004
 20
372.3782125386098
 30
0.0
 10
134.1191924146063
 20
372.3833544133748
 30
0.0
 10
134.1134252387743
 20
372.3890763770492
 30
0.0
 10
134.1105792623543
 20
372.3919000422482
 30
0.0
  0
LINE
  5
1D8
330
6C
100
AcDbEntity
  8
Sichtbare Kanten(DIN)
100
AcDbLine
 10
134.6135695423023
 20
372.3772338573523
 30
0.0
 11
134.1439897294767
 21
372.3772338573524
 31
0.0
  0
SPLINE
  5
1D9
330
6C
100
AcDbEntity
  8
Sichtbare Kanten(DIN)
100
AcDbSpline
210
0.0
220
0.0
230
1.0
 70
     8
 71
     3
 72
    10
 73
     6
 74
     0
 42
0.0000000001
 43
0.0000000001
 40
0.0
 40
0.0
 40
0.0
 40
0.0
 40
0.002884408395733
 40
0.0058603573834223
 40
0.008730722791757
 40
0.008730722791757
 40
0.008730722791757
 40
0.008730722791757
 10
134.6760878967946
 20
372.4296879165971
 30
0.0
 10
134.6728892815104
 20
372.4205041769667
 30
0.0
 10
134.6663905385705
 20
372.4018452393383
 30
0.0
 10
134.6425965697403
 20
372.3818700721121
 30
0.0
 10
134.6231280183889
 20
372.3787605430596
 30
0.0
 10
134.6135695423023
 20
372.3772338573523
 30
0.0
  0
SPLINE
  5
1DA
330
6C
100
AcDbEntity
  8
Sichtbare Kanten(DIN)
100
AcDbSpline
210
0.0
220
0.0
230
1.0
 70
    24
 71
     3
 72
    10
 73
     6
 74
     0
 42
0.0000000001
 43
0.0000000001
 40
0.0
 40
0.0
 40
0.0
 40
0.0
 40
0.0322305347736034
 40
0.0920872422103211
 40
0.1243177769839368
 40
0.1243177769839368
 40
0.1243177769839368
 40
0.1243177769839368
 10
134.8920774003754
 20
373.6539589248978
 30
0.0
 10
134.8734116408067
 20
373.5481577266496
 30
0.0
 10
134.820080899182
 20
373.2458685887976
 30
0.0
 10
134.7480843979882
 20
372.8377782526974
 30
0.0
 10
134.6947536563633
 20
372.5354891148453
 30
0.0
 10
134.6760878967946
 20
372.4296879165971
 30
0.0
  0
SPLINE
  5
1DB
330
6C
100
AcDbEntity
  8
Sichtbare Kanten(DIN)
100
AcDbSpline
210
0.0
220
0.0
230
1.0
 70
     8
 71
     3
 72
    10
 73
     6
 74
     0
 42
0.0000000001
 43
0.0000000001
 40
0.0
 40
0.0
 40
0.0
 40
0.0
 40
0.0070255321541167
 40
0.0240955647597703
 40
0.0341175880348639
 40
0.0341175880348639
 40
0.0341175880348639
 40
0.0341175880348639
 10
135.2332532678884
 20
373.6540524592403
 30
0.0
 10
135.2098348281254
 20
373.6540465262066
 30
0.0
 10
135.129516281501
 20
373.6540261775987
 30
0.0
 10
135.0157909926864
 20
373.6539936468864
 30
0.0
 10
134.9254841433093
 20
373.6539683009779
 30
0.0
 10
134.8920774003754
 20
373.6539589248978
 30
0.0
  0
SPLINE
  5
1DC
330
6C
100
AcDbEntity
  8
Sichtbare Kanten(DIN)
100
AcDbSpline
210
0.0
220
0.0
230
1.0
 70
     8
 71
     3
 72
    10
 73
     6
 74
     0
 42
0.0000000001
 43
0.0000000001
 40
0.0
 40
0.0
 40
0.0
 40
0.0
 40
0.0080931847187841
 40
0.0290081092340634
 40
0.0385526703223027
 40
0.0385526703223027
 40
0.0385526703223027
 40
0.0385526703223027
 10
135.3031795423026
 20
374.0331845629187
 30
0.0
 10
135.2982944303714
 20
374.0066532709233
 30
0.0
 10
135.2807849003847
 20
373.9115581207362
 30
0.0
 10
135.2574589903776
 20
373.7851839119248
 30
0.0
 10
135.2390285085475
 20
373.6853390980741
 30
0.0
 10
135.2332532678884
 20
373.6540524592403
 30
0.0
  0
SPLINE
  5
1DD
330
6C
100
AcDbEntity
  8
Sichtbare Kanten(DIN)
100
AcDbSpline
210
0.0
220
0.0
230
1.0
 70
     8
 71
     3
 72
    10
 73
     6
 74
     0
 42
0.0000000001
 43
0.0000000001
 40
0.0
 40
0.0
 40
0.0
 40
0.0
 40
0.0085944900037739
 40
0.0248371795447298
 40
0.0344168979205083
 40
0.0344168979205083
 40
0.0344168979205083
 40
0.0344168979205083
 10
134.9590105758311
 20
374.0332780972611
 30
0.0
 10
134.9876588747068
 20
374.0332700289558
 30
0.0
 10
135.0704494699041
 20
374.0332467123953
 30
0.0
 10
135.1851724582965
 20
374.0332138849892
 30
0.0
 10
135.2712471487004
 20
374.0331924973907
 30
0.0
 10
135.3031795423026
 20
374.0331845629187
 30
0.0
  0
SPLINE
  5
1DE
330
6C
100
AcDbEntity
  8
Sichtbare Kanten(DIN)
100
AcDbSpline
210
0.0
220
0.0
230
1.0
 70
    24
 71
     3
 72
    10
 73
     6
 74
     0
 42
0.0000000001
 43
0.0000000001
 40
0.0
 40
0.0
 40
0.0
 40
0.0
 40
0.0182326247372785
 40
0.0520932135351027
 40
0.0703258382723975
 40
0.0703258382723975
 40
0.0703258382723975
 40
0.0703258382723975
 10
135.0813909094901
 20
374.7258063687453
 30
0.0
 10
135.0708148312727
 20
374.6659582465184
 30
0.0
 10
135.0405974649373
 20
374.494963611584
 30
0.0
 10
134.999804020385
 20
374.2641208544224
 30
0.0
 10
134.9695866540488
 20
374.0931262194882
 30
0.0
 10
134.9590105758311
 20
374.0332780972611
 30
0.0
  0
SPLINE
  5
1DF
330
6C
100
AcDbEntity
  8
Sichtbare Kanten(DIN)
100
AcDbSpline
210
0.0
220
0.0
230
1.0
 70
     8
 71
     3
 72
    13
 73
     9
 74
     0
 42
0.0000000001
 43
0.0000000001
 40
0.0
 40
0.0
 40
0.0
 40
0.0
 40
0.0009153978121011
 40
0.0018355697936
 40
0.0028013554832516
 40
0.0031524452850542
 40
0.0034554778335267
 40
0.0037685661646167
 40
0.0037685661646167
 40
0.0037685661646167
 40
0.0037685661646167
 10
135.0727857499847
 20
374.7613307120072
 30
0.0
 10
135.074589134206
 20
374.7588516625236
 30
0.0
 10
135.0782053080259
 20
374.7538806343121
 30
0.0
 10
135.0812992406316
 20
374.744938766055
 30
0.0
 10
135.0822210710626
 20
374.7374889817365
 30
0.0
 10
135.0821058583485
 20
374.7320866841699
 30
0.0
 10
135.0818466521265
 20
374.728870760149
 30
0.0
 10
135.0815444676983
 20
374.7268388866966
 30
0.0
 10
135.0813909094901
 20
374.7258063687453
 30
0.0
  0
SPLINE
  5
1E0
330
6C
100
AcDbEntity
  8
Sichtbare Kanten(DIN)
100
AcDbSpline
210
0.0
220
0.0
230
1.0
 70
     8
 71
     3
 72
    10
 73
     6
 74
     0
 42
0.0000000001
 43
0.0000000001
 40
0.0
 40
0.0
 40
0.0
 40
0.0
 40
0.0013465252378671
 40
0.002579366054444
 40
0.0037763129624145
 40
0.0037763129624145
 40
0.0037763129624145
 40
0.0037763129624145
 10
135.0391882141775
 20
374.77603431064
 30
0.0
 10
135.0436820655904
 20
374.7756997016443
 30
0.0
 10
135.0522903615678
 20
374.7750587340182
 30
0.0
 10
135.0641658570185
 20
374.7699128026218
 30
0.0
 10
135.0699408894481
 20
374.7641630964703
 30
0.0
 10
135.0727857499847
 20
374.7613307120072
 30
0.0
  0
LINE
  5
1E1
330
6C
100
AcDbEntity
  8
Sichtbare Kanten(DIN)
100
AcDbLine
 10
134.5697954700367
 20
374.77603431064
 30
0.0
 11
135.0391882141775
 21
374.77603431064
 31
0.0
  0
SPLINE
  5
1E2
330
6C
100
AcDbEntity
  8
Sichtbare Kanten(DIN)
100
AcDbSpline
210
0.0
220
0.0
230
1.0
 70
     8
 71
     3
 72
    10
 73
     6
 74
     0
 42
0.0000000001
 43
0.0000000001
 40
0.0
 40
0.0
 40
0.0
 40
0.0
 40
0.0028803210317032
 40
0.0058519686951348
 40
0.0087369137882425
 40
0.0087369137882425
 40
0.0087369137882425
 40
0.0087369137882425
 10
134.5072771155445
 20
374.7235802513952
 30
0.0
 10
134.5104361871615
 20
374.7327659772605
 30
0.0
 10
134.5168544954002
 20
374.7514286817347
 30
0.0
 10
134.5406774148247
 20
374.7714245332661
 30
0.0
 10
134.5601857203623
 20
374.7745129588088
 30
0.0
 10
134.5697954700367
 20
374.77603431064
 30
0.0
  0
SPLINE
  5
1E3
330
6C
100
AcDbEntity
  8
Sichtbare Kanten(DIN)
100
AcDbSpline
210
0.0
220
0.0
230
1.0
 70
     8
 71
     3
 72
    10
 73
     6
 74
     0
 42
0.0000000001
 43
0.0000000001
 40
0.0
 40
0.0
 40
0.0
 40
0.0
 40
0.0252654322997131
 40
0.0957656423607572
 40
0.1376601168577756
 40
0.1376601168577756
 40
0.1376601168577756
 40
0.1376601168577756
 10
135.445987776352
 20
374.0328478392858
 30
0.0
 10
135.5302058763878
 20
374.0328836895072
 30
0.0
 10
135.8494246553368
 20
374.0330195755449
 30
0.0
 10
136.3082916670984
 20
374.033221538775
 30
0.0
 10
136.6829405797957
 20
374.0333853859734
 30
0.0
 10
136.8225888147637
 20
374.0334464590775
 30
0.0
  0
SPLINE
  5
1E4
330
6C
100
AcDbEntity
  8
Sichtbare Kanten(DIN)
100
AcDbSpline
210
0.0
220
0.0
230
1.0
 70
     8
 71
     3
 72
    10
 73
     6
 74
     0
 42
0.0000000001
 43
0.0000000001
 40
0.0
 40
0.0
 40
0.0
 40
0.0
 40
0.0094349795884223
 40
0.0310155613435572
 40
0.0385705843723002
 40
0.0385705843723002
 40
0.0385705843723002
 40
0.0385705843723002
 10
135.375986674464
 20
373.6535473737911
 30
0.0
 10
135.3816931276142
 20
373.6844752675754
 30
0.0
 10
135.400451922594
 20
373.7861443785583
 30
0.0
 10
135.423806697366
 20
373.9125739780948
 30
0.0
 10
135.4414204366107
 20
374.0080820654295
 30
0.0
 10
135.445987776352
 20
374.0328478392858
 30
0.0
  0
SPLINE
  5
1E5
330
6C
100
AcDbEntity
  8
Sichtbare Kanten(DIN)
100
AcDbSpline
210
0.0
220
0.0
230
1.0
 70
     8
 71
     3
 72
    10
 73
     6
 74
     0
 42
0.0000000001
 43
0.0000000001
 40
0.0
 40
0.0
 40
0.0
 40
0.0
 40
0.0205201904550196
 40
0.0589191614668962
 40
0.0804545125807215
 40
0.0804545125807215
 40
0.0804545125807215
 40
0.0804545125807215
 10
136.1805316744642
 20
373.6539963386348
 30
0.0
 10
136.1121310491876
 20
373.6539601789599
 30
0.0
 10
135.915733871786
 20
373.6538563544983
 30
0.0
 10
135.6475521978446
 20
373.6537190270581
 30
0.0
 10
135.4477711638803
 20
373.6535927478944
 30
0.0
 10
135.375986674464
 20
373.6535473737911
 30
0.0
  0
SPLINE
  5
1E6
330
6C
100
AcDbEntity
  8
Sichtbare Kanten(DIN)
100
AcDbSpline
210
0.0
220
0.0
230
1.0
 70
     8
 71
     3
 72
    10
 73
     6
 74
     0
 42
0.0000000001
 43
0.0000000001
 40
0.0
 40
0.0
 40
0.0
 40
0.0
 40
0.000227595214391
 40
0.0269132959685959
 40
0.119668433366708
 40
0.119668433366708
 40
0.119668433366708
 40
0.119668433366708
 10
135.273510448878
 20
372.873377423433
 30
0.0
 10
135.2740854389345
 20
372.8738723348814
 30
0.0
 10
135.3420784220557
 20
372.9323959656325
 30
0.0
 10
135.6444255990585
 20
373.1925944067103
 30
0.0
 10
135.9461889045072
 20
373.4523082553411
 30
0.0
 10
136.1805316744642
 20
373.6539963386348
 30
0.0
  0
SPLINE
  5
1E7
330
6C
100
AcDbEntity
  8
Sichtbare Kanten(DIN)
100
AcDbSpline
210
0.0
220
0.0
230
1.0
 70
     8
 71
     3
 72
    10
 73
     6
 74
     0
 42
0.0000000001
 43
0.0000000001
 40
0.0
 40
0.0
 40
0.0
 40
0.0
 40
0.0054675832229401
 40
0.0103154944328541
 40
0.0116913853705737
 40
0.0116913853705737
 40
0.0116913853705737
 40
0.0116913853705737
 10
135.1899281604665
 20
372.7918341836869
 30
0.0
 10
135.2020381767705
 20
372.8054738112713
 30
0.0
 10
135.2248857129983
 20
372.8312072105952
 30
0.0
 10
135.2540228022392
 20
372.8571963423228
 30
0.0
 10
135.2699822963451
 20
372.8704479100156
 30
0.0
 10
135.273510448878
 20
372.873377423433
 30
0.0
  0
SPLINE
  5
1E8
330
6C
100
AcDbEntity
  8
Sichtbare Kanten(DIN)
100
AcDbSpline
210
0.0
220
0.0
230
1.0
 70
     8
 71
     3
 72
    10
 73
     6
 74
     0
 42
0.0000000001
 43
0.0000000001
 40
0.0
 40
0.0
 40
0.0
 40
0.0
 40
0.0010828037756266
 40
0.0051618292639181
 40
0.0124807175523065
 40
0.0124807175523065
 40
0.0124807175523065
 40
0.0124807175523065
 10
135.1348177258963
 20
372.6809585741492
 30
0.0
 10
135.1354925201586
 20
372.6845051833482
 30
0.0
 10
135.1387093290103
 20
372.7014122089451
 30
0.0
 10
135.1538057106744
 20
372.7407021850321
 30
0.0
 10
135.1758030885759
 20
372.7718398820528
 30
0.0
 10
135.1899281604665
 20
372.7918341836869
 30
0.0
  0
SPLINE
  5
1E9
330
6C
100
AcDbEntity
  8
Sichtbare Kanten(DIN)
100
AcDbSpline
210
0.0
220
0.0
230
1.0
 70
     8
 71
     3
 72
    10
 73
     6
 74
     0
 42
0.0000000001
 43
0.0000000001
 40
0.0
 40
0.0
 40
0.0
 40
0.0
 40
0.000165861301487
 40
0.0110630104919147
 40
0.0255781303280148
 40
0.0255781303280148
 40
0.0255781303280148
 40
0.0255781303280148
 10
135.0880879684092
 20
372.4294821410438
 30
0.0
 10
135.0881912116481
 20
372.4300252867154
 30
0.0
 10
135.0950775740736
 20
372.4662533050077
 30
0.0
 10
135.1104534819425
 20
372.5501165609586
 30
0.0
 10
135.1259603993648
 20
372.6333925410286
 30
0.0
 10
135.1348177258963
 20
372.6809585741492
 30
0.0
  0
SPLINE
  5
1EA
330
6C
100
AcDbEntity
  8
Sichtbare Kanten(DIN)
100
AcDbSpline
210
0.0
220
0.0
230
1.0
 70
     8
 71
     3
 72
    10
 73
     6
 74
     0
 42
0.0000000001
 43
0.0000000001
 40
0.0
 40
0.0
 40
0.0
 40
0.0
 40
0.0002977292952452
 40
0.0005190836882035
 40
0.0006010848843524
 40
0.0006010848843524
 40
0.0006010848843524
 40
0.0006010848843524
 10
135.0876764173024
 20
372.4235146499956
 30
0.0
 10
135.0876129639649
 20
372.4245073936222
 30
0.0
 10
135.087502334635
 20
372.4262382176673
 30
0.0
 10
135.0877778360653
 20
372.4282357761548
 30
0.0
 10
135.0880219744417
 20
372.4292169234177
 30
0.0
 10
135.0880879684092
 20
372.4294821410438
 30
0.0
  0
SPLINE
  5
1EB
330
6C
100
AcDbEntity
  8
Sichtbare Kanten(DIN)
100
AcDbSpline
210
0.0
220
0.0
230
1.0
 70
     8
 71
     3
 72
    10
 73
     6
 74
     0
 42
0.0000000001
 43
0.0000000001
 40
0.0
 40
0.0
 40
0.0
 40
0.0
 40
0.0011286606721423
 40
0.0022940769505922
 40
0.0035590350523297
 40
0.0035590350523297
 40
0.0035590350523297
 40
0.0035590350523297
 10
135.0978903674978
 20
372.3903847859006
 30
0.0
 10
135.0956020763474
 20
372.3933968643962
 30
0.0
 10
135.0909509742812
 20
372.3995191117825
 30
0.0
 10
135.0874056397979
 20
372.4111559366495
 30
0.0
 10
135.0875837268071
 20
372.4192841092659
 30
0.0
 10
135.0876764173024
 20
372.4235146499956
 30
0.0
  0
SPLINE
  5
1EC
330
6C
100
AcDbEntity
  8
Sichtbare Kanten(DIN)
100
AcDbSpline
210
0.0
220
0.0
230
1.0
 70
     8
 71
     3
 72
    10
 73
     6
 74
     0
 42
0.0000000001
 43
0.0000000001
 40
0.0
 40
0.0
 40
0.0
 40
0.0
 40
0.0012501309451573
 40
0.0024010038050724
 40
0.0035125844605094
 40
0.0035125844605094
 40
0.0035125844605094
 40
0.0035125844605094
 10
135.1294675615082
 20
372.3772338573524
 30
0.0
 10
135.1252963321
 20
372.3775352971594
 30
0.0
 10
135.1172850611852
 20
372.3781142430102
 30
0.0
 10
135.1061841101238
 20
372.3826970876668
 30
0.0
 10
135.100622753537
 20
372.387852062102
 30
0.0
 10
135.0978903674978
 20
372.3903847859006
 30
0.0
  0
LINE
  5
1ED
330
6C
100
AcDbEntity
  8
Sichtbare Kanten(DIN)
100
AcDbLine
 10
136.4884841435398
 20
372.3772338573523
 30
0.0
 11
135.1294675615082
 21
372.3772338573524
 31
0.0
  0
SPLINE
  5
1EE
330
6C
100
AcDbEntity
  8
Sichtbare Kanten(DIN)
100
AcDbSpline
210
0.0
220
0.0
230
1.0
 70
     8
 71
     3
 72
    10
 73
     6
 74
     0
 42
0.0000000001
 43
0.0000000001
 40
0.0
 40
0.0
 40
0.0
 40
0.0
 40
0.0057504749587655
 40
0.0123008629642526
 40
0.0210879509398231
 40
0.0210879509398231
 40
0.0210879509398231
 40
0.0210879509398231
 10
136.6590159566908
 20
372.4759687092404
 30
0.0
 10
136.6511600370957
 20
372.4580267142902
 30
0.0
 10
136.6343554094623
 20
372.4196469243123
 30
0.0
 10
136.5689731901487
 20
372.3830907220073
 30
0.0
 10
136.5178013297444
 20
372.3793671512463
 30
0.0
 10
136.4884841435398
 20
372.3772338573523
 30
0.0
  0
SPLINE
  5
1EF
330
6C
100
AcDbEntity
  8
Sichtbare Kanten(DIN)
100
AcDbSpline
210
0.0
220
0.0
230
1.0
 70
     8
 71
     3
 72
    10
 73
     6
 74
     0
 42
0.0000000001
 43
0.0000000001
 40
0.0
 40
0.0
 40
0.0
 40
0.0
 40
0.0000230670853742
 40
0.0001617868674109
 40
0.0267802765649739
 40
0.0267802765649739
 40
0.0267802765649739
 40
0.0267802765649739
 10
136.7044736471205
 20
372.7398852098913
 30
0.0
 10
136.7044607574086
 20
372.7398094076999
 30
0.0
 10
136.7043703521366
 20
372.7392777497602
 30
0.0
 10
136.68920613246
 20
372.6513075274861
 30
0.0
 10
136.6740718134771
 20
372.5634102715807
 30
0.0
 10
136.6590159566908
 20
372.4759687092404
 30
0.0
  0
SPLINE
  5
1F0
330
6C
100
AcDbEntity
  8
Sichtbare Kanten(DIN)
100
AcDbSpline
210
0.0
220
0.0
230
1.0
 70
     8
 71
     3
 72
    10
 73
     6
 74
     0
 42
0.0000000001
 43
0.0000000001
 40
0.0
 40
0.0
 40
0.0
 40
0.0
 40
0.0011946223348497
 40
0.0024222120206529
 40
0.003763733280748
 40
0.003763733280748
 40
0.003763733280748
 40
0.003763733280748
 10
136.6958684876154
 20
372.7754095531532
 30
0.0
 10
136.6981553636982
 20
372.7721201874198
 30
0.0
 10
136.702792225555
 20
372.7654506810936
 30
0.0
 10
136.7057978455274
 20
372.752907061435
 30
0.0
 10
136.7049279062331
 20
372.7443522857429
 30
0.0
 10
136.7044736471205
 20
372.7398852098913
 30
0.0
  0
SPLINE
  5
1F1
330
6C
100
AcDbEntity
  8
Sichtbare Kanten(DIN)
100
AcDbSpline
210
0.0
220
0.0
230
1.0
 70
     8
 71
     3
 72
    10
 73
     6
 74
     0
 42
0.0000000001
 43
0.0000000001
 40
0.0
 40
0.0
 40
0.0
 40
0.0
 40
0.0013419134339858
 40
0.0025693141130201
 40
0.0037660789080789
 40
0.0037660789080789
 40
0.0037660789080789
 40
0.0037660789080789
 10
136.662345779282
 20
372.7900570311805
 30
0.0
 10
136.6668248519412
 20
372.7897245566321
 30
0.0
 10
136.6754007736847
 20
372.7890879793932
 30
0.0
 10
136.6872368752879
 20
372.7839493125236
 30
0.0
 10
136.6930156268889
 20
372.7782320552764
 30
0.0
 10
136.6958684876154
 20
372.7754095531532
 30
0.0
  0
LINE
  5
1F2
330
6C
100
AcDbEntity
  8
Sichtbare Kanten(DIN)
100
AcDbLine
 10
135.850318031886
 20
372.7900570311805
 30
0.0
 11
136.662345779282
 21
372.7900570311805
 31
0.0
  0
SPLINE
  5
1F3
330
6C
100
AcDbEntity
  8
Sichtbare Kanten(DIN)
100
AcDbSpline
210
0.0
220
0.0
230
1.0
 70
     8
 71
     3
 72
    10
 73
     6
 74
     0
 42
0.0000000001
 43
0.0000000001
 40
0.0
 40
0.0
 40
0.0
 40
0.0
 40
0.0001524481033975
 40
0.0078441775005177
 40
0.1133354817741845
 40
0.1133354817741845
 40
0.1133354817741845
 40
0.1133354817741845
 10
136.6921645276545
 20
373.5488637377234
 30
0.0
 10
136.6917867242106
 20
373.5485238973256
 30
0.0
 10
136.6723469462952
 20
373.5310374980754
 30
0.0
 10
136.391826614979
 20
373.2779962023912
 30
0.0
 10
136.1115487151149
 20
373.0254451432978
 30
0.0
 10
135.850318031886
 20
372.7900570311805
 30
0.0
  0
SPLINE
  5
1F4
330
6C
100
AcDbEntity
  8
Sichtbare Kanten(DIN)
100
AcDbSpline
210
0.0
220
0.0
230
1.0
 70
     8
 71
     3
 72
    10
 73
     6
 74
     0
 42
0.0000000001
 43
0.0000000001
 40
0.0
 40
0.0
 40
0.0
 40
0.0
 40
0.0058095501940466
 40
0.013282127799746
 40
0.0163935577086522
 40
0.0163935577086522
 40
0.0163935577086522
 40
0.0163935577086522
 10
136.800701778631
 20
373.6706267447222
 30
0.0
 10
136.7903776247667
 20
373.6541672274336
 30
0.0
 10
136.7667739503911
 20
373.6165365323117
 30
0.0
 10
136.726555067418
 20
373.5788231444952
 30
0.0
 10
136.6999776226798
 20
373.5556701354601
 30
0.0
 10
136.6921645276545
 20
373.5488637377234
 30
0.0
  0
SPLINE
  5
1F5
330
6C
100
AcDbEntity
  8
Sichtbare Kanten(DIN)
100
AcDbSpline
210
0.0
220
0.0
230
1.0
 70
     8
 71
     3
 72
    10
 73
     6
 74
     0
 42
0.0000000001
 43
0.0000000001
 40
0.0
 40
0.0
 40
0.0
 40
0.0
 40
0.0002284761255046
 40
0.002237644999733
 40
0.0072479849988259
 40
0.0072479849988259
 40
0.0072479849988259
 40
0.0072479849988259
 10
136.8231874345554
 20
373.7394119001583
 30
0.0
 10
136.8230621521163
 20
373.738660655609
 30
0.0
 10
136.8218351634194
 20
373.7313031314676
 30
0.0
 10
136.8156534218289
 20
373.7078734976828
 30
0.0
 10
136.8069290236081
 20
373.6861397323061
 30
0.0
 10
136.800701778631
 20
373.6706267447222
 30
0.0
  0
SPLINE
  5
1F6
330
6C
100
AcDbEntity
  8
Sichtbare Kanten(DIN)
100
AcDbSpline
210
0.0
220
0.0
230
1.0
 70
    24
 71
     3
 72
    10
 73
     6
 74
     0
 42
0.0000000001
 43
0.0000000001
 40
0.0
 40
0.0
 40
0.0
 40
0.0
 40
0.0064119561058975
 40
0.0183198745882612
 40
0.0247318306941419
 40
0.0247318306941419
 40
0.0247318306941419
 40
0.0247318306941419
 10
136.8647166826024
 20
373.9832185171828
 30
0.0
 10
136.8611277352403
 20
373.9621488095388
 30
0.0
 10
136.8508735999202
 20
373.9019496448413
 30
0.0
 10
136.8370305172379
 20
373.8206807724998
 30
0.0
 10
136.8267763819176
 20
373.7604816078023
 30
0.0
 10
136.8231874345554
 20
373.7394119001583
 30
0.0
  0
SPLINE
  5
1F7
330
6C
100
AcDbEntity
  8
Sichtbare Kanten(DIN)
100
AcDbSpline
210
0.0
220
0.0
230
1.0
 70
     8
 71
     3
 72
    10
 73
     6
 74
     0
 42
0.0000000001
 43
0.0000000001
 40
0.0
 40
0.0
 40
0.0
 40
0.0
 40
0.0011917736229571
 40
0.0024172950002037
 40
0.0037576555674698
 40
0.0037576555674698
 40
0.0037576555674698
 40
0.0037576555674698
 10
136.8561863505712
 20
374.0187054467078
 30
0.0
 10
136.8584601737445
 20
374.0154186455992
 30
0.0
 10
136.8630722085155
 20
374.0087519702058
 30
0.0
 10
136.8660477005851
 20
373.9962242126775
 30
0.0
 10
136.8651733987465
 20
373.9876812000139
 30
0.0
 10
136.8647166826024
 20
373.9832185171828
 30
0.0
  0
SPLINE
  5
1F8
330
6C
100
AcDbEntity
  8
Sichtbare Kanten(DIN)
100
AcDbSpline
210
0.0
220
0.0
230
1.0
 70
     8
 71
     3
 72
    10
 73
     6
 74
     0
 42
0.0000000001
 43
0.0000000001
 40
0.0
 40
0.0
 40
0.0
 40
0.0
 40
0.0013485889265994
 40
0.0025802332752695
 40
0.003778716377513
 40
0.003778716377513
 40
0.003778716377513
 40
0.003778716377513
 10
136.8225888147637
 20
374.0334464590775
 30
0.0
 10
136.8270898894968
 20
374.0331127350926
 30
0.0
 10
136.8357017226295
 20
374.0324742264162
 30
0.0
 10
136.8475812954488
 20
374.0273123250895
 30
0.0
 10
136.8533442122356
 20
374.0215481872423
 30
0.0
 10
136.8561863505712
 20
374.0187054467078
 30
0.0
  0
SPLINE
  5
1F9
330
6C
100
AcDbEntity
  8
Sichtbare Kanten(DIN)
100
AcDbSpline
210
0.0
220
0.0
230
1.0
 70
     8
 71
     3
 72
    10
 73
     6
 74
     0
 42
0.0000000001
 43
0.0000000001
 40
0.0
 40
0.0
 40
0.0
 40
0.0
 40
0.0013399459018975
 40
0.0025686710072605
 40
0.0037651661134934
 40
0.0037651661134934
 40
0.0037651661134934
 40
0.0037651661134934
 10
131.106387131006
 20
372.3772338573524
 30
0.0
 10
131.1019146995657
 20
372.3775699966475
 30
0.0
 10
131.0933410661404
 20
372.37821437435
 30
0.0
 10
131.0815182065778
 20
372.383379364356
 30
0.0
 10
131.0757484004918
 20
372.3891101452072
 30
0.0
 10
131.0729018364096
 20
372.3919374559852
 30
0.0
  0
LINE
  5
1FA
330
6C
100
AcDbEntity
  8
Sichtbare Kanten(DIN)
100
AcDbLine
 10
131.5758172888837
 20
372.3772338573523
 30
0.0
 11
131.106387131006
 21
372.3772338573524
 31
0.0
  0
SPLINE
  5
1FB
330
6C
100
AcDbEntity
  8
Sichtbare Kanten(DIN)
100
AcDbSpline
210
0.0
220
0.0
230
1.0
 70
     8
 71
     3
 72
    10
 73
     6
 74
     0
 42
0.0000000001
 43
0.0000000001
 40
0.0
 40
0.0
 40
0.0
 40
0.0
 40
0.0028807590428643
 40
0.0058547115525468
 40
0.0087324469895122
 40
0.0087324469895122
 40
0.0087324469895122
 40
0.0087324469895122
 10
131.6383169365074
 20
372.4296879165971
 30
0.0
 10
131.6351427223732
 20
372.4205073031048
 30
0.0
 10
131.6286916072727
 20
372.4018490803683
 30
0.0
 10
131.6048902684433
 20
372.3818609112134
 30
0.0
 10
131.5854014664244
 20
372.3787592086017
 30
0.0
 10
131.5758172888837
 20
372.3772338573523
 30
0.0
  0
SPLINE
  5
1FC
330
6C
100
AcDbEntity
  8
Sichtbare Kanten(DIN)
100
AcDbSpline
210
0.0
220
0.0
230
1.0
 70
    24
 71
     3
 72
    10
 73
     6
 74
     0
 42
0.0000000001
 43
0.0000000001
 40
0.0
 40
0.0
 40
0.0
 40
0.0
 40
0.0604489515376169
 40
0.1727112901073986
 40
0.233160241644971
 40
0.233160241644971
 40
0.233160241644971
 40
0.233160241644971
 10
132.0435451217289
 20
374.7258063687453
 30
0.0
 10
132.0085254020183
 20
374.5273763790536
 30
0.0
 10
131.9084690599881
 20
373.9604335513626
 30
0.0
 10
131.7733929982475
 20
373.1950607339798
 30
0.0
 10
131.6733366562178
 20
372.628117906289
 30
0.0
 10
131.6383169365074
 20
372.4296879165971
 30
0.0
  0
SPLINE
  5
1FD
330
6C
100
AcDbEntity
  8
Sichtbare Kanten(DIN)
100
AcDbSpline
210
0.0
220
0.0
230
1.0
 70
     8
 71
     3
 72
    10
 73
     6
 74
     0
 42
0.0000000001
 43
0.0000000001
 40
0.0
 40
0.0
 40
0.0
 40
0.0
 40
0.0012007305691038
 40
0.0024313463641171
 40
0.003774918447834
 40
0.003774918447834
 40
0.003774918447834
 40
0.003774918447834
 10
132.0348464278812
 20
374.7614242463496
 30
0.0
 10
132.0371481064231
 20
374.7581201870494
 30
0.0
 10
132.0418087504496
 20
374.7514298330492
 30
0.0
 10
132.0448396671167
 20
374.7388546543896
 30
0.0
 10
132.04398907824
 20
374.7302811993884
 30
0.0
 10
132.0435451217289
 20
374.7258063687453
 30
0.0
  0
SPLINE
  5
1FE
330
6C
100
AcDbEntity
  8
Sichtbare Kanten(DIN)
100
AcDbSpline
210
0.0
220
0.0
230
1.0
 70
     8
 71
     3
 72
    10
 73
     6
 74
     0
 42
0.0000000001
 43
0.0000000001
 40
0.0
 40
0.0
 40
0.0
 40
0.0
 40
0.0013378495582371
 40
0.0025628632467764
 40
0.0037540210969504
 40
0.0037540210969504
 40
0.0037540210969504
 40
0.0037540210969504
 10
132.0014359607588
 20
374.77603431064
 30
0.0
 10
132.0059011990741
 20
374.7757011025358
 30
0.0
 10
132.0144550720384
 20
374.7750627895069
 30
0.0
 10
132.0262533843218
 20
374.769938387488
 30
0.0
 10
132.0320089627681
 20
374.7642356574965
 30
0.0
 10
132.0348464278812
 20
374.7614242463496
 30
0.0
  0
LINE
  5
1FF
330
6C
100
AcDbEntity
  8
Sichtbare Kanten(DIN)
100
AcDbLine
 10
131.5320619234866
 20
374.77603431064
 30
0.0
 11
132.0014359607588
 21
374.77603431064
 31
0.0
  0
SPLINE
  5
200
330
6C
100
AcDbEntity
  8
Sichtbare Kanten(DIN)
100
AcDbSpline
210
0.0
220
0.0
230
1.0
 70
     8
 71
     3
 72
    10
 73
     6
 74
     0
 42
0.0000000001
 43
0.0000000001
 40
0.0
 40
0.0
 40
0.0
 40
0.0
 40
0.0028822582435835
 40
0.005855999716643
 40
0.0087345798676043
 40
0.0087345798676043
 40
0.0087345798676043
 40
0.0087345798676043
 10
131.4695435689943
 20
374.7235802513952
 30
0.0
 10
131.4727173888976
 20
374.7327670069308
 30
0.0
 10
131.4791657661363
 20
374.7514321067472
 30
0.0
 10
131.5029836229008
 20
374.7714139322212
 30
0.0
 10
131.5224748016695
 20
374.7745109709038
 30
0.0
 10
131.5320619234866
 20
374.77603431064
 30
0.0
  0
SPLINE
  5
201
330
6C
100
AcDbEntity
  8
Sichtbare Kanten(DIN)
100
AcDbSpline
210
0.0
220
0.0
230
1.0
 70
    24
 71
     3
 72
    10
 73
     6
 74
     0
 42
0.0000000001
 43
0.0000000001
 40
0.0
 40
0.0
 40
0.0
 40
0.0
 40
0.0604501596472246
 40
0.1727147418492844
 40
0.2331649014965384
 40
0.2331649014965384
 40
0.2331649014965384
 40
0.2331649014965384
 10
131.0642592631674
 20
372.4274243855099
 30
0.0
 10
131.0992838328066
 20
372.6258576084877
 30
0.0
 10
131.1993540317758
 20
373.1928096741384
 30
0.0
 10
131.3344488003851
 20
373.9581949627667
 30
0.0
 10
131.4345189993549
 20
374.5251470284173
 30
0.0
 10
131.4695435689943
 20
374.7235802513952
 30
0.0
  0
SPLINE
  5
202
330
6C
100
AcDbEntity
  8
Sichtbare Kanten(DIN)
100
AcDbSpline
210
0.0
220
0.0
230
1.0
 70
     8
 71
     3
 72
    10
 73
     6
 74
     0
 42
0.0000000001
 43
0.0000000001
 40
0.0
 40
0.0
 40
0.0
 40
0.0
 40
0.0011950635321324
 40
0.0024213891508237
 40
0.0037609971570718
 40
0.0037609971570718
 40
0.0037609971570718
 40
0.0037609971570718
 10
131.0729018364096
 20
372.3919374559852
 30
0.0
 10
131.0706099037352
 20
372.395225186743
 30
0.0
 10
131.0659660829148
 20
372.4018866531622
 30
0.0
 10
131.0629497829038
 20
372.4144181815541
 30
0.0
 10
131.063810109014
 20
372.4229632334866
 30
0.0
 10
131.0642592631674
 20
372.4274243855099
 30
0.0
  0
SPLINE
  5
203
330
6C
100
AcDbEntity
  8
Sichtbare Kanten(DIN)
100
AcDbSpline
210
0.0
220
0.0
230
1.0
 70
     8
 71
     3
 72
    17
 73
    13
 74
     0
 42
0.0000000001
 43
0.0000000001
 40
-0.0001317261390849
 40
-0.0001317261390849
 40
-0.0001317261390849
 40
-0.0001317261390849
 40
0.0
 40
0.0
 40
0.0
 40
0.018805102356413
 40
0.018805102356413
 40
0.0376102047128261
 40
0.0376102047128261
 40
0.056820972269143
 40
0.056820972269143
 40
0.075916853239034
 40
0.075916853239034
 40
0.075916853239034
 40
0.075916853239034
 10
136.1136429961235
 20
362.5993277667425
 30
0.0
 10
136.1136430656601
 20
362.5993332821908
 30
0.0
 10
136.1136425218218
 20
362.5993386589623
 30
0.0
 10
136.1136413646875
 20
362.5993438970013
 30
0.0
 10
136.1134761732609
 20
362.6000916746382
 30
0.0
 10
136.100784660853
 20
362.5981071966778
 30
0.0
 10
136.0498306341104
 20
362.5885106511065
 30
0.0
 10
136.0115766716637
 20
362.5809231187529
 30
0.0
 10
135.9229818561693
 20
362.563309348978
 30
0.0
 10
135.8663853582879
 20
362.5520424523106
 30
0.0
 10
135.7429882680399
 20
362.5279184271684
 30
0.0
 10
135.6762481901658
 20
362.5150918940236
 30
0.0
 10
135.6136431005615
 20
362.5033085977245
 30
0.0
  0
SPLINE
  5
204
330
6C
100
AcDbEntity
  8
Sichtbare Kanten(DIN)
100
AcDbSpline
210
0.0
220
0.0
230
1.0
 70
     8
 71
     3
 72
    16
 73
    12
 74
     0
 42
0.0000000001
 43
0.0000000001
 40
0.0760502806032574
 40
0.0760502806032574
 40
0.0760502806032574
 40
0.0760502806032574
 40
0.0951461615731485
 40
0.0951461615731485
 40
0.1143569291294654
 40
0.1143569291294654
 40
0.1331620314858784
 40
0.1331620314858784
 40
0.1519671338422915
 40
0.1519671338422915
 40
0.1520988599813764
 40
0.1520988599813764
 40
0.1520988599813764
 40
0.1520988599813764
 10
129.6136431017647
 20
362.5033085977245
 30
0.0
 10
129.5510380121604
 20
362.5150918940236
 30
0.0
 10
129.4842979342863
 20
362.5279184271684
 30
0.0
 10
129.3609008440383
 20
362.5520424523106
 30
0.0
 10
129.3043043461569
 20
362.563309348978
 30
0.0
 10
129.2157095306625
 20
362.5809231187529
 30
0.0
 10
129.1774555682158
 20
362.5885106511065
 30
0.0
 10
129.1265015414732
 20
362.5981071966778
 30
0.0
 10
129.1138100290653
 20
362.6000916746382
 30
0.0
 10
129.1136436805044
 20
362.5993386589623
 30
0.0
 10
129.1136431366661
 20
362.5993332821908
 30
0.0
 10
129.1136432062027
 20
362.5993277667425
 30
0.0
  0
ARC
  5
205
330
6C
100
AcDbEntity
  8
Sichtbare Kanten(DIN)
100
AcDbCircle
 10
132.6136431011631
 20
378.4429048121743
 30
0.0
 40
16.21945521834459
100
AcDbArc
 50
259.3410215235197
 51
280.6589784764802
  0
LINE
  5
206
330
6C
100
AcDbEntity
  8
Sichtbare Kanten(DIN)
100
AcDbLine
 10
136.1136431011631
 20
362.5993280218712
 30
0.0
 11
136.1136431011631
 21
362.5743037396158
 31
0.0
  0
LINE
  5
207
330
6C
100
AcDbEntity
  8
Sichtbare Kanten(DIN)
100
AcDbLine
 10
129.1136431011631
 20
362.5743037396158
 30
0.0
 11
129.1136431011631
 21
362.5993280218712
 31
0.0
  0
ARC
  5
208
330
6C
100
AcDbEntity
  8
Sichtbare Kanten(DIN)
100
AcDbCircle
 10
132.6136431011631
 20
378.4429048121742
 30
0.0
 40
16.25000000000007
100
AcDbArc
 50
180.0
 51
257.5619071849447
  0
LINE
  5
209
330
6C
100
AcDbEntity
  8
Sichtbare Kanten(DIN)
100
AcDbLine
 10
116.363643101163
 20
418.2429048121742
 30
0.0
 11
116.363643101163
 21
378.4429048121741
 31
0.0
  0
ARC
  5
20A
330
6C
100
AcDbEntity
  8
Sichtbare Kanten(DIN)
100
AcDbCircle
 10
132.6136431011631
 20
418.2429048121742
 30
0.0
 40
16.25000000000007
100
AcDbArc
 50
0.0
 51
180.0
  0
LINE
  5
20B
330
6C
100
AcDbEntity
  8
Sichtbare Kanten(DIN)
100
AcDbLine
 10
148.8636431011632
 20
378.4429048121742
 30
0.0
 11
148.8636431011632
 21
388.3429048121741
 31
0.0
  0
LINE
  5
20C
330
6C
100
AcDbEntity
  8
Sichtbare Kanten(DIN)
100
AcDbLine
 10
148.8636431011632
 20
408.342904812174
 30
0.0
 11
148.8636431011632
 21
418.2429048121742
 31
0.0
  0
ARC
  5
20D
330
6C
100
AcDbEntity
  8
Sichtbare Kanten(DIN)
100
AcDbCircle
 10
132.6136431011631
 20
378.4429048121742
 30
0.0
 40
16.25000000000007
100
AcDbArc
 50
282.4380928150553
 51
0.0
  0
LINE
  5
20E
330
6C
100
AcDbEntity
  8
Sichtbare tangentiale Kanten(DIN)
100
AcDbLine
 10
148.8636431011632
 20
378.4429048121742
 30
0.0
 11
148.7143158874356
 21
378.4429048121742
 31
0.0
  0
LINE
  5
20F
330
6C
100
AcDbEntity
  8
Sichtbare tangentiale Kanten(DIN)
100
AcDbLine
 10
116.363643101163
 20
378.4429048121741
 30
0.0
 11
116.5129703148906
 21
378.4429048121742
 31
0.0
  0
LINE
  5
210
330
6C
100
AcDbEntity
  8
Sichtbare tangentiale Kanten(DIN)
100
AcDbLine
 10
116.363643101163
 20
418.2429048121742
 30
0.0
 11
116.5129703148906
 21
418.2429048121742
 31
0.0
  0
LINE
  5
211
330
6C
100
AcDbEntity
  8
Sichtbare tangentiale Kanten(DIN)
100
AcDbLine
 10
148.8636431011632
 20
418.2429048121742
 30
0.0
 11
148.7143158874356
 21
418.2429048121742
 31
0.0
  0
ARC
  5
212
330
6C
100
AcDbEntity
  8
Sichtbare tangentiale Kanten(DIN)
100
AcDbCircle
 10
132.6136431011631
 20
378.4429048121742
 30
0.0
 40
16.10067278627245
100
AcDbArc
 50
180.0
 51
0.0
  0
LINE
  5
213
330
6C
100
AcDbEntity
  8
Sichtbare tangentiale Kanten(DIN)
100
AcDbLine
 10
118.3128359802795
 20
378.4429048121742
 30
0.0
 11
116.5129703148906
 21
378.4429048121742
 31
0.0
  0
LINE
  5
214
330
6C
100
AcDbEntity
  8
Sichtbare tangentiale Kanten(DIN)
100
AcDbLine
 10
118.3128359802795
 20
378.4429048121742
 30
0.0
 11
118.3128359802795
 21
418.2429048121742
 31
0.0
  0
LINE
  5
215
330
6C
100
AcDbEntity
  8
Sichtbare tangentiale Kanten(DIN)
100
AcDbLine
 10
116.5129703148906
 20
418.2429048121742
 30
0.0
 11
118.3128359802795
 21
418.2429048121742
 31
0.0
  0
LINE
  5
216
330
6C
100
AcDbEntity
  8
Sichtbare tangentiale Kanten(DIN)
100
AcDbLine
 10
116.5129703148906
 20
418.2429048121742
 30
0.0
 11
116.5129703148906
 21
378.4429048121742
 31
0.0
  0
LINE
  5
217
330
6C
100
AcDbEntity
  8
Sichtbare tangentiale Kanten(DIN)
100
AcDbLine
 10
146.9144502220466
 20
378.4429048121742
 30
0.0
 11
148.7143158874356
 21
378.4429048121742
 31
0.0
  0
ARC
  5
218
330
6C
100
AcDbEntity
  8
Sichtbare tangentiale Kanten(DIN)
100
AcDbCircle
 10
132.6136431011631
 20
378.4429048121742
 30
0.0
 40
14.30080712088362
100
AcDbArc
 50
180.0
 51
0.0
  0
LINE
  5
219
330
6C
100
AcDbEntity
  8
Sichtbare tangentiale Kanten(DIN)
100
AcDbLine
 10
148.7143158874356
 20
418.2429048121742
 30
0.0
 11
146.9144502220466
 21
418.2429048121742
 31
0.0
  0
ARC
  5
21A
330
6C
100
AcDbEntity
  8
Sichtbare tangentiale Kanten(DIN)
100
AcDbCircle
 10
132.6136431011631
 20
418.2429048121742
 30
0.0
 40
16.10067278627245
100
AcDbArc
 50
0.0
 51
180.0
  0
ARC
  5
21B
330
6C
100
AcDbEntity
  8
Sichtbare tangentiale Kanten(DIN)
100
AcDbCircle
 10
132.6136431011631
 20
418.2429048121742
 30
0.0
 40
14.30080712088362
100
AcDbArc
 50
0.0
 51
180.0
  0
LINE
  5
21C
330
6C
100
AcDbEntity
  8
Sichtbare tangentiale Kanten(DIN)
100
AcDbLine
 10
148.7143158874356
 20
378.4429048121742
 30
0.0
 11
148.7143158874356
 21
388.3429048121741
 31
0.0
  0
LINE
  5
21D
330
6C
100
AcDbEntity
  8
Sichtbare tangentiale Kanten(DIN)
100
AcDbLine
 10
148.7143158874356
 20
408.342904812174
 30
0.0
 11
148.7143158874356
 21
418.2429048121742
 31
0.0
  0
LINE
  5
21E
330
6C
100
AcDbEntity
  8
Sichtbare tangentiale Kanten(DIN)
100
AcDbLine
 10
146.9144502220466
 20
418.2429048121742
 30
0.0
 11
146.9144502220466
 21
408.342904812174
 31
0.0
  0
LINE
  5
21F
330
6C
100
AcDbEntity
  8
Sichtbare tangentiale Kanten(DIN)
100
AcDbLine
 10
146.9144502220466
 20
388.3429048121741
 30
0.0
 11
146.9144502220466
 21
378.4429048121742
 31
0.0
  0
ARC
  5
220
330
6C
100
AcDbEntity
  8
Sichtbare Kanten(DIN)
100
AcDbCircle
 10
132.6136431011631
 20
398.3429048121741
 30
0.0
 40
10.10000000000001
100
AcDbArc
 50
196.0606199791755
 51
278.069301159391
  0
ARC
  5
221
330
6C
100
AcDbEntity
  8
Sichtbare Kanten(DIN)
100
AcDbCircle
 10
132.6136431011631
 20
398.3429048121741
 30
0.0
 40
10.10000000000002
100
AcDbArc
 50
171.9306988406052
 51
188.0693011593947
  0
ARC
  5
222
330
6C
100
AcDbEntity
  8
Sichtbare Kanten(DIN)
100
AcDbCircle
 10
132.6136431011631
 20
398.3429048121741
 30
0.0
 40
10.1
100
AcDbArc
 50
81.93069884060362
 51
163.9393800208228
  0
ARC
  5
223
330
6C
100
AcDbEntity
  8
Sichtbare Kanten(DIN)
100
AcDbCircle
 10
132.6136431011631
 20
398.3429048121741
 30
0.0
 40
9.999999999999987
100
AcDbArc
 50
90.0
 51
270.0
  0
LINE
  5
224
330
6C
100
AcDbEntity
  8
Sichtbare Kanten(DIN)
100
AcDbLine
 10
154.613643101163
 20
388.3429048121741
 30
0.0
 11
132.6136431011631
 21
388.3429048121741
 31
0.0
  0
LINE
  5
225
330
6C
100
AcDbEntity
  8
Sichtbare Kanten(DIN)
100
AcDbLine
 10
132.6136431011631
 20
408.3429048121741
 30
0.0
 11
154.613643101163
 21
408.3429048121741
 31
0.0
  0
ARC
  5
226
330
6C
100
AcDbEntity
  8
Sichtbare Kanten(DIN)
100
AcDbCircle
 10
154.6136431011631
 20
398.3429048121742
 30
0.0
 40
9.999999999999996
100
AcDbArc
 50
90.00000000000019
 51
270.0000000000002
  0
LINE
  5
227
330
6C
100
AcDbEntity
  8
Sichtbare tangentiale Kanten(DIN)
100
AcDbLine
 10
181.613643101163
 20
388.3429048121742
 30
0.0
 11
181.613643101163
 21
408.3429048121741
 31
0.0
  0
LINE
  5
228
330
6C
100
AcDbEntity
  8
Sichtbare tangentiale Kanten(DIN)
100
AcDbLine
 10
245.6136431011631
 20
388.3429048121742
 30
0.0
 11
245.6136431011631
 21
408.3429048121741
 31
0.0
  0
ARC
  5
229
330
6C
100
AcDbEntity
  8
Sichtbare Kanten(DIN)
100
AcDbCircle
 10
272.6136431011631
 20
398.3429048121742
 30
0.0
 40
9.999999999999996
100
AcDbArc
 50
270.0
 51
90.0
  0
LINE
  5
22A
330
6C
100
AcDbEntity
  8
Sichtbare Kanten(DIN)
100
AcDbLine
 10
154.6136431011631
 20
388.3429048121742
 30
0.0
 11
181.6136431011631
 21
388.3429048121742
 31
0.0
  0
LINE
  5
22B
330
6C
100
AcDbEntity
  8
Sichtbare Kanten(DIN)
100
AcDbLine
 10
181.6136431011631
 20
408.3429048121741
 30
0.0
 11
154.6136431011631
 21
408.3429048121741
 31
0.0
  0
LINE
  5
22C
330
6C
100
AcDbEntity
  8
Sichtbare Kanten(DIN)
100
AcDbLine
 10
245.613643101163
 20
388.3429048121742
 30
0.0
 11
181.613643101163
 21
388.3429048121742
 31
0.0
  0
LINE
  5
22D
330
6C
100
AcDbEntity
  8
Sichtbare Kanten(DIN)
100
AcDbLine
 10
245.613643101163
 20
408.3429048121741
 30
0.0
 11
181.613643101163
 21
408.3429048121741
 31
0.0
  0
LINE
  5
22E
330
6C
100
AcDbEntity
  8
Sichtbare Kanten(DIN)
100
AcDbLine
 10
245.6136431011631
 20
388.3429048121742
 30
0.0
 11
272.6136431011631
 21
388.3429048121742
 31
0.0
  0
LINE
  5
22F
330
6C
100
AcDbEntity
  8
Sichtbare Kanten(DIN)
100
AcDbLine
 10
272.6136431011631
 20
408.3429048121741
 30
0.0
 11
245.6136431011631
 21
408.3429048121741
 31
0.0
  0
LINE
  5
230
330
6C
100
AcDbEntity
  8
Sichtbare Kanten(DIN)
100
AcDbLine
 10
116.363643101116
 20
240.156843856487
 30
0.0
 11
148.8636431011161
 21
240.156843856487
 31
0.0
  0
LINE
  5
231
330
6C
100
AcDbEntity
  8
Sichtbare Kanten(DIN)
100
AcDbLine
 10
116.363643101116
 20
240.156843856487
 30
0.0
 11
116.5129703148437
 21
227.9348532549835
 31
0.0
  0
LINE
  5
232
330
6C
100
AcDbEntity
  8
Sichtbare Kanten(DIN)
100
AcDbLine
 10
148.8636431011161
 20
240.156843856487
 30
0.0
 11
148.7143158873886
 21
227.9348532549835
 31
0.0
  0
ARC
  5
233
330
6C
100
AcDbEntity
  8
Sichtbare Kanten(DIN)
100
AcDbCircle
 10
118.3128359802325
 20
227.956843856487
 30
0.0
 40
1.800000000000009
100
AcDbArc
 50
180.699999999999
 51
270.0
  0
ARC
  5
234
330
6C
100
AcDbEntity
  8
Sichtbare Kanten(DIN)
100
AcDbCircle
 10
146.9144502219998
 20
227.956843856487
 30
0.0
 40
1.800000000000018
100
AcDbArc
 50
270.0
 51
359.2999999999995
  0
LINE
  5
235
330
6C
100
AcDbEntity
  8
Sichtbare tangentiale Kanten(DIN)
100
AcDbLine
 10
116.5129703148437
 20
227.9348532549835
 30
0.0
 11
148.7143158873886
 21
227.9348532549835
 31
0.0
  0
LINE
  5
236
330
6C
100
AcDbEntity
  8
Sichtbare Kanten(DIN)
100
AcDbLine
 10
146.9144502219997
 20
226.156843856487
 30
0.0
 11
118.3128359802325
 21
226.156843856487
 31
0.0
  0
LINE
  5
237
330
6C
100
AcDbEntity
  8
Sichtbare Kanten(DIN)
100
AcDbLine
 10
135.8456939086847
 20
250.6068438564884
 30
0.0
 11
129.3815922935474
 21
250.6068438564886
 31
0.0
  0
LINE
  5
238
330
6C
100
AcDbEntity
  8
Sichtbare Kanten(DIN)
100
AcDbLine
 10
129.1136431011162
 20
249.6068438564876
 30
0.0
 11
136.1136431011162
 21
249.6068438564876
 31
0.0
  0
LINE
  5
239
330
6C
100
AcDbEntity
  8
Sichtbare Kanten(DIN)
100
AcDbLine
 10
135.8456939086846
 20
250.6068438564885
 30
0.0
 11
136.113643101116
 21
249.6068438564875
 31
0.0
  0
LINE
  5
23A
330
6C
100
AcDbEntity
  8
Sichtbare Kanten(DIN)
100
AcDbLine
 10
129.3815922935474
 20
250.6068438564885
 30
0.0
 11
129.113643101116
 21
249.6068438564876
 31
0.0
  0
LINE
  5
23B
330
6C
100
AcDbEntity
  8
Sichtbare Kanten(DIN)
100
AcDbLine
 10
136.1136431011162
 20
249.6068438564876
 30
0.0
 11
136.1136431011163
 21
240.1568438564887
 31
0.0
  0
LINE
  5
23C
330
6C
100
AcDbEntity
  8
Sichtbare Kanten(DIN)
100
AcDbLine
 10
129.1136431011163
 20
249.6068438564876
 30
0.0
 11
129.1136431011163
 21
240.1568438564887
 31
0.0
  0
LINE
  5
23D
330
6C
100
AcDbEntity
  8
Sichtbare Kanten(DIN)
100
AcDbLine
 10
142.713643101116
 20
225.956843856481
 30
0.0
 11
122.5136431011161
 21
225.956843856481
 31
0.0
  0
LINE
  5
23E
330
6C
100
AcDbEntity
  8
Sichtbare Kanten(DIN)
100
AcDbLine
 10
122.5136431011161
 20
225.956843856481
 30
0.0
 11
122.5136431011161
 21
226.1568438564811
 31
0.0
  0
LINE
  5
23F
330
6C
100
AcDbEntity
  8
Sichtbare Kanten(DIN)
100
AcDbLine
 10
142.713643101116
 20
225.956843856481
 30
0.0
 11
142.713643101116
 21
226.1568438564811
 31
0.0
  0
LINE
  5
240
330
6C
100
AcDbEntity
  8
Sichtbare tangentiale Kanten(DIN)
100
AcDbLine
 10
132.613643101116
 20
208.4568438564841
 30
0.0
 11
142.6136431011161
 21
208.4568438564811
 31
0.0
  0
SPLINE
  5
241
330
6C
100
AcDbEntity
  8
Sichtbare Kanten(DIN)
100
AcDbSpline
210
0.0
220
0.0
230
1.0
 70
     8
 71
     3
 72
     8
 73
     4
 74
     0
 42
0.0000000001
 43
0.0000000001
 40
0.0
 40
0.0
 40
0.0
 40
0.0
 40
0.4443611331010413
 40
0.4443611331010413
 40
0.4443611331010413
 40
0.4443611331010413
 10
132.613643101116
 20
208.4568438564841
 30
0.0
 10
134.0259154895382
 20
208.0102441140862
 30
0.0
 10
135.7150150190685
 20
207.4568438564841
 30
0.0
 10
137.1962187960719
 20
207.4568438564841
 30
0.0
  0
ARC
  5
242
330
6C
100
AcDbEntity
  8
Sichtbare Kanten(DIN)
100
AcDbCircle
 10
143.6136431011161
 20
208.4568438564811
 30
0.0
 40
0.9999999999999984
100
AcDbArc
 50
180.0
 51
270.0
  0
LINE
  5
243
330
6C
100
AcDbEntity
  8
Sichtbare tangentiale Kanten(DIN)
100
AcDbLine
 10
132.613643101116
 20
197.4568438564841
 30
0.0
 11
132.613643101116
 21
208.4568438564841
 31
0.0
  0
LINE
  5
244
330
6C
100
AcDbEntity
  8
Sichtbare Kanten(DIN)
100
AcDbLine
 10
132.613643101116
 20
197.4568438564841
 30
0.0
 11
122.6136431011161
 21
197.4568438564811
 31
0.0
  0
LINE
  5
245
330
6C
100
AcDbEntity
  8
Sichtbare Kanten(DIN)
100
AcDbLine
 10
164.613643101116
 20
197.4568438564811
 30
0.0
 11
154.6136431011161
 21
197.4568438564841
 31
0.0
  0
LINE
  5
246
330
6C
100
AcDbEntity
  8
Sichtbare Kanten(DIN)
100
AcDbLine
 10
132.613643101116
 20
197.4568438564841
 30
0.0
 11
154.6136431011161
 21
197.4568438564841
 31
0.0
  0
LINE
  5
247
330
6C
100
AcDbEntity
  8
Sichtbare Kanten(DIN)
100
AcDbLine
 10
154.6136431011161
 20
207.4568438564841
 30
0.0
 11
164.613643101116
 21
207.4568438564812
 31
0.0
  0
LINE
  5
248
330
6C
100
AcDbEntity
  8
Sichtbare tangentiale Kanten(DIN)
100
AcDbLine
 10
154.6136431011161
 20
197.4568438564841
 30
0.0
 11
154.6136431011161
 21
207.4568438564841
 31
0.0
  0
LINE
  5
249
330
6C
100
AcDbEntity
  8
Sichtbare Kanten(DIN)
100
AcDbLine
 10
154.6136431011161
 20
207.4568438564841
 30
0.0
 11
137.196218796072
 21
207.4568438564841
 31
0.0
  0
LINE
  5
24A
330
6C
100
AcDbEntity
  8
Sichtbare Kanten(DIN)
100
AcDbLine
 10
122.6136431011161
 20
197.4568438564811
 30
0.0
 11
122.6136431011161
 21
216.9568438564811
 31
0.0
  0
LINE
  5
24B
330
6C
100
AcDbEntity
  8
Sichtbare Kanten(DIN)
100
AcDbLine
 10
122.6136431011161
 20
221.956843856481
 30
0.0
 11
122.6136431011161
 21
225.956843856481
 31
0.0
  0
LINE
  5
24C
330
6C
100
AcDbEntity
  8
Sichtbare Kanten(DIN)
100
AcDbLine
 10
142.6136431011161
 20
208.4568438564811
 30
0.0
 11
142.6136431011161
 21
225.956843856481
 31
0.0
  0
LINE
  5
24D
330
6C
100
AcDbEntity
  8
Sichtbare Kanten(DIN)
100
AcDbLine
 10
164.613643101116
 20
197.4568438564811
 30
0.0
 11
164.613643101116
 21
207.4568438564812
 31
0.0
  0
LINE
  5
24E
330
6C
100
AcDbEntity
  8
Sichtbare Kanten(DIN)
100
AcDbLine
 10
154.6136431011161
 20
197.4568438564842
 30
0.0
 11
164.6136431011161
 21
197.4568438564811
 31
0.0
  0
LINE
  5
24F
330
6C
100
AcDbEntity
  8
Sichtbare tangentiale Kanten(DIN)
100
AcDbLine
 10
144.6136431011161
 20
194.4568438564811
 30
0.0
 11
164.6136431011161
 21
194.4568438564811
 31
0.0
  0
LINE
  5
250
330
6C
100
AcDbEntity
  8
Sichtbare tangentiale Kanten(DIN)
100
AcDbLine
 10
181.6136431011161
 20
157.4568438564812
 30
0.0
 11
181.6136431011161
 21
177.4568438564813
 31
0.0
  0
LINE
  5
251
330
6C
100
AcDbEntity
  8
Sichtbare tangentiale Kanten(DIN)
100
AcDbLine
 10
245.6136431011161
 20
157.4568438564812
 30
0.0
 11
245.6136431011161
 21
177.4568438564813
 31
0.0
  0
LINE
  5
252
330
6C
100
AcDbEntity
  8
Sichtbare tangentiale Kanten(DIN)
100
AcDbLine
 10
282.6136431011162
 20
194.4568438564811
 30
0.0
 11
262.6136431011161
 21
194.4568438564811
 31
0.0
  0
LINE
  5
253
330
6C
100
AcDbEntity
  8
Sichtbare Kanten(DIN)
100
AcDbLine
 10
282.6136431011162
 20
207.4568438564812
 30
0.0
 11
262.6136431011161
 21
207.4568438564812
 31
0.0
  0
LINE
  5
254
330
6C
100
AcDbEntity
  8
Sichtbare Kanten(DIN)
100
AcDbLine
 10
144.6136431011161
 20
194.4568438564811
 30
0.0
 11
144.6136431011161
 21
197.4568438564811
 31
0.0
  0
LINE
  5
255
330
6C
100
AcDbEntity
  8
Sichtbare Kanten(DIN)
100
AcDbLine
 10
164.6136431011161
 20
194.4568438564811
 30
0.0
 11
164.6136431011161
 21
197.4568438564811
 31
0.0
  0
ARC
  5
256
330
6C
100
AcDbEntity
  8
Sichtbare Kanten(DIN)
100
AcDbCircle
 10
181.6136431011161
 20
194.4568438564811
 30
0.0
 40
37.0
100
AcDbArc
 50
180.0
 51
270.0
  0
ARC
  5
257
330
6C
100
AcDbEntity
  8
Sichtbare Kanten(DIN)
100
AcDbCircle
 10
181.6136431011161
 20
194.4568438564811
 30
0.0
 40
17.0
100
AcDbArc
 50
180.0
 51
270.0
  0
LINE
  5
258
330
6C
100
AcDbEntity
  8
Sichtbare Kanten(DIN)
100
AcDbLine
 10
245.613643101116
 20
157.4568438564813
 30
0.0
 11
181.6136431011161
 21
157.4568438564813
 31
0.0
  0
LINE
  5
259
330
6C
100
AcDbEntity
  8
Sichtbare Kanten(DIN)
100
AcDbLine
 10
245.613643101116
 20
177.4568438564813
 30
0.0
 11
181.6136431011161
 21
177.4568438564813
 31
0.0
  0
ARC
  5
25A
330
6C
100
AcDbEntity
  8
Sichtbare Kanten(DIN)
100
AcDbCircle
 10
245.6136431011161
 20
194.4568438564811
 30
0.0
 40
36.99999999999999
100
AcDbArc
 50
270.0
 51
0.0
  0
ARC
  5
25B
330
6C
100
AcDbEntity
  8
Sichtbare Kanten(DIN)
100
AcDbCircle
 10
245.6136431011161
 20
194.4568438564811
 30
0.0
 40
17.0
100
AcDbArc
 50
270.0
 51
0.0
  0
LINE
  5
25C
330
6C
100
AcDbEntity
  8
Sichtbare Kanten(DIN)
100
AcDbLine
 10
282.6136431011162
 20
207.4568438564812
 30
0.0
 11
282.6136431011162
 21
194.4568438564811
 31
0.0
  0
LINE
  5
25D
330
6C
100
AcDbEntity
  8
Sichtbare Kanten(DIN)
100
AcDbLine
 10
262.6136431011161
 20
207.4568438564812
 30
0.0
 11
262.6136431011161
 21
194.4568438564811
 31
0.0
  0
LINE
  5
25E
330
6C
100
AcDbEntity
  8
Skizziergeometrie(DIN)
100
AcDbLine
 10
122.6136431011161
 20
225.9568438564811
 30
0.0
 11
122.6136431011161
 21
197.4568438564811
 31
0.0
  0
LINE
  5
25F
330
6C
100
AcDbEntity
  8
Mittelpunktmarkierung(DIN)
  6
Continuous
100
AcDbLine
 10
153.7143158874354
 20
418.2429048121742
 30
0.0
 11
111.5129703148908
 21
418.2429048121742
 31
0.0
  0
LINE
  5
260
330
6C
100
AcDbEntity
  8
Mittelpunktmarkierung(DIN)
  6
Continuous
100
AcDbLine
 10
132.6136431011631
 20
439.3435775984463
 30
0.0
 11
132.6136431011631
 21
413.2429048121741
 31
0.0
  0
LINE
  5
261
330
6C
100
AcDbEntity
  8
Mittelpunktmarkierung(DIN)
  6
Continuous
100
AcDbLine
 10
142.3163995296834
 20
423.3429048121739
 30
0.0
 11
122.9108866726428
 21
423.3429048121739
 31
0.0
  0
LINE
  5
262
330
6C
100
AcDbEntity
  8
Mittelpunktmarkierung(DIN)
  6
Continuous
100
AcDbLine
 10
132.6136431011631
 20
433.0456612406941
 30
0.0
 11
132.6136431011631
 21
413.6401483836539
 31
0.0
  0
LINE
  5
263
330
6C
100
AcDbEntity
  8
Mittelpunktmarkierung(DIN)
  6
Continuous
100
AcDbLine
 10
142.3163995296833
 20
373.3429048121742
 30
0.0
 11
122.9108866726428
 21
373.3429048121742
 31
0.0
  0
LINE
  5
264
330
6C
100
AcDbEntity
  8
Mittelpunktmarkierung(DIN)
  6
Continuous
100
AcDbLine
 10
132.6136431011631
 20
383.0456612406944
 30
0.0
 11
132.6136431011631
 21
363.640148383654
 31
0.0
  0
LINE
  5
265
330
6C
100
AcDbEntity
  8
Mittelpunktmarkierung(DIN)
  6
Continuous
100
AcDbLine
 10
153.8636431011632
 20
378.4429048121742
 30
0.0
 11
127.6136431011631
 21
378.4429048121742
 31
0.0
  0
LINE
  5
266
330
6C
100
AcDbEntity
  8
Mittelpunktmarkierung(DIN)
  6
Continuous
100
AcDbLine
 10
132.6136431011631
 20
383.4429048121742
 30
0.0
 11
132.6136431011631
 21
373.4429048121742
 31
0.0
  0
LINE
  5
267
330
6C
100
AcDbEntity
  8
Mittelpunktmarkierung(DIN)
  6
Continuous
100
AcDbLine
 10
153.7143158874354
 20
378.4429048121742
 30
0.0
 11
111.5129703148908
 21
378.4429048121742
 31
0.0
  0
LINE
  5
268
330
6C
100
AcDbEntity
  8
Mittelpunktmarkierung(DIN)
  6
Continuous
100
AcDbLine
 10
132.6136431011631
 20
383.4429048121742
 30
0.0
 11
132.6136431011631
 21
357.3422320259019
 31
0.0
  0
DIMENSION
  5
269
330
6C
100
AcDbEntity
  8
Bemaßungen(DIN)
  6
Continuous
 62
   250
420
  4144959
370
    25
100
AcDbDimension
  2
*D17
 10
70.31283598027956
 20
434.4929048121742
 30
0.0
 11
70.31283598027949
 21
398.3381772030019
 31
0.0
 70
   160
  1
<>
 71
     5
 42
72.26945521834455
 73
     0
 74
     0
 75
     0
  3
STANDARD-DIN - Methode 2b
100
AcDbAlignedDimension
 13
132.6136431011631
 23
362.2234495938296
 33
0.0
 14
132.6136431011631
 24
434.4929048121741
 34
0.0
 50
90.0
100
AcDbRotatedDimension
1001
ACAD
1000
DSTYLE
1002
{
1070
   172
1070
     0
1070
   289
1070
     1
1070
   271
1070
     0
1070
   272
1070
     2
1070
    48
1040
0.0
1070
    47
1040
0.0
1002
}
  0
DIMENSION
  5
34C
330
6C
100
AcDbEntity
  8
Bemaßungen(DIN)
  6
Continuous
 62
   250
420
  4144959
370
    25
100
AcDbDimension
  2
*D18
 10
94.31283598027954
 20
373.3429048121742
 30
0.0
 11
94.31283598027949
 21
398.3229048121742
 31
0.0
 70
   160
  1
<>
 71
     5
 42
49.99999999999989
 73
     0
 74
     0
 75
     0
  3
STANDARD-DIN - Methode 2b
100
AcDbAlignedDimension
 13
122.9108866726428
 23
423.3429048121739
 33
0.0
 14
122.9108866726428
 24
373.3429048121742
 34
0.0
 50
90.0
100
AcDbRotatedDimension
1001
ACAD
1000
DSTYLE
1002
{
1070
   172
1070
     0
1070
   289
1070
     1
1070
   271
1070
     2
1070
   272
1070
     2
1070
    48
1040
0.0
1070
    47
1040
0.0
1002
}
  0
DIMENSION
  5
42E
330
6C
100
AcDbEntity
  8
Bemaßungen(DIN)
  6
Continuous
 62
   250
420
  4144959
370
    25
100
AcDbDimension
  2
*D19
 10
148.8636431011632
 20
456.5437119330576
 30
0.0
 11
132.5936431011631
 21
456.5437119330576
 31
0.0
 70
   160
  1
<>
 71
     5
 42
32.50000000000014
 73
     0
 74
     0
 75
     0
  3
STANDARD-DIN - Methode 2b
100
AcDbAlignedDimension
 13
116.363643101163
 23
418.2429048121742
 33
0.0
 14
148.8636431011632
 24
418.2429048121742
 34
0.0
 50
180.0
100
AcDbRotatedDimension
1001
ACAD
1000
DSTYLE
1002
{
1070
   172
1070
     0
1070
   289
1070
     1
1070
   271
1070
     1
1070
   272
1070
     2
1070
    48
1040
0.0
1070
    47
1040
0.0
1002
}
  0
DIMENSION
  5
510
330
6C
100
AcDbEntity
  8
Bemaßungen(DIN)
  6
Continuous
 62
   250
420
  4144959
370
    25
100
AcDbDimension
  2
*D20
 10
68.43830670797991
 20
226.156843856487
 30
0.0
 11
68.43830670797988
 21
191.8068438564841
 31
0.0
 70
   160
  1
<>
 71
     5
 42
70.00000000000003
 73
     0
 74
     0
 75
     0
  3
STANDARD-DIN - Methode 2b
100
AcDbAlignedDimension
 13
181.6136431011161
 23
157.4568438564812
 33
0.0
 14
118.3128359802325
 24
226.156843856487
 34
0.0
 50
90.0
100
AcDbRotatedDimension
1001
ACAD
1000
DSTYLE
1002
{
1070
   172
1070
     0
1070
   289
1070
     1
1070
   271
1070
     2
1070
   144
1040
1.018922852983901
1070
   272
1070
     2
1070
    48
1040
0.0
1070
    47
1040
0.0
1002
}
  0
DIMENSION
  5
5FB
330
6C
100
AcDbEntity
  8
Bemaßungen(DIN)
  6
Continuous
 62
   250
420
  4144959
370
    25
100
AcDbDimension
  2
*D21
 10
68.43830670797991
 20
226.156843856487
 30
0.0
 11
68.43830670797988
 21
233.156843856487
 31
0.0
 70
   160
  1
<>
 71
     5
 42
13.99999999999997
 73
     0
 74
     1
 75
     1
  3
STANDARD-DIN - Methode 2b
100
AcDbAlignedDimension
 13
116.3636431011161
 23
240.156843856487
 33
0.0
 14
118.3128359802326
 24
226.156843856487
 34
0.0
 50
90.0
100
AcDbRotatedDimension
1001
ACAD
1000
DSTYLE
1002
{
1070
   172
1070
     0
1070
   271
1070
     2
1070
   272
1070
     2
1070
    48
1040
0.0
1070
    47
1040
0.0
1002
}
  0
DIMENSION
  5
6E7
330
6C
100
AcDbEntity
  8
Bemaßungen(DIN)
  6
Continuous
 62
   250
420
  4144959
370
    25
100
AcDbDimension
  2
*D22
 10
282.6136431011162
 20
133.4568438564812
 30
0.0
 11
202.6336431011161
 21
133.4568438564812
 31
0.0
 70
   160
  1
<>
 71
     5
 42
160.0
 73
     0
 74
     0
 75
     0
  3
STANDARD-DIN - Methode 2b
100
AcDbAlignedDimension
 13
122.6136431011161
 23
197.4568438564811
 33
0.0
 14
282.6136431011162
 24
194.4568438564811
 34
0.0
 50
180.0
100
AcDbRotatedDimension
1001
ACAD
1000
DSTYLE
1002
{
1070
   172
1070
     0
1070
   289
1070
     1
1070
   271
1070
     2
1070
   272
1070
     2
1070
    48
1040
0.0
1070
    47
1040
0.0
1002
}
  0
DIMENSION
  5
7C9
330
6C
100
AcDbEntity
  8
Bemaßungen(DIN)
  6
Continuous
 62
   250
420
  4144959
370
    25
100
AcDbDimension
  2
*D23
 10
228.6136431011162
 20
226.156843856487
 30
0.0
 11
228.6136431011161
 21
216.8068438564841
 31
0.0
 70
   160
  1
<>
 71
     5
 42
19.99999999999999
 73
     0
 74
     0
 75
     0
  3
STANDARD-DIN - Methode 2b
100
AcDbAlignedDimension
 13
262.6136431011161
 23
207.4568438564812
 33
0.0
 14
146.9144502219997
 24
226.156843856487
 34
0.0
 50
270.0
100
AcDbRotatedDimension
1001
ACAD
1000
DSTYLE
1002
{
1070
   172
1070
     0
1070
   289
1070
     1
1070
   271
1070
     2
1070
   144
1040
1.069518716577209
1070
   272
1070
     2
1070
    48
1040
0.0
1070
    47
1040
0.0
1002
}
  0
DIMENSION
  5
8B5
330
6C
100
AcDbEntity
  8
Bemaßungen(DIN)
  6
Continuous
 62
   250
420
  4144959
370
    25
100
AcDbDimension
  2
*D24
 10
306.6136431011632
 20
388.3429048121742
 30
0.0
 11
306.6136431011631
 21
423.9280951235046
 31
0.0
 70
   160
  1
{\fAIGDT|b0|i0;\H7.0000;n\fArial|b0|i0;\H7.0000;}<>
 71
     5
 42
20.0
 73
     0
 74
     0
 75
     0
  3
STANDARD-DIN - Methode 2b
100
AcDbAlignedDimension
 13
272.6136431011631
 23
408.3429048121741
 33
0.0
 14
272.6136431011631
 24
388.3429048121742
 34
0.0
 50
270.0
100
AcDbRotatedDimension
1001
ACAD
1000
DSTYLE
1002
{
1070
   172
1070
     0
1070
   289
1070
     2
1070
   271
1070
     2
1070
   272
1070
     2
1070
    48
1040
0.0
1070
    47
1040
0.0
1002
}
  0
MTEXT
  5
9A6
330
6C
100
AcDbEntity
  8
Symbole(DIN)
 62
   179
420
  2500185
100
AcDbMText
 10
305.9640414203942
 20
83.3793354591396
 30
0.0
 40
6.99999988079071
 41
27.18369007110596
 46
0.0
 71
     1
 72
     1
  1
{50050}
  7
Aktuell-DIN
 73
     1
 44
1.0
  0
LINE
  5
9A7
330
6C
100
AcDbEntity
  8
Mittellinie(DIN)
  6
Continuous
100
AcDbLine
 10
272.6136431011161
 20
212.4568438564812
 30
0.0
 11
272.6136431011161
 21
189.4568438564811
 31
0.0
  0
ARC
  5
9A8
330
6C
100
AcDbEntity
  8
Mittellinie(DIN)
  6
Continuous
100
AcDbCircle
 10
245.613643101116
 20
194.4568438564811
 30
0.0
 40
27.00000000000001
100
AcDbArc
 50
263.6338022763242
 51
6.366197723675727
  0
LINE
  5
9A9
330
6C
100
AcDbEntity
  8
Mittellinie(DIN)
  6
Continuous
100
AcDbLine
 10
250.6136431011161
 20
167.4568438564812
 30
0.0
 11
176.613643101116
 21
167.4568438564812
 31
0.0
  0
ARC
  5
9AA
330
6C
100
AcDbEntity
  8
Mittellinie(DIN)
  6
Continuous
100
AcDbCircle
 10
181.613643101116
 20
194.4568438564811
 30
0.0
 40
27.00000000000001
100
AcDbArc
 50
173.6338022763242
 51
276.3661977236758
  0
DIMENSION
  5
9AB
330
6C
100
AcDbEntity
  8
Bemaßungen(DIN)
  6
Continuous
 62
   250
420
  4144959
370
    25
100
AcDbDimension
  2
*D25
 10
92.43830670797995
 20
226.156843856487
 30
0.0
 11
92.43830670797988
 21
211.7868438564848
 31
0.0
 70
   160
  1
<>
 71
     5
 42
30.0
 73
     0
 74
     0
 75
     0
  3
STANDARD-DIN - Methode 2b
100
AcDbAlignedDimension
 13
122.6136431011161
 23
197.4568438564827
 33
0.0
 14
118.3128359802325
 24
226.156843856487
 34
0.0
 50
90.0
100
AcDbRotatedDimension
1001
ACAD
1000
DSTYLE
1002
{
1070
   172
1070
     0
1070
   289
1070
     1
1070
   271
1070
     2
1070
   144
1040
1.045296167247229
1070
   272
1070
     2
1070
    48
1040
0.0
1070
    47
1040
0.0
1002
}
  0
DIMENSION
  5
A96
330
6C
100
AcDbEntity
  8
Bemaßungen(DIN)
  6
Continuous
 62
   250
420
  4144959
370
    25
100
AcDbDimension
  2
*D26
 10
306.6136431011631
 20
207.4568438564812
 30
0.0
 11
306.6136431011631
 21
182.4568438564811
 31
0.0
 70
   160
  1
<>
 71
     5
 42
50.0
 73
     0
 74
     0
 75
     0
  3
STANDARD-DIN - Methode 2b
100
AcDbAlignedDimension
 13
245.613643101116
 23
157.4568438564812
 33
0.0
 14
282.6136431011162
 24
207.4568438564812
 34
0.0
 50
90.0
100
AcDbRotatedDimension
1001
ACAD
1000
DSTYLE
1002
{
1070
   172
1070
     0
1070
   289
1070
     1
1070
   271
1070
     2
1070
   272
1070
     2
1070
    48
1040
0.0
1070
    47
1040
0.0
1002
}
  0
DIMENSION
  5
B78
330
6C
100
AcDbEntity
  8
Bemaßungen(DIN)
  6
Continuous
 62
   250
420
  4144959
370
    25
100
AcDbDimension
  2
*D27
 10
282.6136431011631
 20
338.3422320259017
 30
0.0
 11
207.6336431011631
 21
338.3422320259017
 31
0.0
 70
   160
  1
<>
 71
     5
 42
149.9999999999999
 73
     0
 74
     0
 75
     0
  3
STANDARD-DIN - Methode 2b
100
AcDbAlignedDimension
 13
132.6136431011631
 23
378.4429048121742
 33
0.0
 14
282.6136431011631
 24
398.3429048121742
 34
0.0
 50
180.0
100
AcDbRotatedDimension
1001
ACAD
1000
DSTYLE
1002
{
1070
   172
1070
     0
1070
   289
1070
     1
1070
   271
1070
     2
1070
   272
1070
     2
1070
    48
1040
0.0
1070
    47
1040
0.0
1002
}
  0
LINE
  5
C5A
330
6C
100
AcDbEntity
  8
Mittelpunktmarkierung(DIN)
  6
Continuous
100
AcDbLine
 10
132.6136431011631
 20
413.9429048121741
 30
0.0
 11
132.6136431011631
 21
382.7429048121742
 31
0.0
  0
LINE
  5
C5B
330
6C
100
AcDbEntity
  8
Mittelpunktmarkierung(DIN)
  6
Continuous
100
AcDbLine
 10
272.6136431011631
 20
413.3429048121741
 30
0.0
 11
272.6136431011631
 21
383.3429048121742
 31
0.0
  0
LINE
  5
C5C
330
6C
100
AcDbEntity
  8
Mittellinie(DIN)
  6
Continuous
100
AcDbLine
 10
143.667850390214
 20
398.3429048121741
 30
0.0
 11
287.613643101163
 21
398.3429048121742
 31
0.0
  0
LINE
  5
C5D
330
6C
100
AcDbEntity
  8
Mittelpunktmarkierung(DIN)
  6
Continuous
100
AcDbLine
 10
148.2136431011632
 20
398.3429048121741
 30
0.0
 11
117.0136431011631
 21
398.3429048121741
 31
0.0
  0
LINE
  5
C5E
330
6C
100
AcDbEntity
  8
Mittelpunktmarkierung(DIN)
  6
Continuous
100
AcDbLine
 10
132.6136431011631
 20
413.9429048121741
 30
0.0
 11
132.6136431011631
 21
382.7429048121742
 31
0.0
  0
LINE
  5
C5F
330
6C
100
AcDbEntity
  8
Mittellinie(DIN)
  6
Continuous
100
AcDbLine
 10
132.613643101116
 20
193.6623771091716
 30
0.0
 11
132.613643101116
 21
257.205558531903
 31
0.0
  0
ENDSEC
  0
SECTION
  2
OBJECTS
  0
DICTIONARY
  5
C
330
0
100
AcDbDictionary
281
     1
  3
ACAD_CIP_PREVIOUS_PRODUCT_INFO
350
C60
  3
ACAD_COLOR
350
63
  3
ACAD_GROUP
350
D
  3
ACAD_LAYOUT
350
62
  3
ACAD_MATERIAL
350
10
  3
ACAD_MLEADERSTYLE
350
66
  3
ACAD_MLINESTYLE
350
5F
  3
ACAD_PLOTSETTINGS
350
61
  3
ACAD_PLOTSTYLENAME
350
E
  3
ACAD_SCALELIST
350
42
  3
ACAD_TABLESTYLE
350
64
  3
ACAD_VISUALSTYLE
350
29
  3
ACDB_RECOMPOSE_DATA
350
CB9
  3
AcDbVariableDictionary
350
C61
  0
DICTIONARY
  5
C6A
330
193
100
AcDbDictionary
280
     1
281
     1
  3
ACAD_MLATT
360
CB2
  3
ACAD_XREC_ROUNDTRIP
360
CB1
  0
DICTIONARY
  5
C6D
330
196
100
AcDbDictionary
280
     1
281
     1
  3
ACAD_MLATT
360
CB4
  3
ACAD_XREC_ROUNDTRIP
360
CB3
  0
DICTIONARY
  5
C70
330
197
100
AcDbDictionary
280
     1
281
     1
  3
ACAD_MLATT
360
CB6
  3
ACAD_XREC_ROUNDTRIP
360
CB5
  0
DICTIONARY
  5
C73
330
198
100
AcDbDictionary
280
     1
281
     1
  3
ACAD_MLATT
360
CB8
  3
ACAD_XREC_ROUNDTRIP
360
CB7
  0
XRECORD
  5
C60
102
{ACAD_REACTORS
330
C
102
}
330
C
100
AcDbXrecord
280
     1
300
INVNTOR
300
2012
300
PDSP_F_S
  0
DICTIONARY
  5
63
102
{ACAD_REACTORS
330
C
102
}
330
C
100
AcDbDictionary
281
     1
  0
DICTIONARY
  5
D
102
{ACAD_REACTORS
330
C
102
}
330
C
100
AcDbDictionary
281
     1
  0
DICTIONARY
  5
62
102
{ACAD_REACTORS
330
C
102
}
330
C
100
AcDbDictionary
281
     1
  3
Layout1
350
6B
  3
Layout2
350
73
  3
Model
350
6F
  0
DICTIONARY
  5
10
102
{ACAD_REACTORS
330
C
102
}
330
C
100
AcDbDictionary
281
     1
  3
ByBlock
350
19
  3
ByLayer
350
11
  3
Global
350
21
  0
DICTIONARY
  5
66
102
{ACAD_REACTORS
330
C
102
}
330
C
100
AcDbDictionary
281
     1
  3
Standard
350
67
  0
DICTIONARY
  5
5F
102
{ACAD_REACTORS
330
C
102
}
330
C
100
AcDbDictionary
281
     1
  3
Standard
350
60
  0
DICTIONARY
  5
61
102
{ACAD_REACTORS
330
C
102
}
330
C
100
AcDbDictionary
281
     1
  0
ACDBDICTIONARYWDFLT
  5
E
102
{ACAD_REACTORS
330
C
102
}
330
C
100
AcDbDictionary
281
     1
  3
Normal
350
F
100
AcDbDictionaryWithDefault
340
F
  0
DICTIONARY
  5
42
102
{ACAD_REACTORS
330
C
102
}
330
C
100
AcDbDictionary
281
     1
  3
A0
350
43
  3
A1
350
44
  3
A2
350
45
  3
A3
350
46
  3
A4
350
47
  3
A5
350
48
  3
A6
350
49
  3
A7
350
4A
  3
A8
350
4B
  3
A9
350
4C
  3
B0
350
4D
  3
B1
350
4E
  3
B2
350
4F
  3
B3
350
50
  3
B4
350
51
  3
B5
350
52
  3
B6
350
53
  0
DICTIONARY
  5
64
102
{ACAD_REACTORS
330
C
102
}
330
C
100
AcDbDictionary
281
     1
  3
Standard
350
65
  0
DICTIONARY
  5
29
102
{ACAD_REACTORS
330
C
102
}
330
C
100
AcDbDictionary
281
     1
  3
2dWireframe
350
2F
  3
Basic
350
2E
  3
Brighten
350
35
  3
ColorChange
350
39
  3
Conceptual
350
32
  3
Dim
350
34
  3
EdgeColorOff
350
41
  3
Facepattern
350
38
  3
Flat
350
2A
  3
FlatWithEdges
350
2B
  3
Gouraud
350
2C
  3
GouraudWithEdges
350
2D
  3
Hidden
350
31
  3
JitterOff
350
3F
  3
Linepattern
350
37
  3
OverhangOff
350
40
  3
Realistic
350
33
  3
Shaded
350
3E
  3
Shaded with edges
350
3D
  3
Shades of Gray
350
3A
  3
Sketchy
350
3B
  3
Thicken
350
36
  3
Wireframe
350
30
  3
X-Ray
350
3C
  0
XRECORD
  5
CB9
102
{ACAD_REACTORS
330
C
102
}
330
C
100
AcDbXrecord
280
     1
 90
        1
330
65
330
193
330
196
330
197
330
198
  0
DICTIONARY
  5
C61
102
{ACAD_REACTORS
330
C
102
}
330
C
100
AcDbDictionary
281
     1
  3
CANNOSCALE
350
C64
  3
CMLEADERSTYLE
350
C63
  3
CTABLESTYLE
350
C62
  3
XCLIPFRAME
350
CAB
  0
XRECORD
  5
CB2
102
{ACAD_REACTORS
330
C6A
102
}
330
C6A
100
AcDbXrecord
280
     1
 70
     4
 70
     0
 70
     0
 40
1.0
  2
Innenkante_obere_Grenze
  1
Embedded Object
 10
28.19096644559973
 20
16.62519294726898
 30
0.0
 40
3.499999940395355
 41
0.0
 46
0.0
 71
     1
 72
     5
  1
\W0.9000;-1
  7
Textstil122
 73
     1
 44
1.0
  0
XRECORD
  5
CB1
102
{ACAD_REACTORS
330
C6A
102
}
330
C6A
100
AcDbXrecord
280
     1
102
ACAD_MATT_HEIGHT
140
3.499999940395355
  0
XRECORD
  5
CB4
102
{ACAD_REACTORS
330
C6D
102
}
330
C6D
100
AcDbXrecord
280
     1
 70
     4
 70
     0
 70
     0
 40
1.0
  2
Innenkante_untere_Grenze
  1
Embedded Object
 10
28.19096644559973
 20
11.62519294726898
 30
0.0
 40
3.499999940395355
 41
0.0
 46
0.0
 71
     1
 72
     5
  1
\W0.9000;-0.25
  7
Textstil122
 73
     1
 44
1.0
  0
XRECORD
  5
CB3
102
{ACAD_REACTORS
330
C6D
102
}
330
C6D
100
AcDbXrecord
280
     1
102
ACAD_MATT_HEIGHT
140
3.499999940395355
  0
XRECORD
  5
CB6
102
{ACAD_REACTORS
330
C70
102
}
330
C70
100
AcDbXrecord
280
     1
 70
     4
 70
     0
 70
     0
 40
1.0
  2
Aussenkante_obere_Grenze
  1
Embedded Object
 10
6.721339289383169
 20
16.62519294726898
 30
0.0
 40
3.499999940395355
 41
7.696662545204162
 46
0.0
 71
     1
 72
     5
  1
\W0.9000;+0.3
  7
Textstil122
 73
     1
 44
1.0
  0
XRECORD
  5
CB5
102
{ACAD_REACTORS
330
C70
102
}
330
C70
100
AcDbXrecord
280
     1
102
ACAD_MATT_HEIGHT
140
3.499999940395355
  0
XRECORD
  5
CB8
102
{ACAD_REACTORS
330
C73
102
}
330
C73
100
AcDbXrecord
280
     1
 70
     4
 70
     0
 70
     0
 40
1.0
  2
Aussenkante_untere_Grenze
  1
Embedded Object
 10
6.721339289383169
 20
11.62519294726898
 30
0.0
 40
3.499999940395355
 41
0.0
 46
0.0
 71
     1
 72
     5
  1
\W0.9000;+0.1
  7
Textstil122
 73
     1
 44
1.0
  0
XRECORD
  5
CB7
102
{ACAD_REACTORS
330
C73
102
}
330
C73
100
AcDbXrecord
280
     1
102
ACAD_MATT_HEIGHT
140
3.499999940395355
  0
LAYOUT
  5
6B
102
{ACAD_REACTORS
330
62
102
}
330
62
100
AcDbPlotSettings
  1

  2

  4

  6

 40
0.0
 41
0.0
 42
0.0
 43
0.0
 44
0.0
 45
0.0
 46
0.0
 47
0.0
 48
0.0
 49
0.0
140
0.0
141
0.0
142
1.0
143
1.0
 70
   688
 72
     0
 73
     0
 74
     5
  7

 75
    16
147
1.0
 76
     0
 77
     2
 78
   300
148
0.0
149
0.0
100
AcDbLayout
  1
Layout1
 70
     1
 71
     1
 10
0.0
 20
0.0
 11
12.0
 21
9.0
 12
0.0
 22
0.0
 32
0.0
 14
0.0
 24
0.0
 34
0.0
 15
0.0
 25
0.0
 35
0.0
146
0.0
 13
0.0
 23
0.0
 33
0.0
 16
1.0
 26
0.0
 36
0.0
 17
0.0
 27
1.0
 37
0.0
 76
     0
330
68
  0
LAYOUT
  5
73
102
{ACAD_REACTORS
330
62
102
}
330
62
100
AcDbPlotSettings
  1

  2

  4

  6

 40
0.0
 41
0.0
 42
0.0
 43
0.0
 44
0.0
 45
0.0
 46
0.0
 47
0.0
 48
0.0
 49
0.0
140
0.0
141
0.0
142
1.0
143
1.0
 70
   688
 72
     0
 73
     0
 74
     5
  7

 75
    16
147
1.0
 76
     0
 77
     2
 78
   300
148
0.0
149
0.0
100
AcDbLayout
  1
Layout2
 70
     1
 71
     2
 10
0.0
 20
0.0
 11
12.0
 21
9.0
 12
0.0
 22
0.0
 32
0.0
 14
0.0
 24
0.0
 34
0.0
 15
0.0
 25
0.0
 35
0.0
146
0.0
 13
0.0
 23
0.0
 33
0.0
 16
1.0
 26
0.0
 36
0.0
 17
0.0
 27
1.0
 37
0.0
 76
     0
330
70
  0
LAYOUT
  5
6F
102
{ACAD_REACTORS
330
62
102
}
330
62
100
AcDbPlotSettings
  1

  2

  4

  6

 40
0.0
 41
0.0
 42
0.0
 43
0.0
 44
0.0
 45
0.0
 46
0.0
 47
0.0
 48
0.0
 49
0.0
140
0.0
141
0.0
142
1.0
143
1.0
 70
  1712
 72
     0
 73
     0
 74
     0
  7

 75
     0
147
1.0
 76
     0
 77
     2
 78
   300
148
0.0
149
0.0
100
AcDbLayout
  1
Model
 70
     1
 71
     0
 10
0.0
 20
0.0
 11
12.0
 21
9.0
 12
0.0
 22
0.0
 32
0.0
 14
0.0
 24
0.0
 34
0.0
 15
0.0
 25
0.0
 35
0.0
146
0.0
 13
0.0
 23
0.0
 33
0.0
 16
1.0
 26
0.0
 36
0.0
 17
0.0
 27
1.0
 37
0.0
 76
     0
330
6C
  0
MATERIAL
  5
19
102
{ACAD_XDICTIONARY
360
1A
102
}
102
{ACAD_REACTORS
330
10
102
}
330
10
100
AcDbMaterial
  1
ByBlock
 72
     0
 43
0.0208333333333333
 43
0.0
 43
0.0
 43
0.0
 43
0.0
 43
0.0208333333333333
 43
0.0
 43
0.0
 43
0.0
 43
0.0
 43
1.0
 43
0.0
 43
0.0
 43
0.0
 43
0.0
 43
1.0
 77
     0
 47
0.0208333333333333
 47
0.0
 47
0.0
 47
0.0
 47
0.0
 47
0.0208333333333333
 47
0.0
 47
0.0
 47
0.0
 47
0.0
 47
1.0
 47
0.0
 47
0.0
 47
0.0
 47
0.0
 47
1.0
171
     0
 49
0.0208333333333333
 49
0.0
 49
0.0
 49
0.0
 49
0.0
 49
0.0208333333333333
 49
0.0
 49
0.0
 49
0.0
 49
0.0
 49
1.0
 49
0.0
 49
0.0
 49
0.0
 49
0.0
 49
1.0
175
     0
142
0.0208333333333333
142
0.0
142
0.0
142
0.0
142
0.0
142
0.0208333333333333
142
0.0
142
0.0
142
0.0
142
0.0
142
1.0
142
0.0
142
0.0
142
0.0
142
0.0
142
1.0
179
     0
144
0.0208333333333333
144
0.0
144
0.0
144
0.0
144
0.0
144
0.0208333333333333
144
0.0
144
0.0
144
0.0
144
0.0
144
1.0
144
0.0
144
0.0
144
0.0
144
0.0
144
1.0
147
0.0208333333333333
147
0.0
147
0.0
147
0.0
147
0.0
147
0.0208333333333333
147
0.0
147
0.0
147
0.0
147
0.0
147
1.0
147
0.0
147
0.0
147
0.0
147
0.0
147
1.0
  0
MATERIAL
  5
11
102
{ACAD_XDICTIONARY
360
12
102
}
102
{ACAD_REACTORS
330
10
102
}
330
10
100
AcDbMaterial
  1
ByLayer
 72
     0
 43
0.0208333333333333
 43
0.0
 43
0.0
 43
0.0
 43
0.0
 43
0.0208333333333333
 43
0.0
 43
0.0
 43
0.0
 43
0.0
 43
1.0
 43
0.0
 43
0.0
 43
0.0
 43
0.0
 43
1.0
 77
     0
 47
0.0208333333333333
 47
0.0
 47
0.0
 47
0.0
 47
0.0
 47
0.0208333333333333
 47
0.0
 47
0.0
 47
0.0
 47
0.0
 47
1.0
 47
0.0
 47
0.0
 47
0.0
 47
0.0
 47
1.0
171
     0
 49
0.0208333333333333
 49
0.0
 49
0.0
 49
0.0
 49
0.0
 49
0.0208333333333333
 49
0.0
 49
0.0
 49
0.0
 49
0.0
 49
1.0
 49
0.0
 49
0.0
 49
0.0
 49
0.0
 49
1.0
175
     0
142
0.0208333333333333
142
0.0
142
0.0
142
0.0
142
0.0
142
0.0208333333333333
142
0.0
142
0.0
142
0.0
142
0.0
142
1.0
142
0.0
142
0.0
142
0.0
142
0.0
142
1.0
179
     0
144
0.0208333333333333
144
0.0
144
0.0
144
0.0
144
0.0
144
0.0208333333333333
144
0.0
144
0.0
144
0.0
144
0.0
144
1.0
144
0.0
144
0.0
144
0.0
144
0.0
144
1.0
147
0.0208333333333333
147
0.0
147
0.0
147
0.0
147
0.0
147
0.0208333333333333
147
0.0
147
0.0
147
0.0
147
0.0
147
1.0
147
0.0
147
0.0
147
0.0
147
0.0
147
1.0
  0
MATERIAL
  5
21
102
{ACAD_XDICTIONARY
360
22
102
}
102
{ACAD_REACTORS
330
10
102
}
330
10
100
AcDbMaterial
  1
Global
 72
     0
 43
0.0208333333333333
 43
0.0
 43
0.0
 43
0.0
 43
0.0
 43
0.0208333333333333
 43
0.0
 43
0.0
 43
0.0
 43
0.0
 43
1.0
 43
0.0
 43
0.0
 43
0.0
 43
0.0
 43
1.0
 77
     0
 47
0.0208333333333333
 47
0.0
 47
0.0
 47
0.0
 47
0.0
 47
0.0208333333333333
 47
0.0
 47
0.0
 47
0.0
 47
0.0
 47
1.0
 47
0.0
 47
0.0
 47
0.0
 47
0.0
 47
1.0
171
     0
 49
0.0208333333333333
 49
0.0
 49
0.0
 49
0.0
 49
0.0
 49
0.0208333333333333
 49
0.0
 49
0.0
 49
0.0
 49
0.0
 49
1.0
 49
0.0
 49
0.0
 49
0.0
 49
0.0
 49
1.0
175
     0
142
0.0208333333333333
142
0.0
142
0.0
142
0.0
142
0.0
142
0.0208333333333333
142
0.0
142
0.0
142
0.0
142
0.0
142
1.0
142
0.0
142
0.0
142
0.0
142
0.0
142
1.0
179
     0
144
0.0208333333333333
144
0.0
144
0.0
144
0.0
144
0.0
144
0.0208333333333333
144
0.0
144
0.0
144
0.0
144
0.0
144
1.0
144
0.0
144
0.0
144
0.0
144
0.0
144
1.0
147
0.0208333333333333
147
0.0
147
0.0
147
0.0
147
0.0
147
0.0208333333333333
147
0.0
147
0.0
147
0.0
147
0.0
147
1.0
147
0.0
147
0.0
147
0.0
147
0.0
147
1.0
  0
MLEADERSTYLE
  5
67
102
{ACAD_XDICTIONARY
360
CAD
102
}
102
{ACAD_REACTORS
330
66
102
}
330
66
100
AcDbMLeaderStyle
170
     2
171
     1
172
     0
 90
        2
 40
0.0
 41
0.0
173
     1
 91
-1056964608
340
5B
 92
       -2
290
     1
 42
0.09
291
     1
 43
0.36
  3
Standard
 44
0.18
300

342
55
174
     1
178
     6
175
     1
176
     0
 93
-1056964608
 45
0.18
292
     0
297
     0
 46
0.18
 94
-1056964608
 47
1.0
 49
1.0
140
1.0
293
     1
141
0.0
294
     1
177
     0
142
1.0
295
     0
296
     0
143
0.125
1001
ACAD_MLEADERVER
1070
     2
  0
MLINESTYLE
  5
60
102
{ACAD_REACTORS
330
5F
102
}
330
5F
100
AcDbMlineStyle
  2
STANDARD
 70
     0
  3

 62
   256
 51
90.0
 52
90.0
 71
     2
 49
0.5
 62
   256
  6
BYLAYER
 49
-0.5
 62
   256
  6
BYLAYER
  0
ACDBPLACEHOLDER
  5
F
102
{ACAD_REACTORS
330
E
102
}
330
E
  0
SCALE
  5
43
102
{ACAD_REACTORS
330
42
102
}
330
42
100
AcDbScale
 70
     0
300
1:1
140
1.0
141
1.0
290
     1
  0
SCALE
  5
44
102
{ACAD_REACTORS
330
42
102
}
330
42
100
AcDbScale
 70
     0
300
1/128" = 1'-0"
140
0.0078125
141
12.0
290
     0
  0
SCALE
  5
45
102
{ACAD_REACTORS
330
42
102
}
330
42
100
AcDbScale
 70
     0
300
1/64" = 1'-0"
140
0.015625
141
12.0
290
     0
  0
SCALE
  5
46
102
{ACAD_REACTORS
330
42
102
}
330
42
100
AcDbScale
 70
     0
300
1/32" = 1'-0"
140
0.03125
141
12.0
290
     0
  0
SCALE
  5
47
102
{ACAD_REACTORS
330
42
102
}
330
42
100
AcDbScale
 70
     0
300
1/16" = 1'-0"
140
0.0625
141
12.0
290
     0
  0
SCALE
  5
48
102
{ACAD_REACTORS
330
42
102
}
330
42
100
AcDbScale
 70
     0
300
3/32" = 1'-0"
140
0.09375
141
12.0
290
     0
  0
SCALE
  5
49
102
{ACAD_REACTORS
330
42
102
}
330
42
100
AcDbScale
 70
     0
300
1/8" = 1'-0"
140
0.125
141
12.0
290
     0
  0
SCALE
  5
4A
102
{ACAD_REACTORS
330
42
102
}
330
42
100
AcDbScale
 70
     0
300
3/16" = 1'-0"
140
0.1875
141
12.0
290
     0
  0
SCALE
  5
4B
102
{ACAD_REACTORS
330
42
102
}
330
42
100
AcDbScale
 70
     0
300
1/4" = 1'-0"
140
0.25
141
12.0
290
     0
  0
SCALE
  5
4C
102
{ACAD_REACTORS
330
42
102
}
330
42
100
AcDbScale
 70
     0
300
3/8" = 1'-0"
140
0.375
141
12.0
290
     0
  0
SCALE
  5
4D
102
{ACAD_REACTORS
330
42
102
}
330
42
100
AcDbScale
 70
     0
300
1/2" = 1'-0"
140
0.5
141
12.0
290
     0
  0
SCALE
  5
4E
102
{ACAD_REACTORS
330
42
102
}
330
42
100
AcDbScale
 70
     0
300
3/4" = 1'-0"
140
0.75
141
12.0
290
     0
  0
SCALE
  5
4F
102
{ACAD_REACTORS
330
42
102
}
330
42
100
AcDbScale
 70
     0
300
1" = 1'-0"
140
1.0
141
12.0
290
     0
  0
SCALE
  5
50
102
{ACAD_REACTORS
330
42
102
}
330
42
100
AcDbScale
 70
     0
300
1-1/2" = 1'-0"
140
1.5
141
12.0
290
     0
  0
SCALE
  5
51
102
{ACAD_REACTORS
330
42
102
}
330
42
100
AcDbScale
 70
     0
300
3" = 1'-0"
140
3.0
141
12.0
290
     0
  0
SCALE
  5
52
102
{ACAD_REACTORS
330
42
102
}
330
42
100
AcDbScale
 70
     0
300
6" = 1'-0"
140
6.0
141
12.0
290
     0
  0
SCALE
  5
53
102
{ACAD_REACTORS
330
42
102
}
330
42
100
AcDbScale
 70
     0
300
1'-0" = 1'-0"
140
12.0
141
12.0
290
     0
  0
TABLESTYLE
  5
65
102
{ACAD_XDICTIONARY
360
C66
102
}
102
{ACAD_REACTORS
330
64
102
}
330
64
100
AcDbTableStyle
  3
Standard
 70
     0
 71
     0
 40
0.06
 41
0.06
280
     0
281
     0
  7
Standard
140
0.18
170
     2
 62
     0
 63
     7
283
     0
 90
      512
 91
        0
  1

274
    -2
284
     1
 64
     0
275
    -2
285
     1
 65
     0
276
    -2
286
     1
 66
     0
277
    -2
287
     1
 67
     0
278
    -2
288
     1
 68
     0
279
    -2
289
     1
 69
     0
  7
Standard
140
0.25
170
     5
 62
     0
 63
     7
283
     0
 90
      512
 91
        0
  1

274
    -2
284
     1
 64
     0
275
    -2
285
     1
 65
     0
276
    -2
286
     1
 66
     0
277
    -2
287
     1
 67
     0
278
    -2
288
     1
 68
     0
279
    -2
289
     1
 69
     0
  7
Standard
140
0.18
170
     5
 62
     0
 63
     7
283
     0
 90
      512
 91
        0
  1

274
    -2
284
     1
 64
     0
275
    -2
285
     1
 65
     0
276
    -2
286
     1
 66
     0
277
    -2
287
     1
 67
     0
278
    -2
288
     1
 68
     0
279
    -2
289
     1
 69
     0
  0
VISUALSTYLE
  5
2F
102
{ACAD_XDICTIONARY
360
CC4
102
}
102
{ACAD_REACTORS
330
29
102
}
330
29
100
AcDbVisualStyle
  2

 70
     4
 71
     0
 72
     2
 73
     0
 90
        0
 40
-0.6
 41
-30.0
 62
     5
 63
     7
421
 16777215
 74
     1
 91
        4
 64
     7
 65
   257
 75
     1
175
     1
 42
1.0
 92
        0
 66
   257
 43
1.0
 76
     1
 77
     6
 78
     2
 67
     7
 79
     5
170
     0
171
     0
290
     0
174
     0
 93
        1
 44
0.0
173
     0
291
     0
 45
0.0
1001
ACAD
1000
AcDbSavedByObjectVersion
1070
     0
  0
VISUALSTYLE
  5
2E
102
{ACAD_XDICTIONARY
360
CC2
102
}
102
{ACAD_REACTORS
330
29
102
}
330
29
100
AcDbVisualStyle
  2

 70
     7
 71
     1
 72
     0
 73
     1
 90
        0
 40
-0.6
 41
-30.0
 62
     5
 63
     7
421
 16777215
 74
     0
 91
        4
 64
     7
 65
   257
 75
     1
175
     1
 42
1.0
 92
        8
 66
     7
 43
1.0
 76
     1
 77
     6
 78
     2
 67
     7
 79
     5
170
     0
171
     0
290
     0
174
     0
 93
        1
 44
0.0
173
     0
291
     1
 45
0.0
1001
ACAD
1000
AcDbSavedByObjectVersion
1070
     0
  0
VISUALSTYLE
  5
35
102
{ACAD_XDICTIONARY
360
CD0
102
}
102
{ACAD_REACTORS
330
29
102
}
330
29
100
AcDbVisualStyle
  2

 70
    12
 71
     2
 72
     2
 73
     0
 90
        0
 40
-0.6
 41
-30.0
 62
     5
 63
     7
421
 16777215
 74
     1
 91
        4
 64
     7
 65
   257
 75
     1
175
     1
 42
1.0
 92
        8
 66
     7
 43
1.0
 76
     1
 77
     6
 78
     2
 67
     7
 79
     5
170
     0
171
     0
290
     0
174
     0
 93
        1
 44
50.0
173
     0
291
     1
 45
0.0
1001
ACAD
1000
AcDbSavedByObjectVersion
1070
     0
  0
VISUALSTYLE
  5
39
102
{ACAD_XDICTIONARY
360
CD8
102
}
102
{ACAD_REACTORS
330
29
102
}
330
29
100
AcDbVisualStyle
  2

 70
    16
 71
     2
 72
     2
 73
     3
 90
        0
 40
-0.6
 41
-30.0
 62
     5
 63
     8
421
  8421504
 74
     1
 91
        4
 64
     7
 65
   257
 75
     1
175
     1
 42
1.0
 92
        8
 66
     8
424
  8421504
 43
1.0
 76
     1
 77
     6
 78
     2
 67
     7
 79
     5
170
     0
171
     0
290
     0
174
     0
 93
        1
 44
0.0
173
     0
291
     1
 45
0.0
1001
ACAD
1000
AcDbSavedByObjectVersion
1070
     0
  0
VISUALSTYLE
  5
32
102
{ACAD_XDICTIONARY
360
CCA
102
}
102
{ACAD_REACTORS
330
29
102
}
330
29
100
AcDbVisualStyle
  2

 70
     9
 71
     3
 72
     2
 73
     0
 90
        0
 40
-0.6
 41
-30.0
 62
     5
 63
     7
421
 16777215
 74
     2
 91
        2
 64
     7
 65
   257
 75
     1
175
     1
 42
179.0
 92
        8
 66
     7
 43
1.0
 76
     1
 77
     6
 78
     2
 67
     7
 79
     3
170
     0
171
     0
290
     0
174
     0
 93
        1
 44
0.0
173
     0
291
     0
 45
0.0
1001
ACAD
1000
AcDbSavedByObjectVersion
1070
     0
  0
VISUALSTYLE
  5
34
102
{ACAD_XDICTIONARY
360
CCE
102
}
102
{ACAD_REACTORS
330
29
102
}
330
29
100
AcDbVisualStyle
  2

 70
    11
 71
     2
 72
     2
 73
     0
 90
        0
 40
-0.6
 41
-30.0
 62
     5
 63
     7
421
 16777215
 74
     1
 91
        4
 64
     7
 65
   257
 75
     1
175
     1
 42
1.0
 92
        8
 66
     7
 43
1.0
 76
     1
 77
     6
 78
     2
 67
     7
 79
     5
170
     0
171
     0
290
     0
174
     0
 93
        1
 44
-50.0
173
     0
291
     1
 45
0.0
1001
ACAD
1000
AcDbSavedByObjectVersion
1070
     0
  0
VISUALSTYLE
  5
41
102
{ACAD_XDICTIONARY
360
CE8
102
}
102
{ACAD_REACTORS
330
29
102
}
330
29
100
AcDbVisualStyle
  2

 70
    22
 71
     2
 72
     2
 73
     0
 90
        0
 40
-0.6
 41
-30.0
 62
     5
 63
     7
421
 16777215
 74
     1
 91
        4
 64
     7
 65
   257
 75
     1
175
     1
 42
1.0
 92
        8
 66
     7
 43
1.0
 76
     1
 77
     6
 78
     2
 67
     7
 79
     5
170
     0
171
     0
290
     0
174
     0
 93
        1
 44
0.0
173
     0
291
     1
 45
0.0
1001
ACAD
1000
AcDbSavedByObjectVersion
1070
     0
  0
VISUALSTYLE
  5
38
102
{ACAD_XDICTIONARY
360
CD6
102
}
102
{ACAD_REACTORS
330
29
102
}
330
29
100
AcDbVisualStyle
  2

 70
    15
 71
     2
 72
     2
 73
     0
 90
        0
 40
-0.6
 41
-30.0
 62
     5
 63
     7
421
 16777215
 74
     1
 91
        4
 64
     7
 65
   257
 75
     1
175
     1
 42
1.0
 92
        8
 66
     7
 43
1.0
 76
     1
 77
     6
 78
     2
 67
     7
 79
     5
170
     0
171
     0
290
     0
174
     0
 93
        1
 44
0.0
173
     0
291
     1
 45
0.0
1001
ACAD
1000
AcDbSavedByObjectVersion
1070
     0
  0
VISUALSTYLE
  5
2A
102
{ACAD_XDICTIONARY
360
CBA
102
}
102
{ACAD_REACTORS
330
29
102
}
330
29
100
AcDbVisualStyle
  2

 70
     0
 71
     2
 72
     1
 73
     1
 90
        2
 40
-0.6
 41
30.0
 62
     5
 63
     7
421
 16777215
 74
     0
 91
        0
 64
     7
 65
   257
 75
     1
175
     1
 42
1.0
 92
        8
 66
     7
 43
1.0
 76
     1
 77
     6
 78
     2
 67
     7
 79
     5
170
     0
171
     0
290
     0
174
     0
 93
       13
 44
0.0
173
     0
291
     1
 45
0.0
1001
ACAD
1000
AcDbSavedByObjectVersion
1070
     0
  0
VISUALSTYLE
  5
2B
102
{ACAD_XDICTIONARY
360
CBC
102
}
102
{ACAD_REACTORS
330
29
102
}
330
29
100
AcDbVisualStyle
  2

 70
     1
 71
     2
 72
     1
 73
     1
 90
        2
 40
-0.6
 41
30.0
 62
     5
 63
     7
421
 16777215
 74
     1
 91
        0
 64
     7
 65
   257
 75
     1
175
     1
 42
1.0
 92
        0
 66
   257
 43
1.0
 76
     1
 77
     6
 78
     2
 67
     7
 79
     5
170
     0
171
     0
290
     0
174
     0
 93
       13
 44
0.0
173
     0
291
     1
 45
0.0
1001
ACAD
1000
AcDbSavedByObjectVersion
1070
     0
  0
VISUALSTYLE
  5
2C
102
{ACAD_XDICTIONARY
360
CBE
102
}
102
{ACAD_REACTORS
330
29
102
}
330
29
100
AcDbVisualStyle
  2

 70
     2
 71
     2
 72
     2
 73
     1
 90
        2
 40
-0.6
 41
30.0
 62
     5
 63
     7
421
 16777215
 74
     0
 91
        0
 64
     7
 65
   257
 75
     1
175
     1
 42
1.0
 92
        0
 66
     7
 43
1.0
 76
     1
 77
     6
 78
     2
 67
     7
 79
     5
170
     0
171
     0
290
     0
174
     0
 93
       13
 44
0.0
173
     0
291
     1
 45
0.0
1001
ACAD
1000
AcDbSavedByObjectVersion
1070
     0
  0
VISUALSTYLE
  5
2D
102
{ACAD_XDICTIONARY
360
CC0
102
}
102
{ACAD_REACTORS
330
29
102
}
330
29
100
AcDbVisualStyle
  2

 70
     3
 71
     2
 72
     2
 73
     1
 90
        2
 40
-0.6
 41
30.0
 62
     5
 63
     7
421
 16777215
 74
     1
 91
        0
 64
     7
 65
   257
 75
     1
175
     1
 42
1.0
 92
        0
 66
   257
 43
1.0
 76
     1
 77
     6
 78
     2
 67
     7
 79
     5
170
     0
171
     0
290
     0
174
     0
 93
       13
 44
0.0
173
     0
291
     1
 45
0.0
1001
ACAD
1000
AcDbSavedByObjectVersion
1070
     0
  0
VISUALSTYLE
  5
31
102
{ACAD_XDICTIONARY
360
CC8
102
}
102
{ACAD_REACTORS
330
29
102
}
330
29
100
AcDbVisualStyle
  2

 70
     6
 71
     1
 72
     2
 73
     2
 90
        0
 40
-0.6
 41
-30.0
 62
     5
 63
     7
421
 16777215
 74
     2
 91
        2
 64
     7
 65
   257
 75
     2
175
     1
 42
40.0
 92
        0
 66
   257
 43
1.0
 76
     1
 77
     6
 78
     2
 67
     7
 79
     3
170
     0
171
     0
290
     0
174
     0
 93
        1
 44
0.0
173
     0
291
     0
 45
0.0
1001
ACAD
1000
AcDbSavedByObjectVersion
1070
     0
  0
VISUALSTYLE
  5
3F
102
{ACAD_XDICTIONARY
360
CE4
102
}
102
{ACAD_REACTORS
330
29
102
}
330
29
100
AcDbVisualStyle
  2

 70
    20
 71
     2
 72
     2
 73
     0
 90
        0
 40
-0.6
 41
-30.0
 62
     5
 63
     7
421
 16777215
 74
     1
 91
        4
 64
     7
 65
   257
 75
     1
175
     1
 42
1.0
 92
       10
 66
     7
 43
1.0
 76
     1
 77
     6
 78
     2
 67
     7
 79
     5
170
     0
171
     0
290
     0
174
     0
 93
        1
 44
0.0
173
     0
291
     1
 45
0.0
1001
ACAD
1000
AcDbSavedByObjectVersion
1070
     0
  0
VISUALSTYLE
  5
37
102
{ACAD_XDICTIONARY
360
CD4
102
}
102
{ACAD_REACTORS
330
29
102
}
330
29
100
AcDbVisualStyle
  2

 70
    14
 71
     2
 72
     2
 73
     0
 90
        0
 40
-0.6
 41
-30.0
 62
     5
 63
     7
421
 16777215
 74
     1
 91
        4
 64
     7
 65
   257
 75
     7
175
     7
 42
1.0
 92
        8
 66
     7
 43
1.0
 76
     1
 77
     6
 78
     2
 67
     7
 79
     5
170
     0
171
     0
290
     0
174
     0
 93
        1
 44
0.0
173
     0
291
     1
 45
0.0
1001
ACAD
1000
AcDbSavedByObjectVersion
1070
     0
  0
VISUALSTYLE
  5
40
102
{ACAD_XDICTIONARY
360
CE6
102
}
102
{ACAD_REACTORS
330
29
102
}
330
29
100
AcDbVisualStyle
  2

 70
    21
 71
     2
 72
     2
 73
     0
 90
        0
 40
-0.6
 41
-30.0
 62
     5
 63
     7
421
 16777215
 74
     1
 91
        4
 64
     7
 65
   257
 75
     1
175
     1
 42
1.0
 92
        9
 66
     7
 43
1.0
 76
     1
 77
     6
 78
     2
 67
     7
 79
     5
170
     0
171
     0
290
     0
174
     0
 93
        1
 44
0.0
173
     0
291
     1
 45
0.0
1001
ACAD
1000
AcDbSavedByObjectVersion
1070
     0
  0
VISUALSTYLE
  5
33
102
{ACAD_XDICTIONARY
360
CCC
102
}
102
{ACAD_REACTORS
330
29
102
}
330
29
100
AcDbVisualStyle
  2

 70
     8
 71
     2
 72
     3
 73
     0
 90
        2
 40
-0.6
 41
30.0
 62
     5
 63
     7
421
 16777215
 74
     0
 91
        0
 64
     7
 65
   257
 75
     1
175
     1
 42
1.0
 92
        8
 66
   257
 43
1.0
 76
     1
 77
     6
 78
     2
 67
     7
 79
     3
170
     0
171
     0
290
     0
174
     0
 93
       13
 44
0.0
173
     0
291
     0
 45
0.0
1001
ACAD
1000
AcDbSavedByObjectVersion
1070
     0
  0
VISUALSTYLE
  5
3E
102
{ACAD_XDICTIONARY
360
CE2
102
}
102
{ACAD_REACTORS
330
29
102
}
330
29
100
AcDbVisualStyle
  2

 70
    27
 71
     2
 72
     2
 73
     1
 90
        2
 40
-0.6
 41
30.0
 62
     5
 63
     7
421
 16777215
 74
     0
 91
        4
 64
     7
 65
   257
 75
     1
175
     1
 42
1.0
 92
        8
 66
   257
 43
1.0
 76
     1
 77
     6
 78
     2
 67
     8
425
  7895160
 79
     3
170
     0
171
     0
290
     0
174
     0
 93
        5
 44
0.0
173
     0
291
     0
 45
0.0
1001
ACAD
1000
AcDbSavedByObjectVersion
1070
     0
  0
VISUALSTYLE
  5
3D
102
{ACAD_XDICTIONARY
360
CE0
102
}
102
{ACAD_REACTORS
330
29
102
}
330
29
100
AcDbVisualStyle
  2

 70
    26
 71
     2
 72
     2
 73
     1
 90
        2
 40
-0.6
 41
30.0
 62
     5
 63
     7
421
 16777215
 74
     1
 91
       10
 64
     7
 65
   257
 75
     2
175
     1
 42
1.0
 92
        8
 66
   257
 43
1.0
 76
     1
 77
     6
 78
     2
 67
     7
 79
     3
170
     0
171
     0
290
     0
174
     0
 93
        5
 44
0.0
173
     0
291
     0
 45
0.0
1001
ACAD
1000
AcDbSavedByObjectVersion
1070
     0
  0
VISUALSTYLE
  5
3A
102
{ACAD_XDICTIONARY
360
CDA
102
}
102
{ACAD_REACTORS
330
29
102
}
330
29
100
AcDbVisualStyle
  2

 70
    23
 71
     2
 72
     2
 73
     3
 90
        0
 40
-0.6
 41
-30.0
 62
     5
 63
     7
421
 16777215
 74
     2
 91
        2
 64
     7
 65
     7
 75
     1
175
     1
 42
40.0
 92
        8
 66
     7
 43
1.0
 76
     1
 77
     6
 78
     2
 67
     7
 79
     3
170
     0
171
     0
290
     0
174
     0
 93
        1
 44
0.0
173
     0
291
     0
 45
0.0
1001
ACAD
1000
AcDbSavedByObjectVersion
1070
     0
  0
VISUALSTYLE
  5
3B
102
{ACAD_XDICTIONARY
360
CDC
102
}
102
{ACAD_REACTORS
330
29
102
}
330
29
100
AcDbVisualStyle
  2

 70
    24
 71
     1
 72
     2
 73
     2
 90
        0
 40
-0.6
 41
-30.0
 62
     5
 63
     7
421
 16777215
 74
     2
 91
        2
 64
     7
 65
     7
 75
     1
175
     1
 42
40.0
 92
       11
 66
     7
 43
1.0
 76
     1
 77
     6
 78
     2
 67
     7
 79
     6
170
     0
171
     0
290
     0
174
     0
 93
        1
 44
0.0
173
     0
291
     0
 45
0.0
1001
ACAD
1000
AcDbSavedByObjectVersion
1070
     0
  0
VISUALSTYLE
  5
36
102
{ACAD_XDICTIONARY
360
CD2
102
}
102
{ACAD_REACTORS
330
29
102
}
330
29
100
AcDbVisualStyle
  2

 70
    13
 71
     2
 72
     2
 73
     0
 90
        0
 40
-0.6
 41
-30.0
 62
     5
 63
     7
421
 16777215
 74
     1
 91
        4
 64
     7
 65
   257
 75
     1
175
     1
 42
1.0
 92
       12
 66
     7
 43
1.0
 76
     1
 77
     6
 78
     2
 67
     7
 79
     5
170
     0
171
     0
290
     0
174
     0
 93
        1
 44
0.0
173
     0
291
     1
 45
0.0
1001
ACAD
1000
AcDbSavedByObjectVersion
1070
     0
  0
VISUALSTYLE
  5
30
102
{ACAD_XDICTIONARY
360
CC6
102
}
102
{ACAD_REACTORS
330
29
102
}
330
29
100
AcDbVisualStyle
  2

 70
     5
 71
     0
 72
     2
 73
     0
 90
        0
 40
-0.6
 41
-30.0
 62
     5
 63
     7
421
 16777215
 74
     1
 91
        4
 64
     7
 65
   257
 75
     1
175
     1
 42
1.0
 92
        0
 66
   257
 43
1.0
 76
     1
 77
     6
 78
     2
 67
     7
 79
     3
170
     0
171
     0
290
     0
174
     0
 93
        1
 44
0.0
173
     0
291
     0
 45
0.0
1001
ACAD
1000
AcDbSavedByObjectVersion
1070
     0
  0
VISUALSTYLE
  5
3C
102
{ACAD_XDICTIONARY
360
CDE
102
}
102
{ACAD_REACTORS
330
29
102
}
330
29
100
AcDbVisualStyle
  2

 70
    25
 71
     2
 72
     2
 73
     1
 90
        1
 40
0.5
 41
-30.0
 62
     5
 63
     7
421
 16777215
 74
     1
 91
        0
 64
     7
 65
   257
 75
     1
175
     1
 42
1.0
 92
        8
 66
     7
 43
1.0
 76
     1
 77
     6
 78
     2
 67
     7
 79
     3
170
     0
171
     0
290
     0
174
     0
 93
       13
 44
0.0
173
     0
291
     0
 45
0.0
1001
ACAD
1000
AcDbSavedByObjectVersion
1070
     0
  0
DICTIONARYVAR
  5
C64
102
{ACAD_REACTORS
330
C61
102
}
330
C61
100
DictionaryVariables
280
     0
  1
1:1
  0
DICTIONARYVAR
  5
C63
102
{ACAD_REACTORS
330
C61
102
}
330
C61
100
DictionaryVariables
280
     0
  1
STANDARD
  0
DICTIONARYVAR
  5
C62
102
{ACAD_REACTORS
330
C61
102
}
330
C61
100
DictionaryVariables
280
     0
  1
STANDARD
  0
DICTIONARYVAR
  5
CAB
102
{ACAD_REACTORS
330
C61
102
}
330
C61
100
DictionaryVariables
280
     0
  1
2
  0
DICTIONARY
  5
1A
330
19
100
AcDbDictionary
280
     1
281
     1
  3
BUMPTILE
360
1C
  3
DIFFUSETILE
360
1B
  3
OPACITYTILE
360
1F
  3
REFLECTIONTILE
360
1E
  3
REFRACTIONTILE
360
20
  3
SPECULARTILE
360
1D
  0
DICTIONARY
  5
12
330
11
100
AcDbDictionary
280
     1
281
     1
  3
BUMPTILE
360
14
  3
DIFFUSETILE
360
13
  3
FBXASSET
360
D9
  3
OPACITYTILE
360
17
  3
REFLECTIONTILE
360
16
  3
REFRACTIONTILE
360
18
  3
SPECULARTILE
360
15
  0
DICTIONARY
  5
22
330
21
100
AcDbDictionary
280
     1
281
     1
  3
BUMPTILE
360
24
  3
DIFFUSETILE
360
23
  3
OPACITYTILE
360
27
  3
REFLECTIONTILE
360
26
  3
REFRACTIONTILE
360
28
  3
SPECULARTILE
360
25
  0
DICTIONARY
  5
CAD
330
67
100
AcDbDictionary
280
     1
281
     1
  3
ACAD_XREC_ROUNDTRIP
360
CAE
  0
DICTIONARY
  5
C66
330
65
100
AcDbDictionary
280
     1
281
     1
  3
ACAD_ROUNDTRIP_2008_TABLESTYLE_CELLSTYLEMAP
360
CAC
  0
DICTIONARY
  5
CC4
330
2F
100
AcDbDictionary
280
     1
281
     1
  3
ACAD_XREC_ROUNDTRIP
360
CC5
  0
DICTIONARY
  5
CC2
330
2E
100
AcDbDictionary
280
     1
281
     1
  3
ACAD_XREC_ROUNDTRIP
360
CC3
  0
DICTIONARY
  5
CD0
330
35
100
AcDbDictionary
280
     1
281
     1
  3
ACAD_XREC_ROUNDTRIP
360
CD1
  0
DICTIONARY
  5
CD8
330
39
100
AcDbDictionary
280
     1
281
     1
  3
ACAD_XREC_ROUNDTRIP
360
CD9
  0
DICTIONARY
  5
CCA
330
32
100
AcDbDictionary
280
     1
281
     1
  3
ACAD_XREC_ROUNDTRIP
360
CCB
  0
DICTIONARY
  5
CCE
330
34
100
AcDbDictionary
280
     1
281
     1
  3
ACAD_XREC_ROUNDTRIP
360
CCF
  0
DICTIONARY
  5
CE8
330
41
100
AcDbDictionary
280
     1
281
     1
  3
ACAD_XREC_ROUNDTRIP
360
CE9
  0
DICTIONARY
  5
CD6
330
38
100
AcDbDictionary
280
     1
281
     1
  3
ACAD_XREC_ROUNDTRIP
360
CD7
  0
DICTIONARY
  5
CBA
330
2A
100
AcDbDictionary
280
     1
281
     1
  3
ACAD_XREC_ROUNDTRIP
360
CBB
  0
DICTIONARY
  5
CBC
330
2B
100
AcDbDictionary
280
     1
281
     1
  3
ACAD_XREC_ROUNDTRIP
360
CBD
  0
DICTIONARY
  5
CBE
330
2C
100
AcDbDictionary
280
     1
281
     1
  3
ACAD_XREC_ROUNDTRIP
360
CBF
  0
DICTIONARY
  5
CC0
330
2D
100
AcDbDictionary
280
     1
281
     1
  3
ACAD_XREC_ROUNDTRIP
360
CC1
  0
DICTIONARY
  5
CC8
330
31
100
AcDbDictionary
280
     1
281
     1
  3
ACAD_XREC_ROUNDTRIP
360
CC9
  0
DICTIONARY
  5
CE4
330
3F
100
AcDbDictionary
280
     1
281
     1
  3
ACAD_XREC_ROUNDTRIP
360
CE5
  0
DICTIONARY
  5
CD4
330
37
100
AcDbDictionary
280
     1
281
     1
  3
ACAD_XREC_ROUNDTRIP
360
CD5
  0
DICTIONARY
  5
CE6
330
40
100
AcDbDictionary
280
     1
281
     1
  3
ACAD_XREC_ROUNDTRIP
360
CE7
  0
DICTIONARY
  5
CCC
330
33
100
AcDbDictionary
280
     1
281
     1
  3
ACAD_XREC_ROUNDTRIP
360
CCD
  0
DICTIONARY
  5
CE2
330
3E
100
AcDbDictionary
280
     1
281
     1
  3
ACAD_XREC_ROUNDTRIP
360
CE3
  0
DICTIONARY
  5
CE0
330
3D
100
AcDbDictionary
280
     1
281
     1
  3
ACAD_XREC_ROUNDTRIP
360
CE1
  0
DICTIONARY
  5
CDA
330
3A
100
AcDbDictionary
280
     1
281
     1
  3
ACAD_XREC_ROUNDTRIP
360
CDB
  0
DICTIONARY
  5
CDC
330
3B
100
AcDbDictionary
280
     1
281
     1
  3
ACAD_XREC_ROUNDTRIP
360
CDD
  0
DICTIONARY
  5
CD2
330
36
100
AcDbDictionary
280
     1
281
     1
  3
ACAD_XREC_ROUNDTRIP
360
CD3
  0
DICTIONARY
  5
CC6
330
30
100
AcDbDictionary
280
     1
281
     1
  3
ACAD_XREC_ROUNDTRIP
360
CC7
  0
DICTIONARY
  5
CDE
330
3C
100
AcDbDictionary
280
     1
281
     1
  3
ACAD_XREC_ROUNDTRIP
360
CDF
  0
XRECORD
  5
1C
102
{ACAD_REACTORS
330
1A
102
}
330
1A
100
AcDbXrecord
280
     1
270
     1
271
     1
  0
XRECORD
  5
1B
102
{ACAD_REACTORS
330
1A
102
}
330
1A
100
AcDbXrecord
280
     1
270
     1
271
     1
  0
XRECORD
  5
1F
102
{ACAD_REACTORS
330
1A
102
}
330
1A
100
AcDbXrecord
280
     1
270
     1
271
     1
  0
XRECORD
  5
1E
102
{ACAD_REACTORS
330
1A
102
}
330
1A
100
AcDbXrecord
280
     1
270
     1
271
     1
  0
XRECORD
  5
20
102
{ACAD_REACTORS
330
1A
102
}
330
1A
100
AcDbXrecord
280
     1
270
     1
271
     1
  0
XRECORD
  5
1D
102
{ACAD_REACTORS
330
1A
102
}
330
1A
100
AcDbXrecord
280
     1
270
     1
271
     1
  0
XRECORD
  5
14
102
{ACAD_REACTORS
330
12
102
}
330
12
100
AcDbXrecord
280
     1
270
     1
271
     1
  0
XRECORD
  5
13
102
{ACAD_REACTORS
330
12
102
}
330
12
100
AcDbXrecord
280
     1
270
     1
271
     1
  0
XRECORD
  5
D9
102
{ACAD_REACTORS
330
12
102
}
330
12
100
AcDbXrecord
280
     1
 70
     1
 90
1959938040
 71
     1
  1
FA53B19F-D0E4-4274-A2E3-35648887990D
311
504B03040A0000080000644944433DEE336E79000000790000001B0000006175746F6465736B2D64657369676E2D7061636B6167652E786D6C3C3F786D6C2076657273696F6E3D22312E302220656E636F64696E673D227574662D3822203F3E3C666F726D6174733E3C666F726D61743E687474703A2F2F736368656D612E
311
6175746F6465736B2E636F6D2F64657369676E2D7061636B6167652F323030393C2F666F726D61743E3C2F666F726D6174733E504B030414000608080064494443D486FD9CA0000000F4000000130000005B436F6E74656E745F54797065735D2E786D6C7D8EC10E82300C865F65E91D8A1E8C310C0EEA1BF002731658846E
311
D98AC1B77784ABF1D8FE5FBFBF75BBCE937A534CCEB38643598122B6FEE978D0B0485F9C41B54DDD7D022595594E1A469170414C76A4D9A4D207E29CF43ECE46F218070CC6BECC4078ACAA135ACF422C856C0E68EA1BF5669944DDD7BCDE7B1F8E415D77AECB980613C2E4AC91FC167A2B244592486606FC29C8FD7F045B9A
311
EF7053A7E60B504B030414000608080064494443BB5D57D5E80000007C01000008000000636F72652E786D6C8D90416EC3201045AF82D856388089E4469848499313F40208260E4A0C9681AAC7EF3871A476D70D33FAFC3733FA7AFF3DDEC917CC39A4D853D1704A20BAE4431C7A5ACB857594EC8D9E532ABF6C94443B424F
311
17991A3DCCA94EABE4522C100BAA317958459B33144ADC1D9B9E667785D136B61674E45B335977B30334E2D5215C6BF0E4B924789C172E01666AE4561C0F677564AA558AA9D3E983754A49C6A568CF727B506DC7F566818D2E617CED7733D8021E792E5A2638E3EA93BFEF84D8F1EE8DE38BD062FF03D5C9FF13AA219656AE
311
E73EB14C8DC0431E1F466F962CB03C82C2BAE4667E00504B03041400060808006449444355019EA25F0000007C00000007000000636E782E786D6C4DCB3B0E80201045D1AD90E915ED2CF8AC45050C11660C8261F98AB1B07AC9C97D42D718D865D3E909258CFD00CCE24AC6E326A164D74DC0B4128928FF326038472BA131
311
28B1252AC747C6BAB984FC68F0B87FE8960A5C09FE86CFB69FBA01504B0304140006080800644944435C55C16B63010000020300000C0000006662782F636F72652E786D6C8D52ED8A8330107C9590BF879A680A5E8929B4D73EC1BD40AAA917AA89C444FAF8B77E14AF47294588616667777694EF6E6D8306E57A6D4D8169
311
4C3052A6B49536758183BF4439463BC19DB5FE4F194646B6AAC0238C05AF9D0DDD0295D678653CA0C6566A0165DF2B8F51D9C0A5C07DF9A35A19CBE0A1A2BFC69D2CAFB256318D81863AC17BEFC0009A878C271697F38D27332E7808BA5A585DC1347DD1CA61916EE8617F628788658C45EC78FC8A72C6D288A4343BA59B3D
311
CB72C293512CB8D7EDDD5DE994F4AA023DA159444944D837F9DC52BA25F90781134463F9832874D59BA2A08DCFD2C5EE2CEBB1A0606422FE6D0B1179D4CB01FC2482276388F09A127E0C1A028190BD3C37F73DAE000DAAF4D631602A1B566A904D503095A0E9E1C9CC42E7A9016CF6B44FFAA2CFEB1EF001A5A9C19AF4703D
311
073F4EE7F3D4258A4EB968F03764AC6B65B39A9B2DAEE73AE8A9BCB48D75EFA89365D564093319FF5EF10B504B030414000608080064494443E3191EDE7E0000009D0000000B0000006662782F636E782E786D6C4DCCD10A83201886E15B91FFDC65586E82196EE97DC4B290990EA76397BF1A1DECE883878F57F49FD5A3B7
311
4D2F174307F58900B2E11E2717960E4A9EF105502F458A31FFDD008571B51DEC0C522C2996E741939DC7E2F3A6DE85C781AC6D98E603C59A73839B1B21F8CA6B8595A1F4AC15E3436BA092A2FA95B6DDC3F20B504B030414000608080064494443F4E8DA012D01000015020000310000006662782F36353436453944332D45
311
3939462D344330302D423931412D4146333337454136394435462F636F72652E786D6C8D515B6EC23010BC8AE5AF5655129B98409063440B9CA01708B6A116C48EFCA8387ED74D90DA3F7EBCD6ECCCEC68976FEFC30D7D6B1F8CB31DA625C1485BE994B1970EA7782ED6186D05F7CEC53F348C6C3FE80E67180B7EF12E8D33
311
249D8DDA4640AD537A06FB1074C448DEE0D3E120BFF4D0977D8AC008D772ECE5B5BFE89296D0069EE0217A0880A621F9C5A259B2E6D0EEEBE2D0B6C7827D1052BCB77457EC8E75BD3AEC9A76BF3CF26A120A9E9251B3DC288863CE46FB674DB258F06886477CE9751FB5C26241685D505210F649DA0DA51BB27E23F0125E65
311
FA3F511AD593A2646CAC1773DC4916B0A0BC9A1A822B974EB747187D1F9D8F28CF7B095ABE62414A42D86AD530B2E4D5C4850D8069C366D3109D870DBF5C4F40A7C0CACE0D13BCCA4782F27B41A8F9A0E207504B0304140006080800644944439EE2A7464D01000033030000300000006662782F36353436453944332D4539
311
39462D344330302D423931412D4146333337454136394435462F636E782E786D6CD593B16EC32010865F05B156B6A1B1A234C244EAD027E8D095C025A1C16001AE9AB7EF9190344B868E5D4ED67FFFDD7FFA84C5E67B74E40B62B2C10F94B78C12F03A18EBF7039DF3AE5951B291228690EF6C947835C2408B4CA5D8C7304F
311
5532B053B3CBA83AEB8F558C90C21C352494CB2471412B870BC037338A306EC11830E466C4AF1D443C05C5ED89E40390B7D70F12B69FA073125DD922455732A428B526DD9928D14EA534D0A40F30AA56CD391848C7D6A8AC5ADE5EB31EDCF4BB8994816BE41C2D29E1032D95CA7A518B1C45874D29528E48AF9AF269022AD5
311
3439AB5546C8DDD978F148315B9F977DF55A041FD1CD978BBEC765E79E14D98E501D3A82CA60A87C667CD170D6B0FE9DBDAC395FB3D513C3CA4457EC526C43707508D7400C13D1C167F0994A2EBAD27E84AFFA88B111598778FA03480450532F746E3BFE339FEEFCBE1157C4BF40FE00504B0304140006080800644944437F
311
AC5E0EA505000081100000340000006662782F36353436453944332D453939462D344330302D423931412D4146333337454136394435462F6F626A656374732E786D6CAD57D96EDB3814FD1541F332F3E045B693DA034585632785D1A62D6AB4980703062D510A27D402924A9DF9FA3914295972EDD433E88B162E97F79E7B
311
EE42FFED3EE5CE331592E5D98DEBF587AE43B3308F5896DCB8A58A7B53D7791BF822CF556B99EB6424A537AE1E76033F117959D8A188C6A4E4EA68F4FEF62F478634A3AE137222E58D2BC3479A923E29551E51F9D48F8822FD24DEF7BDBE59D8159B08523C1E092D88A09982A618CF20C5314A79DDDFA13B08FC819E0F7CFD
311
B4ABC6E7570D2A7BBAE7B34C2A92853F1C762466EC4D9677A3AB59EF6A3219F726D723AF777B7FBBEC796FC6C3C5F562319BDFCD70B0540292AC2682C66EF00ED80816FA033315F825CBD478649758070D047D66DA536E30723C7F60D634D659234FA91FE65946C30A2BA051D9674547B4A059049F332AA1590BA161F7D7D3
311
38B6A6C7FADF1ED91EBE0C81F68E96A05AF7FADDD634DFFD0D13E4250C12926A061A2CADA186ABC303C2BB3CE7768E4927258A0A46B8C3D94E10F1E20658AA97047E478C66B2D0D1A02D700378C14C77E98230FA39CF4F6919979C6B1ABB4115055BC40A55B2D28CFD43C541FB3632D009BED26C985A83D44B41DD60662832
311
3D629301D2893949E07298A9778E4747862E749CAE966EF0FE7EB75FEBD83D7D7821F2820AA5E9036AD58EABDF1A25AB937791E7F406F7489503285F80FC4784FA4115F84DB0FD643FB1A728413219E722856F9CA1D31BE23174BCEAA9BF5B5FFEA0D9DCF5DE393CE16C0DD52FC0B36B43DB972D3803FF1984CFC5D89AB60E
311
0947DA78601900D22471788E21E4E178B7778315B21CB23276111E783019EA3EE3D31F58314814D549AD77062C8FD2E205091AB0558C841A86FC56C1839F7E4867D5C176D93978AF7E095DE7CBF5FB75296212D2071BD34B1AB38C2994B8036FDA0A7530EF58F4445FBEE72282A13FE2BD6EE39DDAA324D0D6986BE0933AA7
311
EB9FC3C99D0342EC4B729D6EFC9F9C002374616DC97F6032A49C938CE6657DEEABF50365C340AC835D33B9293087C202D29899A31844910E052B34884DB56A9266FF8C755F571FC14837B87DF9405EDAD96B77C8BD61CE73B1DDBD6C4D5A3A09F5B72EB72D06032D0574AF82A48E7F0BFA3662715C4A24C113B87E5B2DDABE
311
D3690129A2966AA26502FB115C4458D2D67251AD054125CDB32D43DD44DC9D3CA02D1F905A065402CF692C298FB78CF332DDC68CA31A6D53529C81E3FFEBBF2BD3624BD2BCCCD419D91DD5511DBABA77D82BBF13153EBAC1BA7AF76E917B231A9D2183AE2527B0EAB8F67E7E35BEF566F7BDE5F06ED29B8CDE4C7AF3D1DDB8
311
37BEBA9E4CA7D337B3D97059FBC96812F875A9694734BC84D2E6978259F77D5D217E6C12708307A2E4E69D09CFFAFD75D5472FEC0FB007F5B2D9388F9ED1F7D1E8E7020E2B4F0A5AA505A729CD14D131F4A03FF817823EA3A38C195FA524A11748F9F46E7D640C462ED8F759C73BFD7EB4D78E2E74409E14A21ECB749711C6
311
8F362606C97E912516BFDA27CDDB149AFA57FF59C7A03395396711F260E424344FA94236BCA00889944A50AFDDD347F6EE71C1EE67D3212AB2E3B4D6E491A049E61261016A95A1EA8E3BBFA1A9D37DD58D8B72DB7FC2C3660AD701676E5C34E98A8554F67728D0BA15AA84834BED4E1E8D3FC9128E5EDB6C6AFE9B5D1A9B4E
311
496E965CD23F59BB4C0AB706208D14E81BD010C13B9532815FE966E7C3FF6478AD8E43143E77A56A6C390C34C654C720448D51F6B68026E6C91EBD47A0BE6E96D7AFD67410B9E896F52A098CD49E2222A96E0A5A3FABD27CF979800EC5597D720A5E26F0E5E5927A8282CCA50E70B008ACB0320BA240D5C59F9BCF22C74D36
311
75EE1928E0FCBE9F5EFFB159E4699A67666833B7F76167FD88DB6DB44172A0FA5A2237A3A137DA54D7017B43D9EE88A47D12C9270CC0B382354077DC0F5E9A3B23EA909968D60DB42B8E18BA5A3AB6B04D20D4D2A59D5B3538683C32EA2086F49552474C7B41F1EA8D60502D850A02BD7CF02F504B03041400060800006449
311
4443000000000000000000000000350000006662782F36353436453944332D453939462D344330302D423931412D4146333337454136394435462F76657274696365732E62696E504B030414000608080064494443F270F1330600000004000000360000006662782F36353436453944332D453939462D344330302D423931
311
412D4146333337454136394435462F747269616E676C65732E62696E636660600000504B030414000608000064494443000000000000000000000000370000006662782F36353436453944332D453939462D344330302D423931412D4146333337454136394435462F617474726962757465732E62696E504B030414000608
311
080064494443D5987DFC8F00000041010000360000006662782F36353436453944332D453939462D344330302D423931412D4146333337454136394435462F6469726563746F72792E786D6C858F410EC2201045AF4266AF15DDB800BA74E7C21B903225242D6328188F2FA5C4183471359997F9FF81E89FF3C41E1816475E
311
02DF1F80A11FC8386F25A438EECEC07A250251FC3803E6F58C12560C4AD840E95E91C151A72936F496F35732D860FE635F62C8F2DA16B505C545B74125BAA2FA9E05D7CC053D063734D5C7665FD55B6B8D15D5E9BFEAFD8490FFA45E504B030414000608080064494443A8F6794DFA000000A00100003B0000006662782F36
311
353436453944332D453939462D344330302D423931412D4146333337454136394435462F7265736F75726365732F636F72652E786D6C8D504B6AC33010BD8AD1B6C8966C05DC202BE03639412F20E48923124B469FD2E37714BBD0EEBA9919DE87793C79FA5A1ED5278468BD1B08AF19A9C0193F59370F24A72BED49755232
311
789F7EC948E5F40203293051720E3EAF3B64BC4BE012A2CE4FB0833A4648A4320F3C0612CD0D165DEB9C5011EFF5AACD5DCF50F31A69D4291953C000D5F6A44CA202449F8381289B8D5532673BED1A3BE14F7BB510886A0FFC6DBC88918A4E082ACEE777DA0BD152D6F2EED21E46D1F54C36C5AC64B2CB4F4613402798D0CF
311
784739A34C7CB0D723E747D6BF309C682AF23FA6BC4EFF3465EB52D7EE71375B248A639027A16453FAC2F52C1377E9567D03504B010214000A0000080000644944433DEE336E79000000790000001B00000000000000000000000000000000006175746F6465736B2D64657369676E2D7061636B6167652E786D6C504B0102
311
140014000608080064494443D486FD9CA0000000F40000001300000000000000000000000000B20000005B436F6E74656E745F54797065735D2E786D6C504B0102140014000608080064494443BB5D57D5E80000007C010000080000000000000000000000000083010000636F72652E786D6C504B01021400140006080800
311
6449444355019EA25F0000007C000000070000000000000000000000000091020000636E782E786D6C504B01021400140006080800644944435C55C16B63010000020300000C00000000000000000000000000150300006662782F636F72652E786D6C504B0102140014000608080064494443E3191EDE7E0000009D000000
311
0B00000000000000000000000000A20400006662782F636E782E786D6C504B0102140014000608080064494443F4E8DA012D010000150200003100000000000000000000000000490500006662782F36353436453944332D453939462D344330302D423931412D4146333337454136394435462F636F72652E786D6C504B01
311
021400140006080800644944439EE2A7464D010000330300003000000000000000000000000000C50600006662782F36353436453944332D453939462D344330302D423931412D4146333337454136394435462F636E782E786D6C504B01021400140006080800644944437FAC5E0EA5050000811000003400000000000000
311
000000000000600800006662782F36353436453944332D453939462D344330302D423931412D4146333337454136394435462F6F626A656374732E786D6C504B01021400140006080000644944430000000000000000000000003500000000000000000000000000570E00006662782F36353436453944332D453939462D34
311
4330302D423931412D4146333337454136394435462F76657274696365732E62696E504B0102140014000608080064494443F270F13306000000040000003600000000000000000000000000AA0E00006662782F36353436453944332D453939462D344330302D423931412D4146333337454136394435462F747269616E67
311
6C65732E62696E504B01021400140006080000644944430000000000000000000000003700000000000000000000000000040F00006662782F36353436453944332D453939462D344330302D423931412D4146333337454136394435462F617474726962757465732E62696E504B0102140014000608080064494443D5987D
311
FC8F000000410100003600000000000000000000000000590F00006662782F36353436453944332D453939462D344330302D423931412D4146333337454136394435462F6469726563746F72792E786D6C504B0102140014000608080064494443A8F6794DFA000000A00100003B000000000000000000000000003C100000
311
6662782F36353436453944332D453939462D344330302D423931412D4146333337454136394435462F7265736F75726365732F636F72652E786D6C504B0506000000000E000E00800400008F1100000000
310
504B03040A0000080000644944433DEE336E79000000790000001B0000006175746F6465736B2D64657369676E2D7061636B6167652E786D6C3C3F786D6C2076657273696F6E3D22312E302220656E636F64696E673D227574662D3822203F3E3C666F726D6174733E3C666F726D61743E687474703A2F2F736368656D612E
310
6175746F6465736B2E636F6D2F64657369676E2D7061636B6167652F323030393C2F666F726D61743E3C2F666F726D6174733E504B030414000608080064494443D486FD9CA0000000F4000000130000005B436F6E74656E745F54797065735D2E786D6C7D8EC10E82300C865F65E91D8A1E8C310C0EEA1BF002731658846E
310
D98AC1B77784ABF1D8FE5FBFBF75BBCE937A534CCEB38643598122B6FEE978D0B0485F9C41B54DDD7D022595594E1A469170414C76A4D9A4D207E29CF43ECE46F218070CC6BECC4078ACAA135ACF422C856C0E68EA1BF5669944DDD7BCDE7B1F8E415D77AECB980613C2E4AC91FC167A2B244592486606FC29C8FD7F045B9A
310
EF7053A7E60B504B03041400060808006449444392F432A5EA0000007C01000008000000636F72652E786D6C8D904D6EC3201085AF82665BE100B66C37C244767E4ED00B20202E4A0C9681AAC72F4E1CA9DD75C38C1EEF9B193D7EF89EEEE8CB2CC17AD7012D0820E394D7D68D1DA478C52DA083E08BF7F1970D909393E960
310
9541F071F169DE24E55D342E66D5796D36518660222075CF4D07417D9A491632C5EC08B76296EA264753D05797E194AC46CF2556E779F66ACD02626887F2743953DC3665852BC66ADC5F4E3D3E56C773CF9AA1A96BC2772B2C78B4D36BBF5A8C8C468360849698124CAA0FF2BEA7744FDA3792DF0CADF63F509AF53FA1645D
310
2CD976EE130B20683EE4F121F86ECD22974750B9AEB9891F504B03041400060808006449444355019EA25F0000007C00000007000000636E782E786D6C4DCB3B0E80201045D1AD90E915ED2CF8AC45050C11660C8261F98AB1B07AC9C97D42D718D865D3E909258CFD00CCE24AC6E326A164D74DC0B4128928FF326038472B
310
A13128B1252AC747C6BAB984FC68F0B87FE8960A5C09FE86CFB69FBA01504B030414000608080064494443D8CB2E6666010000020300000C0000006662782F636F72652E786D6C8D52D96E833010FC15CBAF15600E2534328E727E417FC0310E45011BF940F9FC2E47445345518564AC999DDDD901BABDB70DEAA5B1B55605
310
8E438291544297B5AA0AECDD35C831DA326AB476BFCA3052BC95051E60CC6865B4EF664868E5A472802A5DCA19E4D64A879168E052602BBE65CB43EE1D54D85BD87171E3950CE31068A863D43A0306D034643831BB5EEE349A7046BDAFCB99AD4B98565F6B6930DBE7FBF4783EC541BE4EB3204B9255B03B1F77C1213B9C76
310
C97ABF5EAD088D0631A3AE6E1FEE8491DCC912B384C469109380645FE47313C71B927F10384134943F897C57FE53E46BE5D264B63BC92C66311819893FDB42440E59DE839F88D16808115E63C2CF41432010B2E397E6B1C70DA05E0AA74D064CA9FD42F5BCF112A612343E349A58E83C3680CD5EF649DEF479DF033E205715
310
58E30EAE17EF86E9749A3A47D14913F4EE8E94362D6F167393C5E55C06BD940BDD68F31F7534AF1ACD6146C3DFCB7E00504B030414000608080064494443757345347D0000009D0000000B0000006662782F636E782E786D6C4DCCD10A83201886E15B91FFDC6569E6408D8DBC90581632D3703A76F9ABD1C18E3E78F87865
310
FF593D7ADBF4723128A82F04900D8F38B9B0282879C60250AF658A31FFDD008571B50A0E062D9714CB76D264E7B1F8BCAB77E179E240296FC58DE3C63404B3CE0C581876C51DAF0D63A4BD535A43A565F52BED7B84F517504B030414000608080064494443EA066FD52B01000014020000310000006662782F443333363538
310
41362D324532302D343745442D384534392D3736314534343035423333312F636F72652E786D6C8D515B6EC32010BC8AC557AA0A1B6CE23811266A15DFA0172086A42831583CAA1CBF4BED4AED5F7E76D1EECCECB0CB8F8FE95E7C691F8CB33DA2254185B6A353C65E7B94E20577A8380AEE9D8B7F60A8B072D23DCA6524F8
310
D5BB34AFA5D1D9A86D84AA754AAF4519828EA818EFF0E851183FF5244B992220C2AD9CE57893575DD212DA80133C440F068A65488E489C9AA6DD766F2DAE879A60B61B4EB81BD81EEF5A3A3046B6EF4D4379B510054FC9A8956E14D83117A3FDB322992C7834D3AFFDD16B19B542A226B4C19460C23EC8FE40E98174AF0422
310
E15586FF23A5593D494AC6C6A65EED2EB48004FC666908AE5C3ADF7FCDE8C7EC7C2CF2BC4DD0E30B12A424A4A53BBAEF78B5406101A0D9B2553344E761C19BDB19D0794D59B8658257F946907E0E0839DF537C03504B030414000608080064494443F84568515501000033030000300000006662782F44333336353841362D
310
324532302D343745442D384534392D3736314534343035423333312F636E782E786D6CBD934D6EC2301085AF62795B2571204229728CD4454FD045B7C61EC025B123FF54E5F61D83A16C5854AABA19456FDECC1B7D72F8E66B1AC927F8609C1D685B334AC02AA78DDD0F34C55DD553B211DC3B17EF6C945839C140B34C05DF
310
7B97E62269D8C934465447638F45F4105CF20A02CA79928C4EC9111780AD128A306D416BD0E466C4AF1D783C05C5ED89C40390D79777E2B61FA062E04DDE2278933304CFB524DD992851A30C61A0411D6092B54CD16908C75ACB28EBB6BE663DB8E96713C903D7C8E40DC9E103CD958A72518D1C79834DC143F448AF98E269
310
062AE43C8F46C988909BB3F1E2113C191B575DF11A04EFD1BD5CACFA1E979D7B8247334171280F3282A662C1DA65D5B28A756FEC79DDB66BD63F31AC8C37D92EF8D6B9B10CE11AF06E26CAD9083652D1F226B71FE12B3EA28D47D6CE9F7E01120194D40B9DDB8EBFE4D3AE965DF78F7C9AF3FB465C1EFF02F10D504B030414
310
000608080064494443FFFCC333640700009A1B0000340000006662782F44333336353841362D324532302D343745442D384534392D3736314534343035423333312F6F626A656374732E786D6CED59DD739B3810FF5718EEE5EEC1D8D84E9ADC103A49DC743CBDB49DFADAB907CF3032C84417211849A4F1FDF5B7FA000331
310
09BEE6DEFA6003425AEDFEF6534BF0F631A3CE03E682E4ECC2F5BD89EB6016E70961E9855BCAEDE8CC75DE8601CF73D998E63A0C65F8C255C36E18A43C2F0B3B94E02D2AA9EC8CDE5CFDE5881833EC3A3145425CB822BEC319F25029F3048B7B2F411279E9F6D1F33D33B14D36E5A8B8EB102D10C74C02A730CE808A6398F2
310
DB8F13771C0663F53E0CD4BF9D351B346BDE3F6BACA56E7349989088C54F58EA90990D6269E6CF17EFA627E7A393F97C369A9F4EFDD1D5CDD562E4BF994DAE4FAFAFCF2FDF9D037B9B3CA756A604179825A0BF9D1BFAC158BDA945B7081CE23ACE19C3B10612A0D2627509122C60AB067C93F6A3AF246ABCD612369EE7EABD
310
65A1313C6B53E99B350C88165D10C46E57495C5D9BF2E59BBF417031C428B9C012B8159283762D3C1CBCC20D27C1D88C86C166AF0B229C0C49CC09A20E251B8E382805A6AA296160165832CA3938907294045A73E675DBB6C0335F769D435C6E4B4A9567B8A176AC08DC0F4BA13923FF60BEE7BE890CF004D29684C933CBA5
310
DC15D80DCF83B11E0C0375994DED4B03A4B3A528151A11F3B623E8B572FDE5C20D3FDC6C1E572A1C1CDEBCE07981B95446A7F4A8F90243B6578592DDD61FA439B5008431A0DA957B50BE00F21F217AEC5901BD71F2387F9CDBB9922326B639CF4037CEC4194DE06FE2F8FA5FDD37EE8271BDB8ADBD3E3CC14D1554673F8E67
310
5B068D95E5BF0167183C80C1E77C665FAD6244C19E6F09038094913834872108EDDBCDA31B2E217042A0875588863E880CEC3EC06D30B664F65AA9DCCB7A1D0344ED1EB3214A02D8B445021B3D7A7A0FD9839378AFA6A6887DF09EBC8AB95E2E561F5625DFA218DF5A9F5EE02D614442D63CCC500BF39644F778F73DE70908
310
FA14EF5513EFCC6E25006D85B9023EAD40500FFB9D5B1BC4B02ECD55B8095ED8018450B9BA41FF968818538A18CECB6ADF3ABA2943AD3DDED60C6E383510CFA61D13E6F881A8AA029C663FA3C528E4FD98934281E886EF8D6475D0F47AA4FBBAFC081659CFEF99B564107A19A27FEAA0750087966557485B206A8137FB701E
310
E734E7D166179948E7422D016CB4BDE55B8B28C47AA32445053C48FB5D155252236D9490EDB61410570FB0F86D79DD34878937F34F9CE67FC719E7106DC17711B77ED7D92322194A71B44549DF76CDDD6ADA4293EC21CDF196825CE481C85D84643449707A0C3447113F7F55EA29CD85200C0BC85707C16FA231F12090186D
310
562C2BAD76802622CAB044F4180414991E7075DAD1356E0CA5C3CB3CD6D6FB9CC69A44FF278BE0086AC99C45044A51C8212F32EE7B271043DAE81A943BF882B555B4B518B4841222DE45DF3149EFE431A81BF23DB8C77024296594172806B31E40F689AF28A57678DFA0F85EE58F282EE96B1988C0741B114ACB2C821F6170
310
F218E2DA75607A1685067113FB24CEA02843B2E44336393D993CD9C7D40CDD10D8D8684B2884ED2843450FEAAD80A8EB11A706DF52EF51EAA6CC8A086579C906198A37EB7A9325DF55AB223B905F552A42D95811B604C380305967D52A6683A9EBC00A6EA403D52E12282BA83985BD9078FCDA9B34E5DE0DB8F5D3D7DD2083
310
C2AF477BCD883AAF60B03CB60A03F11DC9F8CE0D57FA3ABA82FA3BC1C93ED557B566B30204C454242F39B12AFABA84F2C6D6686E788BA458BF3759B7BA7E5D7AD0FD08C6B0066A977AE152019D612691AA4C6ED50DFD822004B76898F1A5CAA9C750B94C125D35227A43FAD4D92A235A9B66C42BEE30CB33F8B13561312D13
310
BC4689B88F6E258D5644B16EA5F4325261FCAC809FDEAF3AF0C0C800913EAB020F7FEFACB5A3D7AA5C3A4844DE95D986210241B0255A6A74E3152CB51AA9B45C5FD59902EA2E3030ABE2F9CF9345B31DF1F364915AC3F8A193C5D5EE0FB46BF6451AE93C56767DD431A0CE4F8ACA6B1C0374DBA1A65A671193CCADFCD69922
310
088A55941F5C8D5541C310ECE3F83F67EDBE2C68B6EBF07F5CD6F69F541C476595D664D5A53A50B92E9B39ECE6F26476E59FDF8C169377F3D17CFA663EBA9CBE9B8D6627A7F3B3B3B337E7E793458DA676D430A88399CE5DF06C825A35AC9E2C06D095153925099CE61327C510F3259CE907B4CF79860524CF66B33BB14DF9
310
01AB1F4C9F53A20DC5152777081AC454405A078CCA58B6C79D5FA03529E1A07DE142D3C8BB873F6B95AE0399E7C2855681243116DE06DA4CAAA1A78943CAD5B9DF12037C104B554A348BEAE77A95C2A615FEEB2943D28095ABD5C380C2AD80EE57AB43A179B33CC547095EB1E32009B79B5242B56664D90FD4C2E86DF6EA37
310
B251C2EEEDD68FE0BACF8BE57B7A4E0B91419F0C9E3502437524114F75BF5B316659BA5C7C1E439FCD597E720A5AA6A0CBE194461C833197AAA0022B02ABB0340B24C154AF7F5F7FE6397CE2C91C5D1539BF3E9E9DFEB6BECEB32C6766687D09A7B2043E1439AB3BF8EC93ACA178C0AAB92ED6D3893F5DEBA6B6EDB3471B24
310
B0A7AA2218A88A092548C7E4C02E9F34A86CFB72AC54D199BE5C3836884233C0D8D1931EAFF9C8E5800FA9CF29CA63B49F57D23EDBD71EEBA960131C3AD2E1BF504B030414000608000064494443000000000000000000000000350000006662782F44333336353841362D324532302D343745442D384534392D3736314534
310
343035423333312F76657274696365732E62696E504B030414000608080064494443F270F1330600000004000000360000006662782F44333336353841362D324532302D343745442D384534392D3736314534343035423333312F747269616E676C65732E62696E636660600000504B030414000608000064494443000000
310
000000000000000000370000006662782F44333336353841362D324532302D343745442D384534392D3736314534343035423333312F617474726962757465732E62696E504B030414000608080064494443D5987DFC8F00000041010000360000006662782F44333336353841362D324532302D343745442D384534392D37
310
36314534343035423333312F6469726563746F72792E786D6C858F410EC2201045AF4266AF15DDB800BA74E7C21B903225242D6328188F2FA5C4183471359997F9FF81E89FF3C41E1816475E02DF1F80A11FC8386F25A438EECEC07A250251FC3803E6F58C12560C4AD840E95E91C151A72936F496F35732D860FE635F62C8
310
F2DA16B505C545B74125BAA2FA9E05D7CC053D063734D5C7665FD55B6B8D15D5E9BFEAFD8490FFA45E504B030414000608080064494443815F1C3DFC000000A00100003B0000006662782F44333336353841362D324532302D343745442D384534392D3736314534343035423333312F7265736F75726365732F636F72652E
310
786D6C8D50596AC33010BD8A99DF2247B28DE30659C1D94ED00B0879E288C492D1527AFC4A890BED5F7F6686B7308FC7F75FF3A3F844E7B5353DB092428146D9519BA98718AEA483622FB8B336FC924161E48C3D6418049F9C8DCB0A296B029A905063475C41E93D0628D4231D3D7875C359963286A4F0F77291EA2E272C59
310
99E8A413DC07970214AF27798270E86D740A3DDFBC58C163D4E3AAD163FAA9AF1A1D884377A84F973325DDB66E4853552D192EA7811C9BE379A8B6876DDB52BEC966C1839E7F322A8732E008A2A2AC268C12DA7CD0F71D633BDABDD1349329CBFF98E232FED314B50975B5C67DD93C0896823C09C137B9AFB49E65A69DBB15
310
DF504B010214000A0000080000644944433DEE336E79000000790000001B00000000000000000000000000000000006175746F6465736B2D64657369676E2D7061636B6167652E786D6C504B0102140014000608080064494443D486FD9CA0000000F40000001300000000000000000000000000B20000005B436F6E74656E
310
745F54797065735D2E786D6C504B010214001400060808006449444392F432A5EA0000007C010000080000000000000000000000000083010000636F72652E786D6C504B010214001400060808006449444355019EA25F0000007C000000070000000000000000000000000093020000636E782E786D6C504B010214001400
310
0608080064494443D8CB2E6666010000020300000C00000000000000000000000000170300006662782F636F72652E786D6C504B0102140014000608080064494443757345347D0000009D0000000B00000000000000000000000000A70400006662782F636E782E786D6C504B0102140014000608080064494443EA066FD5
310
2B0100001402000031000000000000000000000000004D0500006662782F44333336353841362D324532302D343745442D384534392D3736314534343035423333312F636F72652E786D6C504B0102140014000608080064494443F845685155010000330300003000000000000000000000000000C70600006662782F4433
310
3336353841362D324532302D343745442D384534392D3736314534343035423333312F636E782E786D6C504B0102140014000608080064494443FFFCC333640700009A1B000034000000000000000000000000006A0800006662782F44333336353841362D324532302D343745442D384534392D3736314534343035423333
310
312F6F626A656374732E786D6C504B01021400140006080000644944430000000000000000000000003500000000000000000000000000201000006662782F44333336353841362D324532302D343745442D384534392D3736314534343035423333312F76657274696365732E62696E504B01021400140006080800644944
310
43F270F13306000000040000003600000000000000000000000000731000006662782F44333336353841362D324532302D343745442D384534392D3736314534343035423333312F747269616E676C65732E62696E504B01021400140006080000644944430000000000000000000000003700000000000000000000000000
310
CD1000006662782F44333336353841362D324532302D343745442D384534392D3736314534343035423333312F617474726962757465732E62696E504B0102140014000608080064494443D5987DFC8F000000410100003600000000000000000000000000221100006662782F44333336353841362D324532302D34374544
310
2D384534392D3736314534343035423333312F6469726563746F72792E786D6C504B0102140014000608080064494443815F1C3DFC000000A00100003B00000000000000000000000000051200006662782F44333336353841362D324532302D343745442D384534392D3736314534343035423333312F7265736F75726365
310
732F636F72652E786D6C504B0506000000000E000E00800400005A1300000000
  0
XRECORD
  5
17
102
{ACAD_REACTORS
330
12
102
}
330
12
100
AcDbXrecord
280
     1
270
     1
271
     1
  0
XRECORD
  5
16
102
{ACAD_REACTORS
330
12
102
}
330
12
100
AcDbXrecord
280
     1
270
     1
271
     1
  0
XRECORD
  5
18
102
{ACAD_REACTORS
330
12
102
}
330
12
100
AcDbXrecord
280
     1
270
     1
271
     1
  0
XRECORD
  5
15
102
{ACAD_REACTORS
330
12
102
}
330
12
100
AcDbXrecord
280
     1
270
     1
271
     1
  0
XRECORD
  5
24
102
{ACAD_REACTORS
330
22
102
}
330
22
100
AcDbXrecord
280
     1
270
     1
271
     1
  0
XRECORD
  5
23
102
{ACAD_REACTORS
330
22
102
}
330
22
100
AcDbXrecord
280
     1
270
     1
271
     1
  0
XRECORD
  5
27
102
{ACAD_REACTORS
330
22
102
}
330
22
100
AcDbXrecord
280
     1
270
     1
271
     1
  0
XRECORD
  5
26
102
{ACAD_REACTORS
330
22
102
}
330
22
100
AcDbXrecord
280
     1
270
     1
271
     1
  0
XRECORD
  5
28
102
{ACAD_REACTORS
330
22
102
}
330
22
100
AcDbXrecord
280
     1
270
     1
271
     1
  0
XRECORD
  5
25
102
{ACAD_REACTORS
330
22
102
}
330
22
100
AcDbXrecord
280
     1
270
     1
271
     1
  0
XRECORD
  5
CAE
102
{ACAD_REACTORS
330
CAD
102
}
330
CAD
100
AcDbXrecord
280
     1
102
ACAD_ROUNDTRIP_2012_MLEADER_STYLE
298
     1
  0
CELLSTYLEMAP
  5
CAC
102
{ACAD_REACTORS
330
C66
102
}
330
C66
100
AcDbCellStyleMap
 90
        3
300
CELLSTYLE
  1
TABLEFORMAT_BEGIN
 90
        5
170
     1
 91
        0
 92
    32768
 62
   257
 93
        1
300
CONTENTFORMAT
  1
CONTENTFORMAT_BEGIN
 90
        0
 91
        0
 92
      512
 93
        0
300

 40
0.0
140
1.0
 94
        5
 62
     0
340
55
144
0.25
309
CONTENTFORMAT_END
171
     1
301
MARGIN
  1
CELLMARGIN_BEGIN
 40
0.06
 40
0.06
 40
0.06
 40
0.06
 40
0.18
 40
0.18
309
CELLMARGIN_END
 94
        6
 95
        1
302
GRIDFORMAT
  1
GRIDFORMAT_BEGIN
 90
        0
 91
        1
 62
     0
 92
       -2
340
0
 93
        0
 40
0.045
309
GRIDFORMAT_END
 95
        2
302
GRIDFORMAT
  1
GRIDFORMAT_BEGIN
 90
        0
 91
        1
 62
     0
 92
       -2
340
0
 93
        0
 40
0.045
309
GRIDFORMAT_END
 95
        4
302
GRIDFORMAT
  1
GRIDFORMAT_BEGIN
 90
        0
 91
        1
 62
     0
 92
       -2
340
0
 93
        0
 40
0.045
309
GRIDFORMAT_END
 95
        8
302
GRIDFORMAT
  1
GRIDFORMAT_BEGIN
 90
        0
 91
        1
 62
     0
 92
       -2
340
0
 93
        0
 40
0.045
309
GRIDFORMAT_END
 95
       16
302
GRIDFORMAT
  1
GRIDFORMAT_BEGIN
 90
        0
 91
        1
 62
     0
 92
       -2
340
0
 93
        0
 40
0.045
309
GRIDFORMAT_END
 95
       32
302
GRIDFORMAT
  1
GRIDFORMAT_BEGIN
 90
        0
 91
        1
 62
     0
 92
       -2
340
0
 93
        0
 40
0.045
309
GRIDFORMAT_END
309
TABLEFORMAT_END
  1
CELLSTYLE_BEGIN
 90
        1
 91
        1
300
_TITLE
309
CELLSTYLE_END
300
CELLSTYLE
  1
TABLEFORMAT_BEGIN
 90
        5
170
     1
 91
        0
 92
        0
 62
   257
 93
        1
300
CONTENTFORMAT
  1
CONTENTFORMAT_BEGIN
 90
        0
 91
        0
 92
      512
 93
        0
300

 40
0.0
140
1.0
 94
        5
 62
     0
340
55
144
0.18
309
CONTENTFORMAT_END
171
     1
301
MARGIN
  1
CELLMARGIN_BEGIN
 40
0.06
 40
0.06
 40
0.06
 40
0.06
 40
0.18
 40
0.18
309
CELLMARGIN_END
 94
        6
 95
        1
302
GRIDFORMAT
  1
GRIDFORMAT_BEGIN
 90
        0
 91
        1
 62
     0
 92
       -2
340
0
 93
        0
 40
0.045
309
GRIDFORMAT_END
 95
        2
302
GRIDFORMAT
  1
GRIDFORMAT_BEGIN
 90
        0
 91
        1
 62
     0
 92
       -2
340
0
 93
        0
 40
0.045
309
GRIDFORMAT_END
 95
        4
302
GRIDFORMAT
  1
GRIDFORMAT_BEGIN
 90
        0
 91
        1
 62
     0
 92
       -2
340
0
 93
        0
 40
0.045
309
GRIDFORMAT_END
 95
        8
302
GRIDFORMAT
  1
GRIDFORMAT_BEGIN
 90
        0
 91
        1
 62
     0
 92
       -2
340
0
 93
        0
 40
0.045
309
GRIDFORMAT_END
 95
       16
302
GRIDFORMAT
  1
GRIDFORMAT_BEGIN
 90
        0
 91
        1
 62
     0
 92
       -2
340
0
 93
        0
 40
0.045
309
GRIDFORMAT_END
 95
       32
302
GRIDFORMAT
  1
GRIDFORMAT_BEGIN
 90
        0
 91
        1
 62
     0
 92
       -2
340
0
 93
        0
 40
0.045
309
GRIDFORMAT_END
309
TABLEFORMAT_END
  1
CELLSTYLE_BEGIN
 90
        2
 91
        1
300
_HEADER
309
CELLSTYLE_END
300
CELLSTYLE
  1
TABLEFORMAT_BEGIN
 90
        5
170
     1
 91
        0
 92
        0
 62
   257
 93
        1
300
CONTENTFORMAT
  1
CONTENTFORMAT_BEGIN
 90
        0
 91
        0
 92
      512
 93
        0
300

 40
0.0
140
1.0
 94
        2
 62
     0
340
55
144
0.18
309
CONTENTFORMAT_END
171
     1
301
MARGIN
  1
CELLMARGIN_BEGIN
 40
0.06
 40
0.06
 40
0.06
 40
0.06
 40
0.18
 40
0.18
309
CELLMARGIN_END
 94
        6
 95
        1
302
GRIDFORMAT
  1
GRIDFORMAT_BEGIN
 90
        0
 91
        1
 62
     0
 92
       -2
340
0
 93
        0
 40
0.045
309
GRIDFORMAT_END
 95
        2
302
GRIDFORMAT
  1
GRIDFORMAT_BEGIN
 90
        0
 91
        1
 62
     0
 92
       -2
340
0
 93
        0
 40
0.045
309
GRIDFORMAT_END
 95
        4
302
GRIDFORMAT
  1
GRIDFORMAT_BEGIN
 90
        0
 91
        1
 62
     0
 92
       -2
340
0
 93
        0
 40
0.045
309
GRIDFORMAT_END
 95
        8
302
GRIDFORMAT
  1
GRIDFORMAT_BEGIN
 90
        0
 91
        1
 62
     0
 92
       -2
340
0
 93
        0
 40
0.045
309
GRIDFORMAT_END
 95
       16
302
GRIDFORMAT
  1
GRIDFORMAT_BEGIN
 90
        0
 91
        1
 62
     0
 92
       -2
340
0
 93
        0
 40
0.045
309
GRIDFORMAT_END
 95
       32
302
GRIDFORMAT
  1
GRIDFORMAT_BEGIN
 90
        0
 91
        1
 62
     0
 92
       -2
340
0
 93
        0
 40
0.045
309
GRIDFORMAT_END
309
TABLEFORMAT_END
  1
CELLSTYLE_BEGIN
 90
        3
 91
        2
300
_DATA
309
CELLSTYLE_END
  0
XRECORD
  5
CC5
102
{ACAD_REACTORS
330
CC4
102
}
330
CC4
100
AcDbXrecord
280
     1
102
RTVSPropertyOp0
 70
     1
102
RTVSPropertyOp1
 70
     1
102
RTVSPropertyOp2
 70
     1
102
RTVSPropertyOp3
 70
     1
102
RTVSPropertyOp4
 70
     1
102
RTVSPropertyOp5
 70
     1
102
RTVSPropertyOp6
 70
     1
102
RTVSPropertyOp7
 70
     1
102
RTVSPropertyOp8
 70
     1
102
RTVSPropertyOp9
 70
     1
102
RTVSPropertyOp10
 70
     1
102
RTVSPropertyOp11
 70
     1
102
RTVSPropertyOp12
 70
     1
102
RTVSPropertyOp13
 70
     1
102
RTVSPropertyOp14
 70
     1
102
RTVSPropertyOp15
 70
     1
102
RTVSPropertyOp16
 70
     1
102
RTVSPropertyOp17
 70
     1
102
RTVSPropertyOp18
 70
     1
102
RTVSPropertyOp19
 70
     1
102
RTVSPropertyOp20
 70
     1
102
RTVSPropertyOp21
 70
     1
102
RTVSPropertyOp22
 70
     1
102
RTVSPropertyOp23
 70
     1
102
RTVSPropertyOp24
 70
     1
102
RTVSPropertyOp25
 70
     1
102
RTVSPropertyOp26
 70
     1
102
RTVSPropertyOp27
 70
     1
102
RTVSPropertyOp28
 70
     1
102
RTVSPropertyOp29
 70
     1
102
RTVSPropertyOp30
 70
     1
102
RTVSPropertyOp31
 70
     1
102
RTVSPropertyOp32
 70
     1
  0
XRECORD
  5
CC3
102
{ACAD_REACTORS
330
CC2
102
}
330
CC2
100
AcDbXrecord
280
     1
102
RTVSPropertyOp0
 70
     1
102
RTVSPropertyOp1
 70
     1
102
RTVSPropertyOp2
 70
     1
102
RTVSPropertyOp3
 70
     1
102
RTVSPropertyOp4
 70
     1
102
RTVSPropertyOp5
 70
     1
102
RTVSPropertyOp6
 70
     1
102
RTVSPropertyOp7
 70
     1
102
RTVSPropertyOp8
 70
     1
102
RTVSPropertyOp9
 70
     1
102
RTVSPropertyOp10
 70
     1
102
RTVSPropertyOp11
 70
     1
102
RTVSPropertyOp12
 70
     1
102
RTVSPropertyOp13
 70
     1
102
RTVSPropertyOp14
 70
     1
102
RTVSPropertyOp15
 70
     1
102
RTVSPropertyOp16
 70
     1
102
RTVSPropertyOp17
 70
     1
102
RTVSPropertyOp18
 70
     1
102
RTVSPropertyOp19
 70
     1
102
RTVSPropertyOp20
 70
     1
102
RTVSPropertyOp21
 70
     1
102
RTVSPropertyOp22
 70
     1
102
RTVSPropertyOp23
 70
     1
102
RTVSPropertyOp24
 70
     1
102
RTVSPropertyOp25
 70
     1
102
RTVSPropertyOp26
 70
     1
102
RTVSPropertyOp27
 70
     1
102
RTVSPropertyOp28
 70
     1
102
RTVSPropertyOp29
 70
     1
102
RTVSPropertyOp30
 70
     1
102
RTVSPropertyOp31
 70
     1
102
RTVSPropertyOp32
 70
     1
  0
XRECORD
  5
CD1
102
{ACAD_REACTORS
330
CD0
102
}
330
CD0
100
AcDbXrecord
280
     1
102
RTVSPropertyOp0
 70
     1
102
RTVSPropertyOp1
 70
     1
102
RTVSPropertyOp2
 70
     1
102
RTVSPropertyOp3
 70
     1
102
RTVSPropertyOp4
 70
     1
102
RTVSPropertyOp5
 70
     1
102
RTVSPropertyOp6
 70
     1
102
RTVSPropertyOp7
 70
     1
102
RTVSPropertyOp8
 70
     1
102
RTVSPropertyOp9
 70
     1
102
RTVSPropertyOp10
 70
     1
102
RTVSPropertyOp11
 70
     1
102
RTVSPropertyOp12
 70
     1
102
RTVSPropertyOp13
 70
     1
102
RTVSPropertyOp14
 70
     1
102
RTVSPropertyOp15
 70
     1
102
RTVSPropertyOp16
 70
     1
102
RTVSPropertyOp17
 70
     1
102
RTVSPropertyOp18
 70
     1
102
RTVSPropertyOp19
 70
     1
102
RTVSPropertyOp20
 70
     1
102
RTVSPropertyOp21
 70
     1
102
RTVSPropertyOp22
 70
     1
102
RTVSPropertyOp23
 70
     1
102
RTVSPropertyOp24
 70
     1
102
RTVSPropertyOp25
 70
     1
102
RTVSPropertyOp26
 70
     1
102
RTVSPropertyOp27
 70
     1
102
RTVSPropertyOp28
 70
     1
102
RTVSPropertyOp29
 70
     1
102
RTVSPropertyOp30
 70
     1
102
RTVSPropertyOp31
 70
     1
102
RTVSPropertyOp32
 70
     1
  0
XRECORD
  5
CD9
102
{ACAD_REACTORS
330
CD8
102
}
330
CD8
100
AcDbXrecord
280
     1
102
RTVSPropertyOp0
 70
     1
102
RTVSPropertyOp1
 70
     1
102
RTVSPropertyOp2
 70
     1
102
RTVSPropertyOp3
 70
     1
102
RTVSPropertyOp4
 70
     1
102
RTVSPropertyOp5
 70
     1
102
RTVSPropertyOp6
 70
     1
102
RTVSPropertyOp7
 70
     1
102
RTVSPropertyOp8
 70
     1
102
RTVSPropertyOp9
 70
     1
102
RTVSPropertyOp10
 70
     1
102
RTVSPropertyOp11
 70
     1
102
RTVSPropertyOp12
 70
     1
102
RTVSPropertyOp13
 70
     1
102
RTVSPropertyOp14
 70
     1
102
RTVSPropertyOp15
 70
     1
102
RTVSPropertyOp16
 70
     1
102
RTVSPropertyOp17
 70
     1
102
RTVSPropertyOp18
 70
     1
102
RTVSPropertyOp19
 70
     1
102
RTVSPropertyOp20
 70
     1
102
RTVSPropertyOp21
 70
     1
102
RTVSPropertyOp22
 70
     1
102
RTVSPropertyOp23
 70
     1
102
RTVSPropertyOp24
 70
     1
102
RTVSPropertyOp25
 70
     1
102
RTVSPropertyOp26
 70
     1
102
RTVSPropertyOp27
 70
     1
102
RTVSPropertyOp28
 70
     1
102
RTVSPropertyOp29
 70
     1
102
RTVSPropertyOp30
 70
     1
102
RTVSPropertyOp31
 70
     1
102
RTVSPropertyOp32
 70
     1
  0
XRECORD
  5
CCB
102
{ACAD_REACTORS
330
CCA
102
}
330
CCA
100
AcDbXrecord
280
     1
102
RTVSPropertyOp0
 70
     1
102
RTVSPropertyOp1
 70
     1
102
RTVSPropertyOp2
 70
     1
102
RTVSPropertyOp3
 70
     1
102
RTVSPropertyOp4
 70
     1
102
RTVSPropertyOp5
 70
     1
102
RTVSPropertyOp6
 70
     1
102
RTVSPropertyOp7
 70
     1
102
RTVSPropertyOp8
 70
     1
102
RTVSPropertyOp9
 70
     1
102
RTVSPropertyOp10
 70
     1
102
RTVSPropertyOp11
 70
     1
102
RTVSPropertyOp12
 70
     1
102
RTVSPropertyOp13
 70
     1
102
RTVSPropertyOp14
 70
     1
102
RTVSPropertyOp15
 70
     1
102
RTVSPropertyOp16
 70
     1
102
RTVSPropertyOp17
 70
     1
102
RTVSPropertyOp18
 70
     1
102
RTVSPropertyOp19
 70
     1
102
RTVSPropertyOp20
 70
     1
102
RTVSPropertyOp21
 70
     1
102
RTVSPropertyOp22
 70
     1
102
RTVSPropertyOp23
 70
     1
102
RTVSPropertyOp24
 70
     1
102
RTVSPropertyOp25
 70
     1
102
RTVSPropertyOp26
 70
     1
102
RTVSPropertyOp27
 70
     1
102
RTVSPropertyOp28
 70
     1
102
RTVSPropertyOp29
 70
     1
102
RTVSPropertyOp30
 70
     1
102
RTVSPropertyOp31
 70
     1
102
RTVSPropertyOp32
 70
     1
  0
XRECORD
  5
CCF
102
{ACAD_REACTORS
330
CCE
102
}
330
CCE
100
AcDbXrecord
280
     1
102
RTVSPropertyOp0
 70
     1
102
RTVSPropertyOp1
 70
     1
102
RTVSPropertyOp2
 70
     1
102
RTVSPropertyOp3
 70
     1
102
RTVSPropertyOp4
 70
     1
102
RTVSPropertyOp5
 70
     1
102
RTVSPropertyOp6
 70
     1
102
RTVSPropertyOp7
 70
     1
102
RTVSPropertyOp8
 70
     1
102
RTVSPropertyOp9
 70
     1
102
RTVSPropertyOp10
 70
     1
102
RTVSPropertyOp11
 70
     1
102
RTVSPropertyOp12
 70
     1
102
RTVSPropertyOp13
 70
     1
102
RTVSPropertyOp14
 70
     1
102
RTVSPropertyOp15
 70
     1
102
RTVSPropertyOp16
 70
     1
102
RTVSPropertyOp17
 70
     1
102
RTVSPropertyOp18
 70
     1
102
RTVSPropertyOp19
 70
     1
102
RTVSPropertyOp20
 70
     1
102
RTVSPropertyOp21
 70
     1
102
RTVSPropertyOp22
 70
     1
102
RTVSPropertyOp23
 70
     1
102
RTVSPropertyOp24
 70
     1
102
RTVSPropertyOp25
 70
     1
102
RTVSPropertyOp26
 70
     1
102
RTVSPropertyOp27
 70
     1
102
RTVSPropertyOp28
 70
     1
102
RTVSPropertyOp29
 70
     1
102
RTVSPropertyOp30
 70
     1
102
RTVSPropertyOp31
 70
     1
102
RTVSPropertyOp32
 70
     1
  0
XRECORD
  5
CE9
102
{ACAD_REACTORS
330
CE8
102
}
330
CE8
100
AcDbXrecord
280
     1
102
RTVSPropertyOp0
 70
     0
102
RTVSPropertyOp1
 70
     0
102
RTVSPropertyOp2
 70
     0
102
RTVSPropertyOp3
 70
     0
102
RTVSPropertyOp4
 70
     0
102
RTVSPropertyOp5
 70
     0
102
RTVSPropertyOp6
 70
     0
102
RTVSPropertyOp7
 70
     0
102
RTVSPropertyOp8
 70
     0
102
RTVSPropertyOp9
 70
     0
102
RTVSPropertyOp10
 70
     0
102
RTVSPropertyOp11
 70
     0
102
RTVSPropertyOp12
 70
     0
102
RTVSPropertyOp13
 70
     0
102
RTVSPropertyOp14
 70
     2
102
RTVSPropertyOp15
 70
     0
102
RTVSPropertyOp16
 70
     0
102
RTVSPropertyOp17
 70
     0
102
RTVSPropertyOp18
 70
     0
102
RTVSPropertyOp19
 70
     0
102
RTVSPropertyOp20
 70
     0
102
RTVSPropertyOp21
 70
     0
102
RTVSPropertyOp22
 70
     0
102
RTVSPropertyOp23
 70
     0
102
RTVSPropertyOp24
 70
     0
102
RTVSPropertyOp25
 70
     0
102
RTVSPropertyOp26
 70
     0
102
RTVSPropertyOp27
 70
     0
102
RTVSPropertyOp28
 70
     0
102
RTVSPropertyOp29
 70
     0
102
RTVSPropertyOp30
 70
     0
102
RTVSPropertyOp31
 70
     0
102
RTVSPropertyOp32
 70
     0
  0
XRECORD
  5
CD7
102
{ACAD_REACTORS
330
CD6
102
}
330
CD6
100
AcDbXrecord
280
     1
102
RTVSPropertyOp0
 70
     1
102
RTVSPropertyOp1
 70
     1
102
RTVSPropertyOp2
 70
     1
102
RTVSPropertyOp3
 70
     1
102
RTVSPropertyOp4
 70
     1
102
RTVSPropertyOp5
 70
     1
102
RTVSPropertyOp6
 70
     1
102
RTVSPropertyOp7
 70
     1
102
RTVSPropertyOp8
 70
     1
102
RTVSPropertyOp9
 70
     1
102
RTVSPropertyOp10
 70
     1
102
RTVSPropertyOp11
 70
     1
102
RTVSPropertyOp12
 70
     1
102
RTVSPropertyOp13
 70
     1
102
RTVSPropertyOp14
 70
     1
102
RTVSPropertyOp15
 70
     1
102
RTVSPropertyOp16
 70
     1
102
RTVSPropertyOp17
 70
     1
102
RTVSPropertyOp18
 70
     1
102
RTVSPropertyOp19
 70
     1
102
RTVSPropertyOp20
 70
     1
102
RTVSPropertyOp21
 70
     1
102
RTVSPropertyOp22
 70
     1
102
RTVSPropertyOp23
 70
     1
102
RTVSPropertyOp24
 70
     1
102
RTVSPropertyOp25
 70
     1
102
RTVSPropertyOp26
 70
     1
102
RTVSPropertyOp27
 70
     1
102
RTVSPropertyOp28
 70
     1
102
RTVSPropertyOp29
 70
     1
102
RTVSPropertyOp30
 70
     1
102
RTVSPropertyOp31
 70
     1
102
RTVSPropertyOp32
 70
     1
  0
XRECORD
  5
CBB
102
{ACAD_REACTORS
330
CBA
102
}
330
CBA
100
AcDbXrecord
280
     1
102
RTVSPropertyOp0
 70
     1
102
RTVSPropertyOp1
 70
     1
102
RTVSPropertyOp2
 70
     1
102
RTVSPropertyOp3
 70
     1
102
RTVSPropertyOp4
 70
     1
102
RTVSPropertyOp5
 70
     1
102
RTVSPropertyOp6
 70
     1
102
RTVSPropertyOp7
 70
     1
102
RTVSPropertyOp8
 70
     1
102
RTVSPropertyOp9
 70
     1
102
RTVSPropertyOp10
 70
     1
102
RTVSPropertyOp11
 70
     1
102
RTVSPropertyOp12
 70
     1
102
RTVSPropertyOp13
 70
     1
102
RTVSPropertyOp14
 70
     1
102
RTVSPropertyOp15
 70
     1
102
RTVSPropertyOp16
 70
     1
102
RTVSPropertyOp17
 70
     1
102
RTVSPropertyOp18
 70
     1
102
RTVSPropertyOp19
 70
     1
102
RTVSPropertyOp20
 70
     1
102
RTVSPropertyOp21
 70
     1
102
RTVSPropertyOp22
 70
     1
102
RTVSPropertyOp23
 70
     1
102
RTVSPropertyOp24
 70
     1
102
RTVSPropertyOp25
 70
     1
102
RTVSPropertyOp26
 70
     1
102
RTVSPropertyOp27
 70
     1
102
RTVSPropertyOp28
 70
     1
102
RTVSPropertyOp29
 70
     1
102
RTVSPropertyOp30
 70
     1
102
RTVSPropertyOp31
 70
     1
102
RTVSPropertyOp32
 70
     1
  0
XRECORD
  5
CBD
102
{ACAD_REACTORS
330
CBC
102
}
330
CBC
100
AcDbXrecord
280
     1
102
RTVSPropertyOp0
 70
     1
102
RTVSPropertyOp1
 70
     1
102
RTVSPropertyOp2
 70
     1
102
RTVSPropertyOp3
 70
     1
102
RTVSPropertyOp4
 70
     1
102
RTVSPropertyOp5
 70
     1
102
RTVSPropertyOp6
 70
     1
102
RTVSPropertyOp7
 70
     1
102
RTVSPropertyOp8
 70
     1
102
RTVSPropertyOp9
 70
     1
102
RTVSPropertyOp10
 70
     1
102
RTVSPropertyOp11
 70
     1
102
RTVSPropertyOp12
 70
     1
102
RTVSPropertyOp13
 70
     1
102
RTVSPropertyOp14
 70
     1
102
RTVSPropertyOp15
 70
     1
102
RTVSPropertyOp16
 70
     1
102
RTVSPropertyOp17
 70
     1
102
RTVSPropertyOp18
 70
     1
102
RTVSPropertyOp19
 70
     1
102
RTVSPropertyOp20
 70
     1
102
RTVSPropertyOp21
 70
     1
102
RTVSPropertyOp22
 70
     1
102
RTVSPropertyOp23
 70
     1
102
RTVSPropertyOp24
 70
     1
102
RTVSPropertyOp25
 70
     1
102
RTVSPropertyOp26
 70
     1
102
RTVSPropertyOp27
 70
     1
102
RTVSPropertyOp28
 70
     1
102
RTVSPropertyOp29
 70
     1
102
RTVSPropertyOp30
 70
     1
102
RTVSPropertyOp31
 70
     1
102
RTVSPropertyOp32
 70
     1
  0
XRECORD
  5
CBF
102
{ACAD_REACTORS
330
CBE
102
}
330
CBE
100
AcDbXrecord
280
     1
102
RTVSPropertyOp0
 70
     1
102
RTVSPropertyOp1
 70
     1
102
RTVSPropertyOp2
 70
     1
102
RTVSPropertyOp3
 70
     1
102
RTVSPropertyOp4
 70
     1
102
RTVSPropertyOp5
 70
     1
102
RTVSPropertyOp6
 70
     1
102
RTVSPropertyOp7
 70
     1
102
RTVSPropertyOp8
 70
     1
102
RTVSPropertyOp9
 70
     1
102
RTVSPropertyOp10
 70
     1
102
RTVSPropertyOp11
 70
     1
102
RTVSPropertyOp12
 70
     1
102
RTVSPropertyOp13
 70
     1
102
RTVSPropertyOp14
 70
     1
102
RTVSPropertyOp15
 70
     1
102
RTVSPropertyOp16
 70
     1
102
RTVSPropertyOp17
 70
     1
102
RTVSPropertyOp18
 70
     1
102
RTVSPropertyOp19
 70
     1
102
RTVSPropertyOp20
 70
     1
102
RTVSPropertyOp21
 70
     1
102
RTVSPropertyOp22
 70
     1
102
RTVSPropertyOp23
 70
     1
102
RTVSPropertyOp24
 70
     1
102
RTVSPropertyOp25
 70
     1
102
RTVSPropertyOp26
 70
     1
102
RTVSPropertyOp27
 70
     1
102
RTVSPropertyOp28
 70
     1
102
RTVSPropertyOp29
 70
     1
102
RTVSPropertyOp30
 70
     1
102
RTVSPropertyOp31
 70
     1
102
RTVSPropertyOp32
 70
     1
  0
XRECORD
  5
CC1
102
{ACAD_REACTORS
330
CC0
102
}
330
CC0
100
AcDbXrecord
280
     1
102
RTVSPropertyOp0
 70
     1
102
RTVSPropertyOp1
 70
     1
102
RTVSPropertyOp2
 70
     1
102
RTVSPropertyOp3
 70
     1
102
RTVSPropertyOp4
 70
     1
102
RTVSPropertyOp5
 70
     1
102
RTVSPropertyOp6
 70
     1
102
RTVSPropertyOp7
 70
     1
102
RTVSPropertyOp8
 70
     1
102
RTVSPropertyOp9
 70
     1
102
RTVSPropertyOp10
 70
     1
102
RTVSPropertyOp11
 70
     1
102
RTVSPropertyOp12
 70
     1
102
RTVSPropertyOp13
 70
     1
102
RTVSPropertyOp14
 70
     1
102
RTVSPropertyOp15
 70
     1
102
RTVSPropertyOp16
 70
     1
102
RTVSPropertyOp17
 70
     1
102
RTVSPropertyOp18
 70
     1
102
RTVSPropertyOp19
 70
     1
102
RTVSPropertyOp20
 70
     1
102
RTVSPropertyOp21
 70
     1
102
RTVSPropertyOp22
 70
     1
102
RTVSPropertyOp23
 70
     1
102
RTVSPropertyOp24
 70
     1
102
RTVSPropertyOp25
 70
     1
102
RTVSPropertyOp26
 70
     1
102
RTVSPropertyOp27
 70
     1
102
RTVSPropertyOp28
 70
     1
102
RTVSPropertyOp29
 70
     1
102
RTVSPropertyOp30
 70
     1
102
RTVSPropertyOp31
 70
     1
102
RTVSPropertyOp32
 70
     1
  0
XRECORD
  5
CC9
102
{ACAD_REACTORS
330
CC8
102
}
330
CC8
100
AcDbXrecord
280
     1
102
RTVSPropertyOp0
 70
     1
102
RTVSPropertyOp1
 70
     1
102
RTVSPropertyOp2
 70
     1
102
RTVSPropertyOp3
 70
     1
102
RTVSPropertyOp4
 70
     1
102
RTVSPropertyOp5
 70
     1
102
RTVSPropertyOp6
 70
     1
102
RTVSPropertyOp7
 70
     1
102
RTVSPropertyOp8
 70
     1
102
RTVSPropertyOp9
 70
     1
102
RTVSPropertyOp10
 70
     1
102
RTVSPropertyOp11
 70
     1
102
RTVSPropertyOp12
 70
     1
102
RTVSPropertyOp13
 70
     1
102
RTVSPropertyOp14
 70
     1
102
RTVSPropertyOp15
 70
     1
102
RTVSPropertyOp16
 70
     1
102
RTVSPropertyOp17
 70
     1
102
RTVSPropertyOp18
 70
     1
102
RTVSPropertyOp19
 70
     1
102
RTVSPropertyOp20
 70
     1
102
RTVSPropertyOp21
 70
     1
102
RTVSPropertyOp22
 70
     1
102
RTVSPropertyOp23
 70
     1
102
RTVSPropertyOp24
 70
     1
102
RTVSPropertyOp25
 70
     1
102
RTVSPropertyOp26
 70
     1
102
RTVSPropertyOp27
 70
     1
102
RTVSPropertyOp28
 70
     1
102
RTVSPropertyOp29
 70
     1
102
RTVSPropertyOp30
 70
     1
102
RTVSPropertyOp31
 70
     1
102
RTVSPropertyOp32
 70
     1
  0
XRECORD
  5
CE5
102
{ACAD_REACTORS
330
CE4
102
}
330
CE4
100
AcDbXrecord
280
     1
102
RTVSPropertyOp0
 70
     0
102
RTVSPropertyOp1
 70
     0
102
RTVSPropertyOp2
 70
     0
102
RTVSPropertyOp3
 70
     0
102
RTVSPropertyOp4
 70
     0
102
RTVSPropertyOp5
 70
     0
102
RTVSPropertyOp6
 70
     0
102
RTVSPropertyOp7
 70
     0
102
RTVSPropertyOp8
 70
     0
102
RTVSPropertyOp9
 70
     0
102
RTVSPropertyOp10
 70
     0
102
RTVSPropertyOp11
 70
     0
102
RTVSPropertyOp12
 70
     0
102
RTVSPropertyOp13
 70
     0
102
RTVSPropertyOp14
 70
     2
102
RTVSPropertyOp15
 70
     0
102
RTVSPropertyOp16
 70
     0
102
RTVSPropertyOp17
 70
     0
102
RTVSPropertyOp18
 70
     0
102
RTVSPropertyOp19
 70
     0
102
RTVSPropertyOp20
 70
     0
102
RTVSPropertyOp21
 70
     0
102
RTVSPropertyOp22
 70
     0
102
RTVSPropertyOp23
 70
     0
102
RTVSPropertyOp24
 70
     0
102
RTVSPropertyOp25
 70
     0
102
RTVSPropertyOp26
 70
     0
102
RTVSPropertyOp27
 70
     0
102
RTVSPropertyOp28
 70
     0
102
RTVSPropertyOp29
 70
     0
102
RTVSPropertyOp30
 70
     0
102
RTVSPropertyOp31
 70
     0
102
RTVSPropertyOp32
 70
     0
  0
XRECORD
  5
CD5
102
{ACAD_REACTORS
330
CD4
102
}
330
CD4
100
AcDbXrecord
280
     1
102
RTVSPropertyOp0
 70
     1
102
RTVSPropertyOp1
 70
     1
102
RTVSPropertyOp2
 70
     1
102
RTVSPropertyOp3
 70
     1
102
RTVSPropertyOp4
 70
     1
102
RTVSPropertyOp5
 70
     1
102
RTVSPropertyOp6
 70
     1
102
RTVSPropertyOp7
 70
     1
102
RTVSPropertyOp8
 70
     1
102
RTVSPropertyOp9
 70
     1
102
RTVSPropertyOp10
 70
     1
102
RTVSPropertyOp11
 70
     1
102
RTVSPropertyOp12
 70
     1
102
RTVSPropertyOp13
 70
     1
102
RTVSPropertyOp14
 70
     1
102
RTVSPropertyOp15
 70
     1
102
RTVSPropertyOp16
 70
     1
102
RTVSPropertyOp17
 70
     1
102
RTVSPropertyOp18
 70
     1
102
RTVSPropertyOp19
 70
     1
102
RTVSPropertyOp20
 70
     1
102
RTVSPropertyOp21
 70
     1
102
RTVSPropertyOp22
 70
     1
102
RTVSPropertyOp23
 70
     1
102
RTVSPropertyOp24
 70
     1
102
RTVSPropertyOp25
 70
     1
102
RTVSPropertyOp26
 70
     1
102
RTVSPropertyOp27
 70
     1
102
RTVSPropertyOp28
 70
     1
102
RTVSPropertyOp29
 70
     1
102
RTVSPropertyOp30
 70
     1
102
RTVSPropertyOp31
 70
     1
102
RTVSPropertyOp32
 70
     1
  0
XRECORD
  5
CE7
102
{ACAD_REACTORS
330
CE6
102
}
330
CE6
100
AcDbXrecord
280
     1
102
RTVSPropertyOp0
 70
     0
102
RTVSPropertyOp1
 70
     0
102
RTVSPropertyOp2
 70
     0
102
RTVSPropertyOp3
 70
     0
102
RTVSPropertyOp4
 70
     0
102
RTVSPropertyOp5
 70
     0
102
RTVSPropertyOp6
 70
     0
102
RTVSPropertyOp7
 70
     0
102
RTVSPropertyOp8
 70
     0
102
RTVSPropertyOp9
 70
     0
102
RTVSPropertyOp10
 70
     0
102
RTVSPropertyOp11
 70
     0
102
RTVSPropertyOp12
 70
     0
102
RTVSPropertyOp13
 70
     0
102
RTVSPropertyOp14
 70
     2
102
RTVSPropertyOp15
 70
     0
102
RTVSPropertyOp16
 70
     0
102
RTVSPropertyOp17
 70
     0
102
RTVSPropertyOp18
 70
     0
102
RTVSPropertyOp19
 70
     0
102
RTVSPropertyOp20
 70
     0
102
RTVSPropertyOp21
 70
     0
102
RTVSPropertyOp22
 70
     0
102
RTVSPropertyOp23
 70
     0
102
RTVSPropertyOp24
 70
     0
102
RTVSPropertyOp25
 70
     0
102
RTVSPropertyOp26
 70
     0
102
RTVSPropertyOp27
 70
     0
102
RTVSPropertyOp28
 70
     0
102
RTVSPropertyOp29
 70
     0
102
RTVSPropertyOp30
 70
     0
102
RTVSPropertyOp31
 70
     0
102
RTVSPropertyOp32
 70
     0
  0
XRECORD
  5
CCD
102
{ACAD_REACTORS
330
CCC
102
}
330
CCC
100
AcDbXrecord
280
     1
102
RTVSPropertyOp0
 70
     1
102
RTVSPropertyOp1
 70
     1
102
RTVSPropertyOp2
 70
     1
102
RTVSPropertyOp3
 70
     1
102
RTVSPropertyOp4
 70
     1
102
RTVSPropertyOp5
 70
     1
102
RTVSPropertyOp6
 70
     1
102
RTVSPropertyOp7
 70
     1
102
RTVSPropertyOp8
 70
     1
102
RTVSPropertyOp9
 70
     1
102
RTVSPropertyOp10
 70
     1
102
RTVSPropertyOp11
 70
     1
102
RTVSPropertyOp12
 70
     1
102
RTVSPropertyOp13
 70
     1
102
RTVSPropertyOp14
 70
     1
102
RTVSPropertyOp15
 70
     1
102
RTVSPropertyOp16
 70
     1
102
RTVSPropertyOp17
 70
     1
102
RTVSPropertyOp18
 70
     1
102
RTVSPropertyOp19
 70
     1
102
RTVSPropertyOp20
 70
     1
102
RTVSPropertyOp21
 70
     1
102
RTVSPropertyOp22
 70
     1
102
RTVSPropertyOp23
 70
     1
102
RTVSPropertyOp24
 70
     1
102
RTVSPropertyOp25
 70
     1
102
RTVSPropertyOp26
 70
     1
102
RTVSPropertyOp27
 70
     1
102
RTVSPropertyOp28
 70
     1
102
RTVSPropertyOp29
 70
     1
102
RTVSPropertyOp30
 70
     1
102
RTVSPropertyOp31
 70
     1
102
RTVSPropertyOp32
 70
     1
  0
XRECORD
  5
CE3
102
{ACAD_REACTORS
330
CE2
102
}
330
CE2
100
AcDbXrecord
280
     1
102
RTVSPropertyOp0
 70
     1
102
RTVSPropertyOp1
 70
     1
102
RTVSPropertyOp2
 70
     1
102
RTVSPropertyOp3
 70
     1
102
RTVSPropertyOp4
 70
     1
102
RTVSPropertyOp5
 70
     1
102
RTVSPropertyOp6
 70
     1
102
RTVSPropertyOp7
 70
     1
102
RTVSPropertyOp8
 70
     1
102
RTVSPropertyOp9
 70
     1
102
RTVSPropertyOp10
 70
     1
102
RTVSPropertyOp11
 70
     1
102
RTVSPropertyOp12
 70
     1
102
RTVSPropertyOp13
 70
     1
102
RTVSPropertyOp14
 70
     1
102
RTVSPropertyOp15
 70
     1
102
RTVSPropertyOp16
 70
     1
102
RTVSPropertyOp17
 70
     1
102
RTVSPropertyOp18
 70
     1
102
RTVSPropertyOp19
 70
     1
102
RTVSPropertyOp20
 70
     1
102
RTVSPropertyOp21
 70
     1
102
RTVSPropertyOp22
 70
     1
102
RTVSPropertyOp23
 70
     1
102
RTVSPropertyOp24
 70
     1
102
RTVSPropertyOp25
 70
     1
102
RTVSPropertyOp26
 70
     1
102
RTVSPropertyOp27
 70
     1
102
RTVSPropertyOp28
 70
     1
102
RTVSPropertyOp29
 70
     1
102
RTVSPropertyOp30
 70
     1
102
RTVSPropertyOp31
 70
     1
102
RTVSPropertyOp32
 70
     1
  0
XRECORD
  5
CE1
102
{ACAD_REACTORS
330
CE0
102
}
330
CE0
100
AcDbXrecord
280
     1
102
RTVSPropertyOp0
 70
     1
102
RTVSPropertyOp1
 70
     1
102
RTVSPropertyOp2
 70
     1
102
RTVSPropertyOp3
 70
     1
102
RTVSPropertyOp4
 70
     1
102
RTVSPropertyOp5
 70
     1
102
RTVSPropertyOp6
 70
     1
102
RTVSPropertyOp7
 70
     1
102
RTVSPropertyOp8
 70
     1
102
RTVSPropertyOp9
 70
     1
102
RTVSPropertyOp10
 70
     1
102
RTVSPropertyOp11
 70
     1
102
RTVSPropertyOp12
 70
     1
102
RTVSPropertyOp13
 70
     1
102
RTVSPropertyOp14
 70
     1
102
RTVSPropertyOp15
 70
     1
102
RTVSPropertyOp16
 70
     1
102
RTVSPropertyOp17
 70
     1
102
RTVSPropertyOp18
 70
     1
102
RTVSPropertyOp19
 70
     1
102
RTVSPropertyOp20
 70
     1
102
RTVSPropertyOp21
 70
     1
102
RTVSPropertyOp22
 70
     1
102
RTVSPropertyOp23
 70
     1
102
RTVSPropertyOp24
 70
     1
102
RTVSPropertyOp25
 70
     1
102
RTVSPropertyOp26
 70
     1
102
RTVSPropertyOp27
 70
     1
102
RTVSPropertyOp28
 70
     1
102
RTVSPropertyOp29
 70
     1
102
RTVSPropertyOp30
 70
     1
102
RTVSPropertyOp31
 70
     1
102
RTVSPropertyOp32
 70
     1
  0
XRECORD
  5
CDB
102
{ACAD_REACTORS
330
CDA
102
}
330
CDA
100
AcDbXrecord
280
     1
102
RTVSPropertyOp0
 70
     1
102
RTVSPropertyOp1
 70
     1
102
RTVSPropertyOp2
 70
     1
102
RTVSPropertyOp3
 70
     1
102
RTVSPropertyOp4
 70
     1
102
RTVSPropertyOp5
 70
     1
102
RTVSPropertyOp6
 70
     1
102
RTVSPropertyOp7
 70
     1
102
RTVSPropertyOp8
 70
     1
102
RTVSPropertyOp9
 70
     1
102
RTVSPropertyOp10
 70
     1
102
RTVSPropertyOp11
 70
     1
102
RTVSPropertyOp12
 70
     1
102
RTVSPropertyOp13
 70
     1
102
RTVSPropertyOp14
 70
     1
102
RTVSPropertyOp15
 70
     1
102
RTVSPropertyOp16
 70
     1
102
RTVSPropertyOp17
 70
     1
102
RTVSPropertyOp18
 70
     1
102
RTVSPropertyOp19
 70
     1
102
RTVSPropertyOp20
 70
     1
102
RTVSPropertyOp21
 70
     1
102
RTVSPropertyOp22
 70
     1
102
RTVSPropertyOp23
 70
     1
102
RTVSPropertyOp24
 70
     1
102
RTVSPropertyOp25
 70
     1
102
RTVSPropertyOp26
 70
     1
102
RTVSPropertyOp27
 70
     1
102
RTVSPropertyOp28
 70
     1
102
RTVSPropertyOp29
 70
     1
102
RTVSPropertyOp30
 70
     1
102
RTVSPropertyOp31
 70
     1
102
RTVSPropertyOp32
 70
     1
  0
XRECORD
  5
CDD
102
{ACAD_REACTORS
330
CDC
102
}
330
CDC
100
AcDbXrecord
280
     1
102
RTVSPropertyOp0
 70
     1
102
RTVSPropertyOp1
 70
     1
102
RTVSPropertyOp2
 70
     1
102
RTVSPropertyOp3
 70
     1
102
RTVSPropertyOp4
 70
     1
102
RTVSPropertyOp5
 70
     1
102
RTVSPropertyOp6
 70
     1
102
RTVSPropertyOp7
 70
     1
102
RTVSPropertyOp8
 70
     1
102
RTVSPropertyOp9
 70
     1
102
RTVSPropertyOp10
 70
     1
102
RTVSPropertyOp11
 70
     1
102
RTVSPropertyOp12
 70
     1
102
RTVSPropertyOp13
 70
     1
102
RTVSPropertyOp14
 70
     1
102
RTVSPropertyOp15
 70
     1
102
RTVSPropertyOp16
 70
     1
102
RTVSPropertyOp17
 70
     1
102
RTVSPropertyOp18
 70
     1
102
RTVSPropertyOp19
 70
     1
102
RTVSPropertyOp20
 70
     1
102
RTVSPropertyOp21
 70
     1
102
RTVSPropertyOp22
 70
     1
102
RTVSPropertyOp23
 70
     1
102
RTVSPropertyOp24
 70
     1
102
RTVSPropertyOp25
 70
     1
102
RTVSPropertyOp26
 70
     1
102
RTVSPropertyOp27
 70
     1
102
RTVSPropertyOp28
 70
     1
102
RTVSPropertyOp29
 70
     1
102
RTVSPropertyOp30
 70
     1
102
RTVSPropertyOp31
 70
     1
102
RTVSPropertyOp32
 70
     1
  0
XRECORD
  5
CD3
102
{ACAD_REACTORS
330
CD2
102
}
330
CD2
100
AcDbXrecord
280
     1
102
RTVSPropertyOp0
 70
     1
102
RTVSPropertyOp1
 70
     1
102
RTVSPropertyOp2
 70
     1
102
RTVSPropertyOp3
 70
     1
102
RTVSPropertyOp4
 70
     1
102
RTVSPropertyOp5
 70
     1
102
RTVSPropertyOp6
 70
     1
102
RTVSPropertyOp7
 70
     1
102
RTVSPropertyOp8
 70
     1
102
RTVSPropertyOp9
 70
     1
102
RTVSPropertyOp10
 70
     1
102
RTVSPropertyOp11
 70
     1
102
RTVSPropertyOp12
 70
     1
102
RTVSPropertyOp13
 70
     1
102
RTVSPropertyOp14
 70
     1
102
RTVSPropertyOp15
 70
     1
102
RTVSPropertyOp16
 70
     1
102
RTVSPropertyOp17
 70
     1
102
RTVSPropertyOp18
 70
     1
102
RTVSPropertyOp19
 70
     1
102
RTVSPropertyOp20
 70
     1
102
RTVSPropertyOp21
 70
     1
102
RTVSPropertyOp22
 70
     1
102
RTVSPropertyOp23
 70
     1
102
RTVSPropertyOp24
 70
     1
102
RTVSPropertyOp25
 70
     1
102
RTVSPropertyOp26
 70
     1
102
RTVSPropertyOp27
 70
     1
102
RTVSPropertyOp28
 70
     1
102
RTVSPropertyOp29
 70
     1
102
RTVSPropertyOp30
 70
     1
102
RTVSPropertyOp31
 70
     1
102
RTVSPropertyOp32
 70
     1
  0
XRECORD
  5
CC7
102
{ACAD_REACTORS
330
CC6
102
}
330
CC6
100
AcDbXrecord
280
     1
102
RTVSPropertyOp0
 70
     1
102
RTVSPropertyOp1
 70
     1
102
RTVSPropertyOp2
 70
     1
102
RTVSPropertyOp3
 70
     1
102
RTVSPropertyOp4
 70
     1
102
RTVSPropertyOp5
 70
     1
102
RTVSPropertyOp6
 70
     1
102
RTVSPropertyOp7
 70
     1
102
RTVSPropertyOp8
 70
     1
102
RTVSPropertyOp9
 70
     1
102
RTVSPropertyOp10
 70
     1
102
RTVSPropertyOp11
 70
     1
102
RTVSPropertyOp12
 70
     1
102
RTVSPropertyOp13
 70
     1
102
RTVSPropertyOp14
 70
     1
102
RTVSPropertyOp15
 70
     1
102
RTVSPropertyOp16
 70
     1
102
RTVSPropertyOp17
 70
     1
102
RTVSPropertyOp18
 70
     1
102
RTVSPropertyOp19
 70
     1
102
RTVSPropertyOp20
 70
     1
102
RTVSPropertyOp21
 70
     1
102
RTVSPropertyOp22
 70
     1
102
RTVSPropertyOp23
 70
     1
102
RTVSPropertyOp24
 70
     1
102
RTVSPropertyOp25
 70
     1
102
RTVSPropertyOp26
 70
     1
102
RTVSPropertyOp27
 70
     1
102
RTVSPropertyOp28
 70
     1
102
RTVSPropertyOp29
 70
     1
102
RTVSPropertyOp30
 70
     1
102
RTVSPropertyOp31
 70
     1
102
RTVSPropertyOp32
 70
     1
  0
XRECORD
  5
CDF
102
{ACAD_REACTORS
330
CDE
102
}
330
CDE
100
AcDbXrecord
280
     1
102
RTVSPropertyOp0
 70
     1
102
RTVSPropertyOp1
 70
     1
102
RTVSPropertyOp2
 70
     1
102
RTVSPropertyOp3
 70
     1
102
RTVSPropertyOp4
 70
     1
102
RTVSPropertyOp5
 70
     1
102
RTVSPropertyOp6
 70
     1
102
RTVSPropertyOp7
 70
     1
102
RTVSPropertyOp8
 70
     1
102
RTVSPropertyOp9
 70
     1
102
RTVSPropertyOp10
 70
     1
102
RTVSPropertyOp11
 70
     1
102
RTVSPropertyOp12
 70
     1
102
RTVSPropertyOp13
 70
     1
102
RTVSPropertyOp14
 70
     1
102
RTVSPropertyOp15
 70
     1
102
RTVSPropertyOp16
 70
     1
102
RTVSPropertyOp17
 70
     1
102
RTVSPropertyOp18
 70
     1
102
RTVSPropertyOp19
 70
     1
102
RTVSPropertyOp20
 70
     1
102
RTVSPropertyOp21
 70
     1
102
RTVSPropertyOp22
 70
     1
102
RTVSPropertyOp23
 70
     1
102
RTVSPropertyOp24
 70
     1
102
RTVSPropertyOp25
 70
     1
102
RTVSPropertyOp26
 70
     1
102
RTVSPropertyOp27
 70
     1
102
RTVSPropertyOp28
 70
     1
102
RTVSPropertyOp29
 70
     1
102
RTVSPropertyOp30
 70
     1
102
RTVSPropertyOp31
 70
     1
102
RTVSPropertyOp32
 70
     1
  0
ENDSEC
  0
EOF
