  0
SECTION
  2
HEADER
  9
$ACADVER
  1
AC1021
  9
$ACADMAINTVER
 70
    53
  9
$DWGCODEPAGE
  3
ANSI_1252
  9
$LASTSAVEDBY
  1
uns
  9
$CUSTOMPROPERTYTAG
  1
AmdtFileType
  9
$CUSTOMPROPERTY
  1
83
  9
$INSBASE
 10
0.0
 20
0.0
 30
0.0
  9
$EXTMIN
 10
72.74390959892992
 20
-17.02080186520049
 30
-0.00000001
  9
$EXTMAX
 10
447.1431823395309
 20
422.8307702023491
 30
0.00000001
  9
$LIMMIN
 10
0.0
 20
0.0
  9
$LIMMAX
 10
420.0
 20
297.0
  9
$ORTHOMODE
 70
     0
  9
$REGENMODE
 70
     1
  9
$FILLMODE
 70
     1
  9
$QTEXTMODE
 70
     0
  9
$MIRRTEXT
 70
     1
  9
$LTSCALE
 40
1.0
  9
$ATTMODE
 70
     1
  9
$TEXTSIZE
 40
3.5
  9
$TRACEWID
 40
1.0
  9
$TEXTSTYLE
  7
STANDARD
  9
$CLAYER
  8
AM_0
  9
$CELTYPE
  6
BYLAYER
  9
$CECOLOR
 62
   256
  9
$CELTSCALE
 40
1.0
  9
$DISPSILH
 70
     0
  9
$DIMSCALE
 40
1.0
  9
$DIMASZ
 40
3.0
  9
$DIMEXO
 40
0.0
  9
$DIMDLI
 40
10.0
  9
$DIMRND
 40
0.0
  9
$DIMDLE
 40
0.0
  9
$DIMEXE
 40
1.0
  9
$DIMTP
 40
0.1
  9
$DIMTM
 40
0.1
  9
$DIMTXT
 40
3.5
  9
$DIMCEN
 40
0.0
  9
$DIMTSZ
 40
0.0
  9
$DIMTOL
 70
     0
  9
$DIMLIM
 70
     0
  9
$DIMTIH
 70
     0
  9
$DIMTOH
 70
     0
  9
$DIMSE1
 70
     0
  9
$DIMSE2
 70
     0
  9
$DIMTAD
 70
     1
  9
$DIMZIN
 70
     8
  9
$DIMBLK
  1

  9
$DIMASO
 70
     1
  9
$DIMSHO
 70
     1
  9
$DIMPOST
  1

  9
$DIMAPOST
  1
"
  9
$DIMALT
 70
     0
  9
$DIMALTD
 70
     2
  9
$DIMALTF
 40
0.0393701
  9
$DIMLFAC
 40
1.0
  9
$DIMTOFL
 70
     1
  9
$DIMTVP
 40
0.0
  9
$DIMTIX
 70
     0
  9
$DIMSOXD
 70
     0
  9
$DIMSAH
 70
     0
  9
$DIMBLK1
  1

  9
$DIMBLK2
  1

  9
$DIMSTYLE
  2
AM_ISO
  9
$DIMCLRD
 70
   256
  9
$DIMCLRE
 70
   256
  9
$DIMCLRT
 70
     2
  9
$DIMTFAC
 40
0.71
  9
$DIMGAP
 40
1.5
  9
$DIMJUST
 70
     0
  9
$DIMSD1
 70
     0
  9
$DIMSD2
 70
     0
  9
$DIMTOLJ
 70
     0
  9
$DIMTZIN
 70
     0
  9
$DIMALTZ
 70
     0
  9
$DIMALTTZ
 70
     0
  9
$DIMUPT
 70
     0
  9
$DIMDEC
 70
     2
  9
$DIMTDEC
 70
     2
  9
$DIMALTU
 70
     2
  9
$DIMALTTD
 70
     2
  9
$DIMTXSTY
  7
STANDARD
  9
$DIMAUNIT
 70
     0
  9
$DIMADEC
 70
     0
  9
$DIMALTRND
 40
0.0
  9
$DIMAZIN
 70
     2
  9
$DIMDSEP
 70
    46
  9
$DIMATFIT
 70
     3
  9
$DIMFRAC
 70
     0
  9
$DIMLDRBLK
  1

  9
$DIMLUNIT
 70
     2
  9
$DIMLWD
 70
    -1
  9
$DIMLWE
 70
    -1
  9
$DIMTMOVE
 70
     0
  9
$DIMFXL
 40
1.0
  9
$DIMFXLON
 70
     0
  9
$DIMJOGANG
 40
0.7853981633974483
  9
$DIMTFILL
 70
     0
  9
$DIMTFILLCLR
 70
     0
  9
$DIMARCSYM
 70
     0
  9
$DIMLTYPE
  6

  9
$DIMLTEX1
  6

  9
$DIMLTEX2
  6

  9
$LUNITS
 70
     2
  9
$LUPREC
 70
     4
  9
$SKETCHINC
 40
1.0
  9
$FILLETRAD
 40
10.0
  9
$AUNITS
 70
     0
  9
$AUPREC
 70
     2
  9
$MENU
  1
.
  9
$ELEVATION
 40
0.0
  9
$PELEVATION
 40
0.0
  9
$THICKNESS
 40
0.0
  9
$LIMCHECK
 70
     0
  9
$CHAMFERA
 40
10.0
  9
$CHAMFERB
 40
10.0
  9
$CHAMFERC
 40
20.0
  9
$CHAMFERD
 40
0.0
  9
$SKPOLY
 70
     1
  9
$TDCREATE
 40
2452053.340629734
  9
$TDUCREATE
 40
2452053.298963067
  9
$TDUPDATE
 40
2454517.634574699
  9
$TDUUPDATE
 40
2454517.592908032
  9
$TDINDWG
 40
0.0603199190
  9
$TDUSRTIMER
 40
0.0603196875
  9
$USRTIMER
 70
     1
  9
$ANGBASE
 50
0.0
  9
$ANGDIR
 70
     0
  9
$PDMODE
 70
     0
  9
$PDSIZE
 40
0.0
  9
$PLINEWID
 40
0.0
  9
$SPLFRAME
 70
     0
  9
$SPLINETYPE
 70
     6
  9
$SPLINESEGS
 70
    16
  9
$HANDSEED
  5
334C
  9
$SURFTAB1
 70
     6
  9
$SURFTAB2
 70
     6
  9
$SURFTYPE
 70
     6
  9
$SURFU
 70
     6
  9
$SURFV
 70
     6
  9
$UCSBASE
  2

  9
$UCSNAME
  2

  9
$UCSORG
 10
0.0
 20
0.0
 30
0.0
  9
$UCSXDIR
 10
1.0
 20
0.0
 30
0.0
  9
$UCSYDIR
 10
0.0
 20
1.0
 30
0.0
  9
$UCSORTHOREF
  2

  9
$UCSORTHOVIEW
 70
     0
  9
$UCSORGTOP
 10
0.0
 20
0.0
 30
0.0
  9
$UCSORGBOTTOM
 10
0.0
 20
0.0
 30
0.0
  9
$UCSORGLEFT
 10
0.0
 20
0.0
 30
0.0
  9
$UCSORGRIGHT
 10
0.0
 20
0.0
 30
0.0
  9
$UCSORGFRONT
 10
0.0
 20
0.0
 30
0.0
  9
$UCSORGBACK
 10
0.0
 20
0.0
 30
0.0
  9
$PUCSBASE
  2

  9
$PUCSNAME
  2

  9
$PUCSORG
 10
0.0
 20
0.0
 30
0.0
  9
$PUCSXDIR
 10
1.0
 20
0.0
 30
0.0
  9
$PUCSYDIR
 10
0.0
 20
1.0
 30
0.0
  9
$PUCSORTHOREF
  2

  9
$PUCSORTHOVIEW
 70
     0
  9
$PUCSORGTOP
 10
0.0
 20
0.0
 30
0.0
  9
$PUCSORGBOTTOM
 10
0.0
 20
0.0
 30
0.0
  9
$PUCSORGLEFT
 10
0.0
 20
0.0
 30
0.0
  9
$PUCSORGRIGHT
 10
0.0
 20
0.0
 30
0.0
  9
$PUCSORGFRONT
 10
0.0
 20
0.0
 30
0.0
  9
$PUCSORGBACK
 10
0.0
 20
0.0
 30
0.0
  9
$USERI1
 70
     0
  9
$USERI2
 70
     0
  9
$USERI3
 70
     0
  9
$USERI4
 70
     0
  9
$USERI5
 70
     0
  9
$USERR1
 40
0.0
  9
$USERR2
 40
0.0
  9
$USERR3
 40
0.0
  9
$USERR4
 40
0.0
  9
$USERR5
 40
0.0
  9
$WORLDVIEW
 70
     1
  9
$SHADEDGE
 70
     3
  9
$SHADEDIF
 70
    70
  9
$TILEMODE
 70
     1
  9
$MAXACTVP
 70
    48
  9
$PINSBASE
 10
0.0
 20
0.0
 30
0.0
  9
$PLIMCHECK
 70
     0
  9
$PEXTMIN
 10
1.000000000000000E+20
 20
1.000000000000000E+20
 30
1.000000000000000E+20
  9
$PEXTMAX
 10
-1.000000000000000E+20
 20
-1.000000000000000E+20
 30
-1.000000000000000E+20
  9
$PLIMMIN
 10
-5.027083396911621
 20
-5.111741065979003
  9
$PLIMMAX
 10
204.9885873794556
 20
291.8989095687866
  9
$UNITMODE
 70
     0
  9
$VISRETAIN
 70
     1
  9
$PLINEGEN
 70
     0
  9
$PSLTSCALE
 70
     1
  9
$TREEDEPTH
 70
  3020
  9
$CMLSTYLE
  2
STANDARD
  9
$CMLJUST
 70
     0
  9
$CMLSCALE
 40
1.0
  9
$PROXYGRAPHICS
 70
     1
  9
$MEASUREMENT
 70
     1
  9
$CELWEIGHT
370
    -1
  9
$ENDCAPS
280
     0
  9
$JOINSTYLE
280
     0
  9
$LWDISPLAY
290
     0
  9
$INSUNITS
 70
     0
  9
$HYPERLINKBASE
  1

  9
$STYLESHEET
  1
LAA4.ctb
  9
$XEDIT
290
     1
  9
$CEPSNTYPE
380
     0
  9
$PSTYLEMODE
290
     1
  9
$FINGERPRINTGUID
  2
{9DE0F4BE-022B-11D3-8698-0060B085A428}
  9
$VERSIONGUID
  2
{9D877263-6DEB-41E1-9624-92B5A74CEFE4}
  9
$EXTNAMES
290
     1
  9
$PSVPSCALE
 40
0.0
  9
$OLESTARTUP
290
     0
  9
$SORTENTS
280
    96
  9
$INDEXCTL
280
     1
  9
$HIDETEXT
280
     0
  9
$XCLIPFRAME
290
     0
  9
$HALOGAP
280
     0
  9
$OBSCOLOR
 70
   257
  9
$OBSLTYPE
280
     0
  9
$INTERSECTIONDISPLAY
280
     0
  9
$INTERSECTIONCOLOR
 70
   257
  9
$DIMASSOC
280
     1
  9
$PROJECTNAME
  1

  9
$CAMERADISPLAY
290
     0
  9
$LENSLENGTH
 40
50.0
  9
$CAMERAHEIGHT
 40
0.0
  9
$STEPSPERSEC
 40
2.0
  9
$STEPSIZE
 40
6.0
  9
$3DDWFPREC
 40
2.0
  9
$PSOLWIDTH
 40
0.25
  9
$PSOLHEIGHT
 40
4.0
  9
$LOFTANG1
 40
1.570796326794896
  9
$LOFTANG2
 40
1.570796326794896
  9
$LOFTMAG1
 40
0.0
  9
$LOFTMAG2
 40
0.0
  9
$LOFTPARAM
 70
     7
  9
$LOFTNORMALS
280
     1
  9
$LATITUDE
 40
37.795
  9
$LONGITUDE
 40
-122.394
  9
$NORTHDIRECTION
 40
0.0
  9
$TIMEZONE
 70
 -8000
  9
$LIGHTGLYPHDISPLAY
280
     1
  9
$TILEMODELIGHTSYNCH
280
     1
  9
$CMATERIAL
347
3271
  9
$SOLIDHIST
280
     1
  9
$SHOWHIST
280
     1
  9
$DWFFRAME
280
     2
  9
$DGNFRAME
280
     0
  9
$REALWORLDSCALE
290
     1
  9
$INTERFERECOLOR
 62
     1
  9
$INTERFEREOBJVS
345
3293
  9
$INTERFEREVPVS
346
3290
  9
$CSHADOW
280
     0
  9
$SHADOWPLANELOCATION
 40
0.0
  0
ENDSEC
  0
SECTION
  2
CLASSES
  0
CLASS
  1
DICTIONARYVAR
  2
AcDbDictionaryVar
  3
ObjectDBX Classes
 90
        0
 91
       10
280
     0
281
     0
  0
CLASS
  1
ACMESTATEMGR
  2
AcMeStateMgr
  3
AcMeServices
 90
     1024
 91
        1
280
     0
281
     0
  0
CLASS
  1
ACMESCOPE
  2
AcMeScope
  3
AcMeServices
 90
     1024
 91
        1
280
     0
281
     0
  0
CLASS
  1
ACMECOMMANDHISTORY
  2
AcMeCommandHistory
  3
AcMeServices
 90
     1024
 91
        1
280
     0
281
     0
  0
CLASS
  1
ACRFINSADJUSTERMGR
  2
AcRfInsAdjusterMgr
  3
AcMeServices
 90
     1024
 91
        1
280
     0
281
     0
  0
CLASS
  1
ACMEDRAWINGMAN
  2
AcMeDrawingMan
  3
AcMeServices
 90
     1024
 91
        1
280
     0
281
     0
  0
CLASS
  1
AMATTR
  2
AcMeAttribute
  3
AcMeServices
 90
     1024
 91
        0
280
     0
281
     0
  0
CLASS
  1
ACMEBOMCOLUMN
  2
AcMeBOMColumn
  3
AcMeServices
 90
     1024
 91
        0
280
     0
281
     0
  0
CLASS
  1
ACMEBOMCONF
  2
AcMeBOMConf
  3
AcMeServices
 90
     1024
 91
        0
280
     0
281
     0
  0
CLASS
  1
ACMEBOMTABLE
  2
AcMeBOMTable
  3
AcMeServices
 90
     1024
 91
        0
280
     0
281
     0
  0
CLASS
  1
ACMEBOMENTRY
  2
AcMeBOMEntry
  3
AcMeServices
 90
     1024
 91
        0
280
     0
281
     0
  0
CLASS
  1
ACMEVIEW
  2
AcMeView
  3
AcMeServices
 90
     1024
 91
        0
280
     0
281
     0
  0
CLASS
  1
ACGREFMASTER
  2
AcGrefMaster
  3
AcAttribServices
 90
     1024
 91
        1
280
     0
281
     0
  0
CLASS
  1
AMIMASTER
  2
AmiMaster
  3
AmiServices
 90
     1024
 91
        1
280
     0
281
     0
  0
CLASS
  1
ACASGREFMASTER
  2
AcAsGrefMaster
  3
AutoSurfResolverServices
 90
     1024
 91
        1
280
     0
281
     0
  0
CLASS
  1
ADAPPL
  2
AcAdAppl
  3
DesignerServices
 90
     1024
 91
        1
280
     0
281
     0
  0
CLASS
  1
DEPMGR
  2
AcAdDepMgr
  3
DesignerServices
 90
     1024
 91
        1
280
     0
281
     0
  0
CLASS
  1
PARAMMGR
  2
AcAdParamMgr
  3
DesignerServices
 90
     1024
 91
        1
280
     0
281
     0
  0
CLASS
  1
PARAMSCOPE
  2
AcAdParamScope
  3
DesignerServices
 90
     1024
 91
        3
280
     0
281
     0
  0
CLASS
  1
ACIMSYSVARMAN
  2
AcImSysVarManager
  3
AcMeServices
 90
     1024
 91
        6
280
     0
281
     0
  0
CLASS
  1
ACIMINTSYSVAR
  2
AcImIntSysVar
  3
AcMeServices
 90
     1024
 91
       47
280
     0
281
     0
  0
CLASS
  1
ACIMREALSYSVAR
  2
AcImRealSysVar
  3
AcMeServices
 90
     1024
 91
       16
280
     0
281
     0
  0
CLASS
  1
ACIMSTRSYSVAR
  2
AcImStrSysVar
  3
AcMeServices
 90
     1024
 91
       14
280
     0
281
     0
  0
CLASS
  1
NAMEDAPPL
  2
AcAdNamedAppl
  3
DesignerServices
 90
     1024
 91
        1
280
     0
281
     0
  0
CLASS
  1
ADHNTMPLT
  2
AdHoleNoteTemplateMgr
  3
DesignerServices
 90
     1024
 91
        0
280
     0
281
     0
  0
CLASS
  1
AM_HNTEMPLATE_MGR_NAME
  2
AdHoleNoteTemplateMgrName
  3
DesignerServices
 90
     1024
 91
        0
280
     0
281
     0
  0
CLASS
  1
ACADGREFMODULE
  2
AcAdGrefModule
  3
AdGrefServices
 90
     1024
 91
        1
280
     0
281
     0
  0
CLASS
  1
AM_DRAWING_MGR
  2
AcDmDwgMgr
  3
AcMechDwgViewMgmt
 90
     1024
 91
        1
280
     0
281
     0
  0
CLASS
  1
AM_DWG_DOCUMENT
  2
AcDmDwgDocument
  3
AcMechDwgViewMgmt
 90
     1024
 91
        1
280
     0
281
     0
  0
CLASS
  1
AM_DWG_SHEET
  2
AcDmSheet
  3
AcMechDwgViewMgmt
 90
     1024
 91
        5
280
     0
281
     0
  0
CLASS
  1
AM_VIEWDIMPARMAP
  2
AcDmViewDimParMap
  3
AcMechDwgViewMgmt
 90
     1024
 91
        5
280
     0
281
     0
  0
CLASS
  1
AM_DWGMGR_NAME
  2
AcDmDwgMgrName
  3
AcMechDwgViewMgmt
 90
     1024
 91
        1
280
     0
281
     0
  0
CLASS
  1
ACAMPROJECT
  2
AcAmProject
  3
DesignerAssemblies
 90
     1024
 91
        1
280
     0
281
     0
  0
CLASS
  1
ACAMGRCOMPSET
  2
AcAmGrCompSet
  3
DesignerAssemblies
 90
        0
 91
        0
280
     0
281
     0
  0
CLASS
  1
ACAMGRCOMPDEFSET
  2
AcAmGrCompDefSet
  3
DesignerAssemblies
 90
     1024
 91
        1
280
     0
281
     0
  0
CLASS
  1
ACAMGRCOMPDEF
  2
AcAmGrCompDef
  3
DesignerAssemblies
 90
     1024
 91
        2
280
     0
281
     0
  0
CLASS
  1
ACCMCONTEXT
  2
AcCmContext
  3
DesignerAssemblies
 90
     1024
 91
        2
280
     0
281
     0
  0
CLASS
  1
ACAMCOMPDEF
  2
AcAmCompDef
  3
DesignerAssemblies
 90
     1024
 91
        2
280
     0
281
     0
  0
CLASS
  1
ACAMCOMPDEFMGR
  2
AcAmCompDefMgr
  3
DesignerAssemblies
 90
     1024
 91
        1
280
     0
281
     0
  0
CLASS
  1
AMCONTEXTMGR
  2
AcAmContextMgr
  3
DesignerAssemblies
 90
     1024
 91
        1
280
     0
281
     0
  0
CLASS
  1
ACAMCONTEXTMODELER
  2
AcAmContextModeler
  3
DesignerAssemblies
 90
     1024
 91
        0
280
     0
281
     0
  0
CLASS
  1
ACDMVIEWGEOM
  2
AcDmViewGeometry
  3
AcMechDwgViewMgmt
 90
     1024
 91
        1
280
     0
281
     1
  0
CLASS
  1
CBROWSERAPPOBJECT
  2
CBrowserAppObject
  3
McadcomServices
 90
     1024
 91
        3
280
     0
281
     0
  0
CLASS
  1
IM_STATIC_MAN
  2
AcImStaticVarManager
  3
AcMeServices
 90
     1024
 91
        1
280
     0
281
     0
  0
CLASS
  1
ASAPP
  2
AcAsAppObject
  3
AutoSurfServices
 90
     1024
 91
        1
280
     0
281
     0
  0
CLASS
  1
ACIMDBLSTATICVAR
  2
AcImDblStaticVar
  3
AcMeServices
 90
     1024
 91
       22
280
     0
281
     0
  0
CLASS
  1
ACIMSTRSTATICVAR
  2
AcImStrStaticVar
  3
AcMeServices
 90
     1024
 91
       13
280
     0
281
     0
  0
CLASS
  1
ACIMINTSTATICVAR
  2
AcImIntStaticVar
  3
AcMeServices
 90
     1024
 91
       17
280
     0
281
     0
  0
CLASS
  1
CATALOGSTATE
  2
AcAmCatalogState
  3
DesignerAssemblies
 90
     1024
 91
        1
280
     0
281
     0
  0
CLASS
  1
DM_PLACEHOLDER
  2
AcDmSelsetPlaceholder
  3
AcMechDwgViewMgmt
 90
     1024
 91
        1
280
     0
281
     0
  0
CLASS
  1
LAYER_INDEX
  2
AcDbLayerIndex
  3
ObjectDBX Classes
 90
        0
 91
        1
280
     0
281
     0
  0
CLASS
  1
IDBUFFER
  2
AcDbIdBuffer
  3
ObjectDBX Classes
 90
        0
 91
       26
280
     0
281
     0
  0
CLASS
  1
ACMSTANDARDJIS
  2
AcmStandardJIS
  3
"Amdt_StdImp|Product Description: AutoCAD Mechanical|Company: Autodesk, Inc."
 90
     1024
 91
        1
280
     0
281
     0
  0
CLASS
  1
ACMSTANDARDANSI
  2
AcmStandardANSI
  3
"Amdt_StdImp|Product Description: AutoCAD Mechanical|Company: Autodesk, Inc."
 90
     1024
 91
        1
280
     0
281
     0
  0
CLASS
  1
ACMSTANDARDBSI
  2
AcmStandardBSI
  3
"Amdt_StdImp|Product Description: AutoCAD Mechanical|Company: Autodesk, Inc."
 90
     1024
 91
        1
280
     0
281
     0
  0
CLASS
  1
ACMSTANDARDDIN
  2
AcmStandardDIN
  3
"Amdt_StdImp|Product Description: AutoCAD Mechanical|Company: Autodesk, Inc."
 90
     1024
 91
        1
280
     0
281
     0
  0
CLASS
  1
ACMSTANDARDISO
  2
AcmStandardISO
  3
"Amdt_StdImp|Product Description: AutoCAD Mechanical|Company: Autodesk, Inc."
 90
     1024
 91
        1
280
     0
281
     0
  0
CLASS
  1
ACDBDICTIONARYWDFLT
  2
AcDbDictionaryWithDefault
  3
ObjectDBX Classes
 90
        0
 91
        1
280
     0
281
     0
  0
CLASS
  1
ACME_DOCUMENT
  2
AcMeDbDoc
  3
AcMeServices
 90
     1024
 91
        2
280
     0
281
     0
  0
CLASS
  1
AMGSETTINGSOBJ
  2
AmgSettingsObj
  3
"AcadM|Product Description: AutoCAD Mechanical|Company: Autodesk, Inc."
 90
     1024
 91
        4
280
     0
281
     0
  0
CLASS
  1
AMGOBJPROPCFG
  2
AmgObjPropCfg
  3
"AmgLay|Product Description: AutoCAD Mechanical|Company: Autodesk, Inc."
 90
     1025
 91
        1
280
     0
281
     0
  0
CLASS
  1
ACDBENTITYCACHE
  2
AcMeEntityCache
  3
AcMeServices
 90
     1024
 91
        1
280
     0
281
     0
  0
CLASS
  1
GSMANAGER
  2
AcMeGSManager
  3
AcMeServices
 90
     1024
 91
        1
280
     0
281
     0
  0
CLASS
  1
AMDTINTERNALREACTOR
  2
AmdtInternalReactor
  3
AcMeServices
 90
     1024
 91
        6
280
     0
281
     0
  0
CLASS
  1
ACME_DATABASE
  2
AcMeDbDatabase
  3
AcMeServices
 90
     1024
 91
        1
280
     0
281
     0
  0
CLASS
  1
ACGREFACADMASTER
  2
AcGrefacadMaster
  3
AcGrefServices
 90
     1024
 91
        1
280
     0
281
     0
  0
CLASS
  1
AMDTMENUSTATEMGR
  2
AmdtMenuStateMgr
  3
McadcomServices
 90
     1024
 91
        1
280
     0
281
     0
  0
CLASS
  1
AMDTMCOMMENUSTATE
  2
AmdtMcomMenuState
  3
McadcomServices
 90
     1024
 91
        1
280
     0
281
     0
  0
CLASS
  1
MAPIADMODULE
  2
MApiAdModule
  3
MApiAdServices
 90
     1024
 91
        1
280
     0
281
     0
  0
CLASS
  1
AMDTDMMENUSTATE
  2
AmdtDmMenuState
  3
AcMechDwgViewMgmt
 90
     1024
 91
        1
280
     0
281
     0
  0
CLASS
  1
AMDTADMENUSTATE
  2
AmdtAdMenuState
  3
DesignerServices
 90
     1024
 91
        1
280
     0
281
     0
  0
CLASS
  1
AMDTAMMENUSTATE
  2
AmdtAmMenuState
  3
DesignerAssemblies
 90
     1024
 91
        1
280
     0
281
     0
  0
CLASS
  1
ACMDATADICTIONARY
  2
AcmDataDictionary
  3
"AcmSymBB|Product Description: AutoCAD Mechanical|Company: Autodesk, Inc."
 90
     1024
 91
        1
280
     0
281
     0
  0
CLASS
  1
ACMDATAENTRYBLOCK
  2
AcmDataEntryBlock
  3
AcmSymBB|Product Description: AutoCAD Mechanical|Company: Autodesk, Inc.
 90
     1024
 91
        1
280
     0
281
     0
  0
CLASS
  1
ACMSURFSTANDARDJIS
  2
AcmSurfTextStdJIS
  3
"Amdt_StdImp|Product Description: AutoCAD Mechanical|Company: Autodesk, Inc."
 90
     1024
 91
        1
280
     0
281
     0
  0
CLASS
  1
ACMFCFSTANDARDJIS
  2
AcmFCFStdJIS
  3
"Amdt_StdImp|Product Description: AutoCAD Mechanical|Company: Autodesk, Inc."
 90
     1024
 91
        1
280
     0
281
     0
  0
CLASS
  1
ACMWELDSTANDARDJIS
  2
AcmWeldingStdJIS
  3
"Amdt_StdImp|Product Description: AutoCAD Mechanical|Company: Autodesk, Inc."
 90
     1024
 91
        1
280
     0
281
     0
  0
CLASS
  1
ACMIDSTANDARDJIS
  2
AcmIdStdJIS
  3
"Amdt_StdImp|Product Description: AutoCAD Mechanical|Company: Autodesk, Inc."
 90
     1024
 91
        1
280
     0
281
     0
  0
CLASS
  1
ACMDATUMSTANDARDJIS
  2
AcmDatumStdJIS
  3
"Amdt_StdImp|Product Description: AutoCAD Mechanical|Company: Autodesk, Inc."
 90
     1024
 91
        1
280
     0
281
     0
  0
CLASS
  1
ACMBOMSTANDARDJIS
  2
AcmBOMStdJIS
  3
"Amdt_StdImp|Product Description: AutoCAD Mechanical|Company: Autodesk, Inc."
 90
     1024
 91
        1
280
     0
281
     0
  0
CLASS
  1
ACMSURFSTANDARDANSI
  2
AcmSurfTextStdANSI
  3
"Amdt_StdImp|Product Description: AutoCAD Mechanical|Company: Autodesk, Inc."
 90
     1024
 91
        1
280
     0
281
     0
  0
CLASS
  1
ACMFCFSTANDARDANSI
  2
AcmFCFStdANSI
  3
"Amdt_StdImp|Product Description: AutoCAD Mechanical|Company: Autodesk, Inc."
 90
     1024
 91
        1
280
     0
281
     0
  0
CLASS
  1
ACMWELDSTANDARDANSI
  2
AcmWeldingStdANSI
  3
"Amdt_StdImp|Product Description: AutoCAD Mechanical|Company: Autodesk, Inc."
 90
     1024
 91
        1
280
     0
281
     0
  0
CLASS
  1
ACMIDSTANDARDANSI
  2
AcmIdStdANSI
  3
"Amdt_StdImp|Product Description: AutoCAD Mechanical|Company: Autodesk, Inc."
 90
     1024
 91
        1
280
     0
281
     0
  0
CLASS
  1
ACMDATUMSTANDARDANSI
  2
AcmDatumStdANSI
  3
"Amdt_StdImp|Product Description: AutoCAD Mechanical|Company: Autodesk, Inc."
 90
     1024
 91
        1
280
     0
281
     0
  0
CLASS
  1
ACMBOMSTANDARDANSI
  2
AcmBOMStdANSI
  3
"Amdt_StdImp|Product Description: AutoCAD Mechanical|Company: Autodesk, Inc."
 90
     1024
 91
        1
280
     0
281
     0
  0
CLASS
  1
ACMSURFSTANDARDBSI
  2
AcmSurfTextStdBSI
  3
"Amdt_StdImp|Product Description: AutoCAD Mechanical|Company: Autodesk, Inc."
 90
     1024
 91
        1
280
     0
281
     0
  0
CLASS
  1
ACMFCFSTANDARDBSI
  2
AcmFCFStdBSI
  3
"Amdt_StdImp|Product Description: AutoCAD Mechanical|Company: Autodesk, Inc."
 90
     1024
 91
        1
280
     0
281
     0
  0
CLASS
  1
ACMWELDSTANDARDBSI
  2
AcmWeldingStdBSI
  3
"Amdt_StdImp|Product Description: AutoCAD Mechanical|Company: Autodesk, Inc."
 90
     1024
 91
        1
280
     0
281
     0
  0
CLASS
  1
ACMIDSTANDARDBSI
  2
AcmIdStdBSI
  3
"Amdt_StdImp|Product Description: AutoCAD Mechanical|Company: Autodesk, Inc."
 90
     1024
 91
        1
280
     0
281
     0
  0
CLASS
  1
ACMDATUMSTANDARDBSI
  2
AcmDatumStdBSI
  3
"Amdt_StdImp|Product Description: AutoCAD Mechanical|Company: Autodesk, Inc."
 90
     1024
 91
        1
280
     0
281
     0
  0
CLASS
  1
ACMBOMSTANDARDBSI
  2
AcmBOMStdBSI
  3
"Amdt_StdImp|Product Description: AutoCAD Mechanical|Company: Autodesk, Inc."
 90
     1024
 91
        1
280
     0
281
     0
  0
CLASS
  1
AMDTEDGESTANDARDDIN
  2
AmdtEdgeStdDIN
  3
"Amdt_StdImp|Product Description: AutoCAD Mechanical|Company: Autodesk, Inc."
 90
     1024
 91
        1
280
     0
281
     0
  0
CLASS
  1
ACMSURFSTANDARDDIN
  2
AcmSurfTextStdDIN
  3
"Amdt_StdImp|Product Description: AutoCAD Mechanical|Company: Autodesk, Inc."
 90
     1024
 91
        1
280
     0
281
     0
  0
CLASS
  1
ACMFCFSTANDARDDIN
  2
AcmFCFStdDIN
  3
"Amdt_StdImp|Product Description: AutoCAD Mechanical|Company: Autodesk, Inc."
 90
     1024
 91
        1
280
     0
281
     0
  0
CLASS
  1
ACMWELDSTANDARDDIN
  2
AcmWeldingStdDIN
  3
"Amdt_StdImp|Product Description: AutoCAD Mechanical|Company: Autodesk, Inc."
 90
     1024
 91
        1
280
     0
281
     0
  0
CLASS
  1
ACMIDSTANDARDDIN
  2
AcmIdStdDIN
  3
"Amdt_StdImp|Product Description: AutoCAD Mechanical|Company: Autodesk, Inc."
 90
     1024
 91
        1
280
     0
281
     0
  0
CLASS
  1
ACMDATUMSTANDARDDIN
  2
AcmDatumStdDIN
  3
"Amdt_StdImp|Product Description: AutoCAD Mechanical|Company: Autodesk, Inc."
 90
     1024
 91
        1
280
     0
281
     0
  0
CLASS
  1
ACMBOMSTANDARDDIN
  2
AcmBOMStdDIN
  3
"Amdt_StdImp|Product Description: AutoCAD Mechanical|Company: Autodesk, Inc."
 90
     1024
 91
        1
280
     0
281
     0
  0
CLASS
  1
ACMSURFSTANDARDISO
  2
AcmSurfTextStdISO
  3
"Amdt_StdImp|Product Description: AutoCAD Mechanical|Company: Autodesk, Inc."
 90
     1024
 91
        1
280
     0
281
     0
  0
CLASS
  1
ACMFCFSTANDARDISO
  2
AcmFCFStdISO
  3
"Amdt_StdImp|Product Description: AutoCAD Mechanical|Company: Autodesk, Inc."
 90
     1024
 91
        1
280
     0
281
     0
  0
CLASS
  1
ACMWELDSTANDARDISO
  2
AcmWeldingStdISO
  3
"Amdt_StdImp|Product Description: AutoCAD Mechanical|Company: Autodesk, Inc."
 90
     1024
 91
        1
280
     0
281
     0
  0
CLASS
  1
ACMIDSTANDARDISO
  2
AcmIdStdISO
  3
"Amdt_StdImp|Product Description: AutoCAD Mechanical|Company: Autodesk, Inc."
 90
     1024
 91
        1
280
     0
281
     0
  0
CLASS
  1
ACMDATUMSTANDARDISO
  2
AcmDatumStdISO
  3
"Amdt_StdImp|Product Description: AutoCAD Mechanical|Company: Autodesk, Inc."
 90
     1024
 91
        1
280
     0
281
     0
  0
CLASS
  1
ACMBOMSTANDARDISO
  2
AcmBOMStdISO
  3
"Amdt_StdImp|Product Description: AutoCAD Mechanical|Company: Autodesk, Inc."
 90
     1024
 91
        1
280
     0
281
     0
  0
CLASS
  1
AMDTBROWSERDBTAB
  2
AmdtBrowserDbTab
  3
McadcomServices
 90
     1024
 91
        1
280
     0
281
     0
  0
CLASS
  1
ACAMGFILTERDAT
  2
AcAmgFilterDat
  3
"AcadM|Product Description: AutoCAD Mechanical|Company: Autodesk, Inc."
 90
     1024
 91
        4
280
     0
281
     0
  0
CLASS
  1
MAPIAMMOUDLE
  2
MApiAmModule
  3
MApiAmServices
 90
     1024
 91
        1
280
     0
281
     0
  0
CLASS
  1
PLOTSETTINGS
  2
AcDbPlotSettings
  3
ObjectDBX Classes
 90
        0
 91
        7
280
     0
281
     0
  0
CLASS
  1
ACRFATTGENMGR
  2
AcRfAttGeneralMgr
  3
AcAttribServices
 90
     1024
 91
        1
280
     0
281
     0
  0
CLASS
  1
ACAMGRBLOCKRECORD
  2
AcAmGrBlockRecord
  3
DesignerAssemblies
 90
     1024
 91
        2
280
     0
281
     0
  0
CLASS
  1
ACAMVIEWREACTOR
  2
AcAmViewReactor
  3
DesignerAssemblies
 90
     1024
 91
        0
280
     0
281
     0
  0
CLASS
  1
ACAMCOMPENT
  2
AcAmCompEnt
  3
DesignerAssemblies
 90
     1024
 91
        0
280
     0
281
     1
  0
CLASS
  1
AMVIEW
  2
AcAmView
  3
DesignerAssemblies
 90
     1024
 91
        0
280
     0
281
     0
  0
CLASS
  1
ACAMVIEWCONTEXT
  2
AcAmViewContext
  3
DesignerAssemblies
 90
     1024
 91
        0
280
     0
281
     0
  0
CLASS
  1
ADPART
  2
AcAdPart
  3
DesignerServices
 90
     1024
 91
        2
280
     0
281
     1
  0
CLASS
  1
ADBASE
  2
AcAdBase
  3
DesignerServices
 90
     1024
 91
        2
280
     0
281
     0
  0
CLASS
  1
BODYID
  2
AcAdBodyId
  3
DesignerServices
 90
     1024
 91
        2
280
     0
281
     0
  0
CLASS
  1
WORKPLANEDISPLAYMGR
  2
AcAdDisplayMgr
  3
DesignerServices
 90
     1024
 91
        2
280
     0
281
     0
  0
CLASS
  1
ACCMBODY
  2
AcCmBody
  3
DesignerAssemblies
 90
     1024
 91
        0
280
     0
281
     0
  0
CLASS
  1
ACAMCOMPFEEDBACK
  2
AcAmCompFeedback
  3
DesignerAssemblies
 90
     1024
 91
        0
280
     0
281
     0
  0
CLASS
  1
ACAMCOMP
  2
AcAmComp
  3
DesignerAssemblies
 90
     1024
 91
        0
280
     0
281
     0
  0
CLASS
  1
ACAMCOMPENTCLONE
  2
AcAmCompEntClone
  3
DesignerAssemblies
 90
     1024
 91
        0
280
     0
281
     1
  0
CLASS
  1
ACAMCLONEREACTOR
  2
AcAmGrCompCloneReactor
  3
DesignerAssemblies
 90
     1024
 91
        0
280
     0
281
     0
  0
CLASS
  1
ADDATUMPLANEABS
  2
AcAdDatumPlaneAbs
  3
DesignerServices
 90
     1024
 91
        5
280
     0
281
     0
  0
CLASS
  1
ADDATUMAXISABS
  2
AcAdDatumAxisAbs
  3
DesignerServices
 90
     1024
 91
        6
280
     0
281
     0
  0
CLASS
  1
ADDATUMORIENTEDPLANE
  2
AcAdDatumOrientedPlane
  3
DesignerServices
 90
     1024
 91
        6
280
     0
281
     0
  0
CLASS
  1
ACAD_LINE
  2
AcAdLine
  3
DesignerServices
 90
     1024
 91
        0
280
     0
281
     1
  0
CLASS
  1
ACADLINEACAD
  2
AcAdVirtualBoundedLineAcad
  3
DesignerServices
 90
     1024
 91
       12
280
     0
281
     0
  0
CLASS
  1
ACADREFLINEACAD
  2
AcAdVirtualReferenceLine
  3
DesignerServices
 90
     1024
 91
        8
280
     0
281
     0
  0
CLASS
  1
ACADCONSLINE
  2
AcAdConstrainedLine
  3
DesignerServices
 90
     1024
 91
       21
280
     0
281
     0
  0
CLASS
  1
ACADCONSGROUP
  2
AcAdConstraintGroup
  3
DesignerServices
 90
     1024
 91
        4
280
     0
281
     0
  0
CLASS
  1
ACADIMPPTACAD
  2
AcAdVirtualImplicitPoint
  3
DesignerServices
 90
     1024
 91
       25
280
     0
281
     0
  0
CLASS
  1
ACADCONSPOINT
  2
AcAdConstrainedPoint
  3
DesignerServices
 90
     1024
 91
       20
280
     0
281
     0
  0
CLASS
  1
ADPCURCNS
  2
AcAdPointCurveConstr
  3
DesignerServices
 90
     1024
 91
       24
280
     0
281
     0
  0
CLASS
  1
ADHORCNS
  2
AcAdHorizontalConstr
  3
DesignerServices
 90
     1024
 91
        4
280
     0
281
     0
  0
CLASS
  1
ADVERCNS
  2
AcAdVerticalConstr
  3
DesignerServices
 90
     1024
 91
        4
280
     0
281
     0
  0
CLASS
  1
ADCLPROF2D
  2
AcAdClosedProfile2d
  3
DesignerServices
 90
     1024
 91
        3
280
     0
281
     0
  0
CLASS
  1
ACAD_FIXCONSTRAINT
  2
AcAdFixedConstraint
  3
DesignerServices
 90
     1024
 91
        1
280
     0
281
     0
  0
CLASS
  1
ACMELINEARARROW
  2
AcImLinearArrowDisplay
  3
AcMeServices
 90
     1024
 91
        0
280
     0
281
     1
  0
CLASS
  1
PARAM
  2
AcAdParam
  3
DesignerServices
 90
     1024
 91
       23
280
     0
281
     0
  0
CLASS
  1
ACADVOLFEATWITHTRIM
  2
AcAdVolFeatWithTrim
  3
DesignerServices
 90
     1024
 91
        3
280
     0
281
     0
  0
CLASS
  1
DEPEDGEFEATUREORDERING
  2
AcAdDepEdgeFeatureOrdering
  3
DesignerServices
 90
     1024
 91
        3
280
     0
281
     0
  0
CLASS
  1
ADWORKPOINTDISPLAY
  2
AcAdWorkPointDisplay
  3
DesignerServices
 90
     1024
 91
        1
280
     0
281
     1
  0
CLASS
  1
ADVIRTUALPOINTWORKPOINTFREE
  2
AcAdVirtualPointWorkPointFree
  3
DesignerServices
 90
     1024
 91
        1
280
     0
281
     0
  0
CLASS
  1
ADWORKPOINTSKETCH
  2
AcAdWorkPointSketch
  3
DesignerServices
 90
     1024
 91
        1
280
     0
281
     0
  0
CLASS
  1
ACADPARTDATUMPOINTRES
  2
AcAdPartDatumPointRes
  3
AdGrefServices
 90
     1024
 91
        0
280
     0
281
     0
  0
CLASS
  1
ACRFINSADJ
  2
AcRfInsAdjuster
  3
AcMeServices
 90
     1024
 91
        0
280
     0
281
     0
  0
CLASS
  1
DATUMPLANEDISPLAY
  2
AcAdDatumPlaneDisplay
  3
DesignerServices
 90
     1024
 91
        5
280
     0
281
     1
  0
CLASS
  1
ACADPARTDATUMPLANERES
  2
AcAdPartDatumPlaneRes
  3
AdGrefServices
 90
     1024
 91
        0
280
     0
281
     0
  0
CLASS
  1
ACMEPLINE
  2
AcImPlineDisplay
  3
AcMeServices
 90
     1024
 91
        0
280
     0
281
     1
  0
CLASS
  1
ACAD_CIRCLE
  2
AcAdCircle
  3
DesignerServices
 90
     1024
 91
        0
280
     0
281
     1
  0
CLASS
  1
ACADCIRCLEACAD
  2
AcAdVirtualCircleAcad
  3
DesignerServices
 90
     1024
 91
        1
280
     0
281
     0
  0
CLASS
  1
ACADCONSCIRCLE
  2
AcAdConstrainedCircle
  3
DesignerServices
 90
     1024
 91
        1
280
     0
281
     0
  0
CLASS
  1
ADCTRPTCNS
  2
AcAdCenterPointConstr
  3
DesignerServices
 90
     1024
 91
        1
280
     0
281
     0
  0
CLASS
  1
ACDBCIRCARCRES
  2
AcDbCircArcRes
  3
AcGrefServices
 90
     1024
 91
        0
280
     0
281
     0
  0
CLASS
  1
ACADSKETCHCIRCARCRES
  2
AcAdSketchCircArcRes
  3
DesignerServices
 90
     1024
 91
        1
280
     0
281
     0
  0
CLASS
  1
ADVIRTUALPOINTWORKPOINTFIXED
  2
AcAdVirtualPointWorkPointFixed
  3
DesignerServices
 90
     1024
 91
        6
280
     0
281
     0
  0
CLASS
  1
ADHDISTCNS
  2
AcAdHorizontalDistanceConstr
  3
DesignerServices
 90
     1024
 91
        5
280
     0
281
     0
  0
CLASS
  1
ACADSKETCHPOINTRES
  2
AcAdSketchPointRes
  3
DesignerServices
 90
     1024
 91
       20
280
     0
281
     0
  0
CLASS
  1
ADVDISTCNS
  2
AcAdVerticalDistanceConstr
  3
DesignerServices
 90
     1024
 91
        7
280
     0
281
     0
  0
CLASS
  1
ADACADDIACNS
  2
AcAdAcadDiameterConstr
  3
DesignerServices
 90
     1024
 91
        1
280
     0
281
     0
  0
CLASS
  1
AMIINSTATTCLASSRECORD
  2
AmiInstAttClassRecord
  3
AcAttribServices
 90
     1024
 91
        1
280
     0
281
     0
  0
CLASS
  1
AMIINSTATTIMP
  2
AmiInstAttImp
  3
AcAttribServices
 90
     1025
 91
        2
280
     0
281
     0
  0
CLASS
  1
ACRFOBJATTMGR
  2
AcRfObjAttGroupMgr
  3
AcAttribServices
 90
     1024
 91
        2
280
     0
281
     0
  0
CLASS
  1
ACRFMCADAPIATTHOLDER
  2
AcRfMCADAPIAttHolder
  3
AcAttribServices
 90
     1024
 91
        1
280
     0
281
     0
  0
CLASS
  1
FACEID
  2
AcAdFaceId
  3
DesignerServices
 90
     1024
 91
        0
280
     0
281
     0
  0
CLASS
  1
ACADPARTCYLINDERFACERES
  2
AcAdPartCylinderFaceRes
  3
AdGrefServices
 90
     1024
 91
        0
280
     0
281
     0
  0
CLASS
  1
ACADPARTPLANARFACERES
  2
AcAdPartPlanarFaceRes
  3
AdGrefServices
 90
     1024
 91
        0
280
     0
281
     0
  0
CLASS
  1
ADPLANEID
  2
AcAdPlaneId
  3
DesignerServices
 90
     1024
 91
        2
280
     0
281
     0
  0
CLASS
  1
ADDATUMPLANEFACE
  2
AcAdDatumPlaneFace
  3
DesignerServices
 90
     1024
 91
        2
280
     0
281
     0
  0
CLASS
  1
ADDATUMPLANEOFFSET
  2
AcAdDatumPlaneOffset
  3
DesignerServices
 90
     1024
 91
        3
280
     0
281
     0
  0
CLASS
  1
DATUMAXISDISPLAY
  2
AcAdDatumAxisDisplay
  3
DesignerServices
 90
     1024
 91
        1
280
     0
281
     1
  0
CLASS
  1
ADSURFGEOMID
  2
AcAdSurfGeomId
  3
DesignerServices
 90
     1024
 91
        1
280
     0
281
     0
  0
CLASS
  1
ADDATUMAXISCENTER
  2
AcAdDatumAxisCenter
  3
DesignerServices
 90
     1024
 91
        1
280
     0
281
     0
  0
CLASS
  1
ACADPARTAXISRES
  2
AcAdPartAxisRes
  3
AdGrefServices
 90
     1024
 91
        0
280
     0
281
     0
  0
CLASS
  1
ACDBLINERES
  2
AcDbLineRes
  3
AcGrefServices
 90
     1024
 91
        0
280
     0
281
     0
  0
CLASS
  1
ACADSKETCHLINERES
  2
AcAdSketchLineRes
  3
DesignerServices
 90
     1024
 91
        4
280
     0
281
     0
  0
CLASS
  1
ADCONSTDSP
  2
AcAdConstraintDisplayTag
  3
DesignerServices
 90
     1024
 91
        0
280
     0
281
     1
  0
CLASS
  1
ADCONSDISP
  2
AcAdConstraintDisplay
  3
DesignerServices
 90
     1024
 91
        0
280
     0
281
     1
  0
CLASS
  1
ADACADANGCNS
  2
AcAdAcadAngleConstr
  3
DesignerServices
 90
     1024
 91
        2
280
     0
281
     0
  0
CLASS
  1
ADPROJCNS
  2
AcAdProjectionConstr
  3
DesignerServices
 90
     1024
 91
        1
280
     0
281
     0
  0
CLASS
  1
ADCOLNCNS
  2
AcAdColinearConstr
  3
DesignerServices
 90
     1024
 91
        1
280
     0
281
     0
  0
CLASS
  1
ACADBOUNDEDLINEDATUMID
  2
AcAdVirtualBoundedLineDatumId
  3
DesignerServices
 90
     1024
 91
        1
280
     0
281
     0
  0
CLASS
  1
ACADPARTCONICALFACERES
  2
AcAdPartConicalFaceRes
  3
AdGrefServices
 90
     1024
 91
        0
280
     0
281
     0
  0
CLASS
  1
DEPEDGESECONDARYDEPID
  2
AcAdDepEdgeSecondaryDepId
  3
DesignerServices
 90
     1024
 91
        0
280
     0
281
     0
  0
CLASS
  1
AMACTIVEPARTSELECTFILTER
  2
AcDmActivePartViewEntFilter
  3
DesignerServices
 90
     1024
 91
        0
280
     0
281
     0
  0
CLASS
  1
AM_ABS_PLANE
  2
AcDmAbsPlnDef
  3
AcMechDwgViewMgmt
 90
     1024
 91
        0
280
     0
281
     0
  0
CLASS
  1
AM_ABS_AXIS
  2
AcDmAbsAxisDef
  3
AcMechDwgViewMgmt
 90
     1024
 91
        0
280
     0
281
     0
  0
CLASS
  1
AM_BASE_VIEW_ORIENT
  2
AcDmBaseViewOr
  3
AcMechDwgViewMgmt
 90
     1024
 91
        0
280
     0
281
     0
  0
CLASS
  1
AM_DWG_VIEWPORT
  2
AcDmViewport
  3
AcMechDwgViewMgmt
 90
     1024
 91
        0
280
     0
281
     0
  0
CLASS
  1
AM_VIEW_DISPLAY
  2
AcDmDwgViewDisplay
  3
AcMechDwgViewMgmt
 90
     1024
 91
        0
280
     0
281
     0
  0
CLASS
  1
AM_CLDFLTS
  2
AcDmClDflts
  3
AcMechDwgViewMgmt
 90
     1024
 91
        9
280
     0
281
     0
  0
CLASS
  1
AM_BASE_VIEW
  2
AcDmBaseView
  3
AcMechDwgViewMgmt
 90
     1024
 91
        0
280
     0
281
     0
  0
CLASS
  1
AM_ORTHO_VIEW_ORIENT
  2
AcDmOrthoViewOr
  3
AcMechDwgViewMgmt
 90
     1024
 91
        0
280
     0
281
     0
  0
CLASS
  1
AM_ORTHO_VIEW
  2
AcDmOrthoView
  3
AcMechDwgViewMgmt
 90
     1024
 91
        0
280
     0
281
     0
  0
CLASS
  1
AM_ISO_VIEW_ORIENT
  2
AcDmIsoViewOr
  3
AcMechDwgViewMgmt
 90
     1024
 91
        0
280
     0
281
     0
  0
CLASS
  1
AM_ISO_VIEW
  2
AcDmIsoView
  3
AcMechDwgViewMgmt
 90
     1024
 91
        0
280
     0
281
     0
  0
CLASS
  1
ACDMVWEDARC
  2
AcDmViewEdgeArc
  3
AcMechDwgViewMgmt
 90
     1024
 91
        0
280
     0
281
     1
  0
CLASS
  1
ACDMVWEDCIRC
  2
AcDmViewEdgeCircle
  3
AcMechDwgViewMgmt
 90
     1024
 91
        0
280
     0
281
     1
  0
CLASS
  1
ACDMVWEDLINE
  2
AcDmViewEdgeLine
  3
AcMechDwgViewMgmt
 90
     1024
 91
        0
280
     0
281
     1
  0
CLASS
  1
CNRREFID
  2
AcAdCornerId
  3
DesignerServices
 90
     1024
 91
        0
280
     0
281
     0
  0
CLASS
  1
ACADPARTPOINTRES
  2
AcAdPartPointRes
  3
AdGrefServices
 90
     1024
 91
        0
280
     0
281
     0
  0
CLASS
  1
ACADPARTSKETCHPLANEAXISRES
  2
AcAdPartSketchPlaneAxisRes
  3
DesignerServices
 90
     1024
 91
        0
280
     0
281
     0
  0
CLASS
  1
AM_VIEWDIMPARALLEL
  2
AcDmViewDimParallel
  3
AcMechDwgViewMgmt
 90
     1024
 91
        0
280
     0
281
     0
  0
CLASS
  1
AMDTDMPARMAPDATA
  2
AmdtDmDimParMapData
  3
AcMechDwgViewMgmt
 90
     1024
 91
        0
280
     0
281
     0
  0
CLASS
  1
AM_VIEWDIMLINEAR
  2
AcDmViewDimLinear
  3
AcMechDwgViewMgmt
 90
     1024
 91
        0
280
     0
281
     0
  0
CLASS
  1
AM_VIEWDIMANGULAR
  2
AcDmViewDimAngular
  3
AcMechDwgViewMgmt
 90
     1024
 91
        0
280
     0
281
     0
  0
CLASS
  1
AM_ADLINCTRLINE
  2
AcAdLineCl
  3
DesignerServices
 90
     1024
 91
        0
280
     0
281
     0
  0
CLASS
  1
AM_VIEWDIMDIAMETER
  2
AcDmViewDimDiameter
  3
AcMechDwgViewMgmt
 90
     1024
 91
        0
280
     0
281
     0
  0
CLASS
  1
AM_ADCIRCTRLINE
  2
AcAdBullsEyeCl
  3
DesignerServices
 90
     1024
 91
        0
280
     0
281
     0
  0
CLASS
  1
AMDTMAPISURFMOUDULE
  2
AmdtMApiSurfModule
  3
MApiSurfServices
 90
     1024
 91
        1
280
     0
281
     0
  0
CLASS
  1
ACAMGTITLESTD
  2
AcAmgTitleStd
  3
"AmgTitle|Product Description: AutoCAD Mechanical|Company: Autodesk, Inc."
 90
     4095
 91
        5
280
     0
281
     0
  0
CLASS
  1
ACMDETAILSTANDARDJIS
  2
AmdtDetailSymStdJIS
  3
"Amdt_StdImp|Product Description: AutoCAD Mechanical|Company: Autodesk, Inc."
 90
     1024
 91
        1
280
     0
281
     0
  0
CLASS
  1
ACMSECTIONSTANDARDJIS
  2
AmdtSectionSymStdJIS
  3
"Amdt_StdImp|Product Description: AutoCAD Mechanical|Company: Autodesk, Inc."
 90
     1024
 91
        1
280
     0
281
     0
  0
CLASS
  1
ACMCENTERLINESTANDARDJIS
  2
AmdtCenterLineStdJIS
  3
"Amdt_StdImp|Product Description: AutoCAD Mechanical|Company: Autodesk, Inc."
 90
     1024
 91
        1
280
     0
281
     0
  0
CLASS
  1
ACMTHREADLINESTANDARDCSN
  2
AmdtThreadLineStdCSN
  3
"Amdt_StdImp|Product Description: AutoCAD Mechanical|Company: Autodesk, Inc."
 90
     1024
 91
        5
280
     0
281
     0
  0
CLASS
  1
ACMDETAILSTANDARDANSI
  2
AmdtDetailSymStdANSI
  3
"Amdt_StdImp|Product Description: AutoCAD Mechanical|Company: Autodesk, Inc."
 90
     1024
 91
        1
280
     0
281
     0
  0
CLASS
  1
ACMSECTIONSTANDARDANSI
  2
AmdtSectionSymStdANSI
  3
"Amdt_StdImp|Product Description: AutoCAD Mechanical|Company: Autodesk, Inc."
 90
     1024
 91
        1
280
     0
281
     0
  0
CLASS
  1
ACMCENTERLINESTANDARDANSI
  2
AmdtCenterLineStdANSI
  3
"Amdt_StdImp|Product Description: AutoCAD Mechanical|Company: Autodesk, Inc."
 90
     1024
 91
        1
280
     0
281
     0
  0
CLASS
  1
ACMDETAILSTANDARDBSI
  2
AmdtDetailSymStdBSI
  3
"Amdt_StdImp|Product Description: AutoCAD Mechanical|Company: Autodesk, Inc."
 90
     1024
 91
        1
280
     0
281
     0
  0
CLASS
  1
ACMSECTIONSTANDARDBSI
  2
AmdtSectionSymStdBSI
  3
"Amdt_StdImp|Product Description: AutoCAD Mechanical|Company: Autodesk, Inc."
 90
     1024
 91
        1
280
     0
281
     0
  0
CLASS
  1
ACMCENTERLINESTANDARDBSI
  2
AmdtCenterLineStdBSI
  3
"Amdt_StdImp|Product Description: AutoCAD Mechanical|Company: Autodesk, Inc."
 90
     1024
 91
        1
280
     0
281
     0
  0
CLASS
  1
ACMDETAILSTANDARDDIN
  2
AmdtDetailSymStdDIN
  3
"Amdt_StdImp|Product Description: AutoCAD Mechanical|Company: Autodesk, Inc."
 90
     1024
 91
        1
280
     0
281
     0
  0
CLASS
  1
ACMSECTIONSTANDARDDIN
  2
AmdtSectionSymStdDIN
  3
"Amdt_StdImp|Product Description: AutoCAD Mechanical|Company: Autodesk, Inc."
 90
     1024
 91
        1
280
     0
281
     0
  0
CLASS
  1
ACMCENTERLINESTANDARDDIN
  2
AmdtCenterLineStdDIN
  3
"Amdt_StdImp|Product Description: AutoCAD Mechanical|Company: Autodesk, Inc."
 90
     1024
 91
        1
280
     0
281
     0
  0
CLASS
  1
AMDTEDGESTANDARDISO
  2
AmdtEdgeStdISO
  3
"Amdt_StdImp|Product Description: AutoCAD Mechanical|Company: Autodesk, Inc."
 90
     1024
 91
        1
280
     0
281
     0
  0
CLASS
  1
ACMDETAILSTANDARDISO
  2
AmdtDetailSymStdISO
  3
"Amdt_StdImp|Product Description: AutoCAD Mechanical|Company: Autodesk, Inc."
 90
     1024
 91
        1
280
     0
281
     0
  0
CLASS
  1
ACMSECTIONSTANDARDISO
  2
AmdtSectionSymStdISO
  3
"Amdt_StdImp|Product Description: AutoCAD Mechanical|Company: Autodesk, Inc."
 90
     1024
 91
        1
280
     0
281
     0
  0
CLASS
  1
ACMCENTERLINESTANDARDISO
  2
AmdtCenterLineStdISO
  3
"Amdt_StdImp|Product Description: AutoCAD Mechanical|Company: Autodesk, Inc."
 90
     1024
 91
        1
280
     0
281
     0
  0
CLASS
  1
ACAMGLAYSTD
  2
AcAmgLayStd
  3
"AmgLay|Product Description: AutoCAD Mechanical|Company: Autodesk, Inc."
 90
     1024
 91
        5
280
     0
281
     0
  0
CLASS
  1
ACAMGDIMSTD
  2
AcAmgDimStd
  3
"AmgDim|Product Description: AutoCAD Mechanical|Company: Autodesk, Inc."
 90
     1024
 91
        5
280
     0
281
     0
  0
CLASS
  1
ACDMPARTVIEWDATA
  2
AcDmPartViewData
  3
AcMechDwgViewMgmt
 90
     1024
 91
        0
280
     0
281
     0
  0
CLASS
  1
ACDMDISPLAYATTRIBS
  2
AcDmDisplayAttribs
  3
AcMechDwgViewMgmt
 90
     1024
 91
        0
280
     0
281
     0
  0
CLASS
  1
ACDMBODYINSTANCEDATA
  2
AcDmBodyInstanceData
  3
AcMechDwgViewMgmt
 90
     1024
 91
        0
280
     0
281
     0
  0
CLASS
  1
AMDTFORMULAUPDATEDISPATCHER
  2
AmdtFormulaUpdateDispatcher
  3
AcMeServices
 90
     1024
 91
        1
280
     0
281
     0
  0
CLASS
  1
ACAMCONTEXTPARTMODELER
  2
AcAmContextPartModeler
  3
DesignerAssemblies
 90
     1024
 91
        1
280
     0
281
     0
  0
CLASS
  1
ACMNOTESTANDARDJIS
  2
AmdtNoteStdJIS
  3
"Amdt_StdImp|Product Description: AutoCAD Mechanical|Company: Autodesk, Inc."
 90
     1024
 91
        1
280
     0
281
     0
  0
CLASS
  1
AMDTNOTETEMPLATEDB
  2
AmdtNoteTemplateDB
  3
AcmSymBB|Product Description: AutoCAD Mechanical|Company: Autodesk, Inc.
 90
     1024
 91
       20
280
     0
281
     0
  0
CLASS
  1
ACMNOTESTANDARDANSI
  2
AmdtNoteStdANSI
  3
"Amdt_StdImp|Product Description: AutoCAD Mechanical|Company: Autodesk, Inc."
 90
     1024
 91
        1
280
     0
281
     0
  0
CLASS
  1
ACMNOTESTANDARDBSI
  2
AmdtNoteStdBSI
  3
"Amdt_StdImp|Product Description: AutoCAD Mechanical|Company: Autodesk, Inc."
 90
     1024
 91
        1
280
     0
281
     0
  0
CLASS
  1
ACMNOTESTANDARDDIN
  2
AmdtNoteStdDIN
  3
"Amdt_StdImp|Product Description: AutoCAD Mechanical|Company: Autodesk, Inc."
 90
     1024
 91
        1
280
     0
281
     0
  0
CLASS
  1
ACMNOTESTANDARDISO
  2
AmdtNoteStdISO
  3
"Amdt_StdImp|Product Description: AutoCAD Mechanical|Company: Autodesk, Inc."
 90
     1024
 91
        1
280
     0
281
     0
  0
CLASS
  1
MATERIAL
  2
AcDbMaterial
  3
ObjectDBX Classes
 90
     1153
 91
        3
280
     0
281
     0
  0
CLASS
  1
VISUALSTYLE
  2
AcDbVisualStyle
  3
ObjectDBX Classes
 90
     4095
 91
       16
280
     0
281
     0
  0
CLASS
  1
TABLESTYLE
  2
AcDbTableStyle
  3
ObjectDBX Classes
 90
     4095
 91
        1
280
     0
281
     0
  0
CLASS
  1
SCALE
  2
AcDbScale
  3
ObjectDBX Classes
 90
     1153
 91
       33
280
     0
281
     0
  0
CLASS
  1
MLEADERSTYLE
  2
AcDbMLeaderStyle
  3
ACDB_MLEADERSTYLE_CLASS
 90
     4095
 91
        1
280
     0
281
     0
  0
CLASS
  1
ACMTAPERSTANDARDJIS
  2
AcmTaperStdJIS
  3
"Amdt_StdImp|Product Description: AutoCAD Mechanical|Company: Autodesk, Inc."
 90
     1024
 91
        1
280
     0
281
     0
  0
CLASS
  1
ACMANOOTATIONVIEWSTANDARDJIS
  2
AmdtAnViewStdJIS
  3
"Amdt_StdImp|Product Description: AutoCAD Mechanical|Company: Autodesk, Inc."
 90
     1024
 91
        1
280
     0
281
     0
  0
CLASS
  1
ACMTAPERSTANDARDANSI
  2
AcmTaperStdANSI
  3
"Amdt_StdImp|Product Description: AutoCAD Mechanical|Company: Autodesk, Inc."
 90
     1024
 91
        1
280
     0
281
     0
  0
CLASS
  1
ACMANOOTATIONVIEWSTANDARDANSI
  2
AmdtAnViewStdANSI
  3
"Amdt_StdImp|Product Description: AutoCAD Mechanical|Company: Autodesk, Inc."
 90
     1024
 91
        1
280
     0
281
     0
  0
CLASS
  1
ACMTAPERSTANDARDBSI
  2
AcmTaperStdBSI
  3
"Amdt_StdImp|Product Description: AutoCAD Mechanical|Company: Autodesk, Inc."
 90
     1024
 91
        1
280
     0
281
     0
  0
CLASS
  1
ACMANOOTATIONVIEWSTANDARDBSI
  2
AmdtAnViewStdBSI
  3
"Amdt_StdImp|Product Description: AutoCAD Mechanical|Company: Autodesk, Inc."
 90
     1024
 91
        1
280
     0
281
     0
  0
CLASS
  1
ACMTAPERSTANDARDDIN
  2
AcmTaperStdDIN
  3
"Amdt_StdImp|Product Description: AutoCAD Mechanical|Company: Autodesk, Inc."
 90
     1024
 91
        1
280
     0
281
     0
  0
CLASS
  1
ACMANOOTATIONVIEWSTANDARDDIN
  2
AmdtAnViewStdDIN
  3
"Amdt_StdImp|Product Description: AutoCAD Mechanical|Company: Autodesk, Inc."
 90
     1024
 91
        1
280
     0
281
     0
  0
CLASS
  1
ACMTAPERSTANDARDISO
  2
AcmTaperStdISO
  3
"Amdt_StdImp|Product Description: AutoCAD Mechanical|Company: Autodesk, Inc."
 90
     1024
 91
        1
280
     0
281
     0
  0
CLASS
  1
ACMANOOTATIONVIEWSTANDARDISO
  2
AmdtAnViewStdISO
  3
"Amdt_StdImp|Product Description: AutoCAD Mechanical|Company: Autodesk, Inc."
 90
     1024
 91
        1
280
     0
281
     0
  0
CLASS
  1
CELLSTYLEMAP
  2
AcDbCellStyleMap
  3
ObjectDBX Classes
 90
     1152
 91
        2
280
     0
281
     0
  0
CLASS
  1
AMDTEDGESTANDARDJIS
  2
AmdtEdgeStdJIS
  3
"Amdt_StdImp|Product Description: AutoCAD Mechanical|Company: Autodesk, Inc."
 90
     1024
 91
        1
280
     0
281
     0
  0
ENDSEC
  0
SECTION
  2
TABLES
  0
TABLE
  2
VPORT
  5
8
330
0
100
AcDbSymbolTable
 70
     3
  0
VPORT
  5
79C
330
8
100
AcDbSymbolTableRecord
100
AcDbViewportTableRecord
  2
asurf_wcs_vp_2
 70
     0
 10
0.0
 20
0.0
 11
0.5
 21
1.0
 12
0.0
 22
0.0
 13
0.0
 23
0.0
 14
10.0
 24
10.0
 15
10.0
 25
10.0
 16
0.0
 26
0.0
 36
1.0
 17
210.0
 27
148.5
 37
0.0
 40
664.2413317557894
 41
0.6397245798091085
 42
50.0
 43
0.0
 44
0.0
 50
0.0
 51
0.0
 71
     0
 72
  1000
 73
     1
 74
     0
 75
     0
 76
     0
 77
     0
 78
     0
281
     4
 65
     0
110
0.0
120
0.0
130
0.0
111
1.0
121
0.0
131
0.0
112
0.0
122
1.0
132
0.0
 79
     0
146
0.0
348
328C
 60
     3
 61
     5
292
     1
282
     1
141
0.0
142
0.0
 63
   250
421
  3355443
  0
VPORT
  5
79D
330
8
100
AcDbSymbolTableRecord
100
AcDbViewportTableRecord
  2
asurf_wcs_vp_2
 70
     0
 10
0.5
 20
0.0
 11
1.0
 21
1.0
 12
-166.0188166206583
 22
35.22481755965711
 13
0.0
 23
0.0
 14
10.0
 24
10.0
 15
10.0
 25
10.0
 16
1.0
 26
-1.0
 36
1.0
 17
210.0
 27
148.5
 37
0.0
 40
482.8380307317477
 41
0.6397245798091085
 42
50.0
 43
0.0
 44
0.0
 50
0.0
 51
0.0
 71
     0
 72
  1000
 73
     1
 74
     0
 75
     0
 76
     0
 77
     0
 78
     0
281
     4
 65
     0
110
0.0
120
0.0
130
0.0
111
1.0
121
0.0
131
0.0
112
0.0
122
1.0
132
0.0
 79
     0
146
0.0
348
328C
 60
     3
 61
     5
292
     1
282
     1
141
0.0
142
0.0
 63
   250
421
  3355443
  0
VPORT
  5
326F
330
8
100
AcDbSymbolTableRecord
100
AcDbViewportTableRecord
  2
*Active
 70
     0
 10
0.0
 20
0.0
 11
1.0
 21
1.0
 12
50.83489174940069
 22
38.06408359598027
 13
0.0
 23
0.0
 14
10.0
 24
10.0
 15
10.0
 25
10.0
 16
0.0
 26
0.0
 36
1.0
 17
225.0419189867749
 27
164.8409058003548
 37
0.0
 40
442.5281922273359
 41
1.658484525080042
 42
50.0
 43
0.0
 44
0.0
 50
0.0
 51
0.0
 71
     0
 72
  1000
 73
     1
 74
     1
 75
     0
 76
     0
 77
     0
 78
     0
281
     0
 65
     0
110
0.0
120
0.0
130
0.0
111
1.0
121
0.0
131
0.0
112
0.0
122
1.0
132
0.0
 79
     0
146
0.0
348
328F
 60
     3
 61
     5
292
     1
282
     1
141
0.0
142
0.0
 63
   250
421
  3355443
  0
ENDTAB
  0
TABLE
  2
LTYPE
  5
5
330
0
100
AcDbSymbolTable
 70
    33
  0
LTYPE
  5
14
330
5
100
AcDbSymbolTableRecord
100
AcDbLinetypeTableRecord
  2
BYBLOCK
 70
     0
  3

 72
    65
 73
     0
 40
0.0
  0
LTYPE
  5
15
330
5
100
AcDbSymbolTableRecord
100
AcDbLinetypeTableRecord
  2
BYLAYER
 70
     0
  3

 72
    65
 73
     0
 40
0.0
  0
LTYPE
  5
16
330
5
100
AcDbSymbolTableRecord
100
AcDbLinetypeTableRecord
  2
CONTINUOUS
 70
     0
  3
Solid line
 72
    65
 73
     0
 40
0.0
  0
LTYPE
  5
BD
330
5
100
AcDbSymbolTableRecord
100
AcDbLinetypeTableRecord
  2
HIDDEN
 70
     0
  3
__ __ __ __ __ __ __ __ __ __ __ __ __ __ __ __
 72
    65
 73
     2
 40
0.375
 49
0.25
 74
     0
 49
-0.125
 74
     0
  0
LTYPE
  5
BF
330
5
100
AcDbSymbolTableRecord
100
AcDbLinetypeTableRecord
  2
PHANTOM2
 70
     0
  3
___ _ _ ___ _ _ ___ _ _ ___ _ _ ___ _ _ ___ _ _
 72
    65
 73
     6
 40
1.25
 49
0.625
 74
     0
 49
-0.125
 74
     0
 49
0.125
 74
     0
 49
-0.125
 74
     0
 49
0.125
 74
     0
 49
-0.125
 74
     0
  0
LTYPE
  5
CA
330
5
100
AcDbSymbolTableRecord
100
AcDbLinetypeTableRecord
  2
CENTER
 70
     0
  3
____ _ ____ _ ____ _ ____ _ ____ _ ____ _ ____ 
 72
    65
 73
     4
 40
2.0
 49
1.25
 74
     0
 49
-0.25
 74
     0
 49
0.25
 74
     0
 49
-0.25
 74
     0
  0
LTYPE
  5
120
330
5
100
AcDbSymbolTableRecord
100
AcDbLinetypeTableRecord
  2
ASULTYPE
 70
     0
  3
Solid line
 72
    65
 73
     2
 40
3.0
 49
2.5
 74
     0
 49
0.5
 74
     0
  0
LTYPE
  5
121
330
5
100
AcDbSymbolTableRecord
100
AcDbLinetypeTableRecord
  2
ASVLTYPE
 70
     0
  3
__ __ __ __ __ __ __ __ __ __ __ __ __ __ __ __ __ __ __ __ __
 72
    65
 73
     2
 40
0.75
 49
0.5
 74
     0
 49
-0.25
 74
     0
  0
LTYPE
  5
149
330
5
100
AcDbSymbolTableRecord
100
AcDbLinetypeTableRecord
  2
ACJISTGB
 70
     0
  3
__ . . __ . .
 72
    65
 73
     6
 40
9.0
 49
4.0
 74
     0
 49
-1.0
 74
     0
 49
1.0
 74
     0
 49
-1.0
 74
     0
 49
1.0
 74
     0
 49
-1.0
 74
     0
  0
LTYPE
  5
14A
330
5
100
AcDbSymbolTableRecord
100
AcDbLinetypeTableRecord
  2
ACJISTGL
 70
     0
  3
_ _ _ _ _
 72
    65
 73
     2
 40
3.0
 49
2.0
 74
     0
 49
-1.0
 74
     0
  0
LTYPE
  5
14D
330
5
100
AcDbSymbolTableRecord
100
AcDbLinetypeTableRecord
  2
ACANSTGB
 70
     0
  3
__ . . __ . .
 72
    65
 73
     6
 40
0.35433070866
 49
0.15748031496
 74
     0
 49
-0.03937007874
 74
     0
 49
0.03937007874
 74
     0
 49
-0.03937007874
 74
     0
 49
0.03937007874
 74
     0
 49
-0.03937007874
 74
     0
  0
LTYPE
  5
14E
330
5
100
AcDbSymbolTableRecord
100
AcDbLinetypeTableRecord
  2
ACANSTGL
 70
     0
  3
_ _ _ _ _
 72
    65
 73
     2
 40
0.11811023622
 49
0.07874015748
 74
     0
 49
-0.03937007874
 74
     0
  0
LTYPE
  5
151
330
5
100
AcDbSymbolTableRecord
100
AcDbLinetypeTableRecord
  2
ACBSWELD
 70
     0
  3
_ _ _ _ _
 72
    65
 73
     2
 40
2.0
 49
2.0
 74
     0
 49
-1.0
 74
     0
  0
LTYPE
  5
152
330
5
100
AcDbSymbolTableRecord
100
AcDbLinetypeTableRecord
  2
ACBSITGB
 70
     0
  3
__ . . __ . .
 72
    65
 73
     6
 40
9.0
 49
4.0
 74
     0
 49
-1.0
 74
     0
 49
1.0
 74
     0
 49
-1.0
 74
     0
 49
1.0
 74
     0
 49
-1.0
 74
     0
  0
LTYPE
  5
153
330
5
100
AcDbSymbolTableRecord
100
AcDbLinetypeTableRecord
  2
ACBSITGL
 70
     0
  3
_ _ _ _ _
 72
    65
 73
     2
 40
3.0
 49
2.0
 74
     0
 49
-1.0
 74
     0
  0
LTYPE
  5
156
330
5
100
AcDbSymbolTableRecord
100
AcDbLinetypeTableRecord
  2
ACDINWELD
 70
     0
  3
_ _ _ _ _
 72
    65
 73
     2
 40
2.0
 49
2.0
 74
     0
 49
-1.0
 74
     0
  0
LTYPE
  5
157
330
5
100
AcDbSymbolTableRecord
100
AcDbLinetypeTableRecord
  2
ACDINTGB
 70
     0
  3
__ . . __ . .
 72
    65
 73
     6
 40
9.0
 49
4.0
 74
     0
 49
-1.0
 74
     0
 49
1.0
 74
     0
 49
-1.0
 74
     0
 49
1.0
 74
     0
 49
-1.0
 74
     0
  0
LTYPE
  5
158
330
5
100
AcDbSymbolTableRecord
100
AcDbLinetypeTableRecord
  2
ACDINTGL
 70
     0
  3
_ _ _ _ _
 72
    65
 73
     2
 40
3.0
 49
2.0
 74
     0
 49
-1.0
 74
     0
  0
LTYPE
  5
15B
330
5
100
AcDbSymbolTableRecord
100
AcDbLinetypeTableRecord
  2
ACISOWELD
 70
     0
  3
_ _ _ _ _
 72
    65
 73
     2
 40
2.0
 49
2.0
 74
     0
 49
-1.0
 74
     0
  0
LTYPE
  5
15C
330
5
100
AcDbSymbolTableRecord
100
AcDbLinetypeTableRecord
  2
ACISOTGB
 70
     0
  3
__ . . __ . .
 72
    65
 73
     6
 40
9.0
 49
4.0
 74
     0
 49
-1.0
 74
     0
 49
1.0
 74
     0
 49
-1.0
 74
     0
 49
1.0
 74
     0
 49
-1.0
 74
     0
  0
LTYPE
  5
15D
330
5
100
AcDbSymbolTableRecord
100
AcDbLinetypeTableRecord
  2
ACISOTGL
 70
     0
  3
_ _ _ _ _
 72
    65
 73
     2
 40
3.0
 49
2.0
 74
     0
 49
-1.0
 74
     0
  0
LTYPE
  5
175
330
5
100
AcDbSymbolTableRecord
100
AcDbLinetypeTableRecord
  2
AM_ISO02W050
 70
     0
  3
__ __ __ __ __ __ __ __ __ __ __ __ __ __ __
 72
    65
 73
     2
 40
7.5
 49
6.0
 74
     0
 49
-1.5
 74
     0
  0
LTYPE
  5
176
330
5
100
AcDbSymbolTableRecord
100
AcDbLinetypeTableRecord
  2
AM_ISO08W050
 70
     0
  3
____ . ____ . ____ . ____ . ____ . ____ . ____
 72
    65
 73
     4
 40
18.0
 49
12.0
 74
     0
 49
-1.5
 74
     0
 49
3.0
 74
     0
 49
-1.5
 74
     0
  0
LTYPE
  5
177
330
5
100
AcDbSymbolTableRecord
100
AcDbLinetypeTableRecord
  2
AM_ISO09W050
 70
     0
  3
_____ . . _____ . . _____ . . ____ .. ____
 72
    65
 73
     6
 40
22.5
 49
12.0
 74
     0
 49
-1.5
 74
     0
 49
3.0
 74
     0
 49
-1.5
 74
     0
 49
3.0
 74
     0
 49
-1.5
 74
     0
  0
LTYPE
  5
178
330
5
100
AcDbSymbolTableRecord
100
AcDbLinetypeTableRecord
  2
AM_ISO02W050x2
 70
     0
  3
 _ _ _ _ _ _ _ _ _ _ _ _
 72
    65
 73
     2
 40
3.75
 49
3.0
 74
     0
 49
-0.75
 74
     0
  0
LTYPE
  5
179
330
5
100
AcDbSymbolTableRecord
100
AcDbLinetypeTableRecord
  2
AM_ISO08W050x2
 70
     0
  3
__ . __ . __ . __ . __ . __
 72
    65
 73
     4
 40
9.0
 49
6.0
 74
     0
 49
-0.75
 74
     0
 49
1.5
 74
     0
 49
-0.75
 74
     0
  0
LTYPE
  5
17C
330
5
100
AcDbSymbolTableRecord
100
AcDbLinetypeTableRecord
  2
amzigzag
 70
     0
  3
/\/-/\/-/\/-/\/-/\/-/\/
 72
    65
 73
     2
 40
11.0001
 49
0.0001
 74
     4
 75
   135
340
17B
 46
0.04
 50
0.0
 44
0.0
 45
0.0
 49
-11.0
 74
     0
  0
LTYPE
  5
1814
330
5
100
AcDbSymbolTableRecord
100
AcDbLinetypeTableRecord
  2
ACANSTGBM
 70
     0
  3
__ . . __ . .
 72
    65
 73
     6
 40
9.0
 49
4.0
 74
     0
 49
-1.0
 74
     0
 49
1.0
 74
     0
 49
-1.0
 74
     0
 49
1.0
 74
     0
 49
-1.0
 74
     0
  0
LTYPE
  5
1815
330
5
100
AcDbSymbolTableRecord
100
AcDbLinetypeTableRecord
  2
ACANSTGLM
 70
     0
  3
_ _ _ _ _
 72
    65
 73
     2
 40
3.0
 49
2.0
 74
     0
 49
-1.0
 74
     0
  0
LTYPE
  5
1B82
330
5
100
AcDbSymbolTableRecord
100
AcDbLinetypeTableRecord
  2
GEN7
 70
     0
  3
____ . ____ . ____ . ____ . ___
 72
    65
 73
     4
 40
13.75
 49
9.75
 74
     0
 49
-1.5
 74
     0
 49
1.0
 74
     0
 49
-1.5
 74
     0
  0
LTYPE
  5
1B83
330
5
100
AcDbSymbolTableRecord
100
AcDbLinetypeTableRecord
  2
GEN3
 70
     0
  3
-- -- -- -- -- -- -- -- -- -- -
 72
    65
 73
     2
 40
6.25
 49
4.75
 74
     0
 49
-1.5
 74
     0
  0
LTYPE
  5
1B84
330
5
100
AcDbSymbolTableRecord
100
AcDbLinetypeTableRecord
  2
GEN3A
 70
     0
  3
 - - - - -
 72
    65
 73
     2
 40
3.125
 49
2.25
 74
     0
 49
-0.875
 74
     0
  0
LTYPE
  5
1B85
330
5
100
AcDbSymbolTableRecord
100
AcDbLinetypeTableRecord
  2
GEN4A
 70
     0
  3
_____ . . _____ . . _____ . . _
 72
    65
 73
     6
 40
16.25
 49
9.75
 74
     0
 49
-1.5
 74
     0
 49
1.0
 74
     0
 49
-1.5
 74
     0
 49
1.0
 74
     0
 49
-1.5
 74
     0
  0
LTYPE
  5
1B86
330
5
100
AcDbSymbolTableRecord
100
AcDbLinetypeTableRecord
  2
GEN7A
 70
     0
  3
__ . __ . __
 72
    65
 73
     4
 40
6.875
 49
4.75
 74
     0
 49
-0.875
 74
     0
 49
0.375
 74
     0
 49
-0.875
 74
     0
  0
LTYPE
  5
1B87
330
5
100
AcDbSymbolTableRecord
100
AcDbLinetypeTableRecord
  2
genzigzag
 70
     0
  3
/\/-/\/-/\/-/\/-/\/-/\/
 72
    65
 73
     2
 40
12.0001
 49
0.0001
 74
     4
 75
   135
340
17B
 46
2.0
 50
0.0
 44
0.0
 45
0.0
 49
-12.0
 74
     0
  0
ENDTAB
  0
TABLE
  2
LAYER
  5
2
330
0
100
AcDbSymbolTable
 70
    26
  0
LAYER
  5
F
102
{ACAD_XDICTIONARY
360
32EC
102
}
330
2
100
AcDbSymbolTableRecord
100
AcDbLayerTableRecord
  2
0
 70
     0
 62
     7
  6
CONTINUOUS
370
    -3
390
166
347
3281
  0
LAYER
  5
35A
102
{ACAD_XDICTIONARY
360
32EE
102
}
330
2
100
AcDbSymbolTableRecord
100
AcDbLayerTableRecord
  2
AM_0
 70
     0
 62
     7
  6
CONTINUOUS
370
    50
390
166
347
3281
  0
LAYER
  5
35B
102
{ACAD_XDICTIONARY
360
32F0
102
}
330
2
100
AcDbSymbolTableRecord
100
AcDbLayerTableRecord
  2
AM_1
 70
     0
 62
     4
  6
CONTINUOUS
370
    25
390
166
347
3281
  0
LAYER
  5
35C
102
{ACAD_XDICTIONARY
360
32F2
102
}
330
2
100
AcDbSymbolTableRecord
100
AcDbLayerTableRecord
  2
AM_2
 70
     0
 62
     5
  6
CONTINUOUS
370
    50
390
166
347
3281
  0
LAYER
  5
35D
102
{ACAD_XDICTIONARY
360
32F4
102
}
330
2
100
AcDbSymbolTableRecord
100
AcDbLayerTableRecord
  2
AM_3
 70
     0
 62
     6
  6
AM_ISO02W050
370
    25
390
166
347
3281
  0
LAYER
  5
35E
102
{ACAD_XDICTIONARY
360
32F6
102
}
330
2
100
AcDbSymbolTableRecord
100
AcDbLayerTableRecord
  2
AM_4
 70
     0
 62
     3
  6
CONTINUOUS
370
    25
390
166
347
3281
  0
LAYER
  5
35F
102
{ACAD_XDICTIONARY
360
32F8
102
}
330
2
100
AcDbSymbolTableRecord
100
AcDbLayerTableRecord
  2
AM_5
 70
     0
 62
     3
  6
CONTINUOUS
370
    25
390
166
347
3281
  0
LAYER
  5
360
102
{ACAD_XDICTIONARY
360
32FA
102
}
330
2
100
AcDbSymbolTableRecord
100
AcDbLayerTableRecord
  2
AM_6
 70
     0
 62
     2
  6
CONTINUOUS
370
    35
390
166
347
3281
  0
LAYER
  5
361
102
{ACAD_XDICTIONARY
360
32FC
102
}
330
2
100
AcDbSymbolTableRecord
100
AcDbLayerTableRecord
  2
AM_7
 70
     0
 62
     1
  6
AM_ISO08W050
370
    25
390
166
347
3281
  0
LAYER
  5
362
102
{ACAD_XDICTIONARY
360
32FE
102
}
330
2
100
AcDbSymbolTableRecord
100
AcDbLayerTableRecord
  2
AM_8
 70
     0
 62
     1
  6
CONTINUOUS
370
    25
390
166
347
3281
  0
LAYER
  5
38E
102
{ACAD_XDICTIONARY
360
3300
102
}
330
2
100
AcDbSymbolTableRecord
100
AcDbLayerTableRecord
  2
AM_FR
 70
     5
 62
     7
  6
CONTINUOUS
370
    -3
390
166
347
3281
  0
LAYER
  5
3F7
102
{ACAD_XDICTIONARY
360
3302
102
}
330
2
100
AcDbSymbolTableRecord
100
AcDbLayerTableRecord
  2
ASHADE
 70
     4
 62
     7
  6
CONTINUOUS
370
    -3
390
166
347
3281
  0
LAYER
  5
5FC
102
{ACAD_XDICTIONARY
360
3304
102
}
330
2
100
AcDbSymbolTableRecord
100
AcDbLayerTableRecord
  2
AM_WORK
 70
     0
 62
     7
  6
CONTINUOUS
370
    -3
390
166
347
3281
  0
LAYER
  5
614
102
{ACAD_XDICTIONARY
360
3306
102
}
330
2
100
AcDbSymbolTableRecord
100
AcDbLayerTableRecord
  2
AM_CL
 70
     0
 62
     1
  6
CONTINUOUS
370
    25
390
166
347
3281
  0
LAYER
  5
643
330
2
100
AcDbSymbolTableRecord
100
AcDbLayerTableRecord
  2
Defpoints
 70
     0
 62
     7
  6
CONTINUOUS
290
     0
370
    -3
390
166
347
3281
  0
LAYER
  5
79B
102
{ACAD_XDICTIONARY
360
3308
102
}
330
2
100
AcDbSymbolTableRecord
100
AcDbLayerTableRecord
  2
ASRF_TMP
 70
     0
 62
     7
  6
CONTINUOUS
370
    -3
390
166
347
3281
  0
LAYER
  5
1054
102
{ACAD_XDICTIONARY
360
330A
102
}
330
2
100
AcDbSymbolTableRecord
100
AcDbLayerTableRecord
  2
AM_VIEWS
 70
     0
 62
    -1
  6
CONTINUOUS
290
     0
370
    25
390
166
347
3281
  0
LAYER
  5
106E
102
{ACAD_XDICTIONARY
360
330C
102
}
330
2
100
AcDbSymbolTableRecord
100
AcDbLayerTableRecord
  2
AM_VIS
 70
     2
 62
     7
  6
CONTINUOUS
370
    50
390
166
347
3281
  0
LAYER
  5
106F
102
{ACAD_XDICTIONARY
360
330E
102
}
330
2
100
AcDbSymbolTableRecord
100
AcDbLayerTableRecord
  2
AM_HID
 70
     2
 62
     6
  6
AM_ISO02W050
370
    25
390
166
347
3281
  0
LAYER
  5
108B
102
{ACAD_XDICTIONARY
360
3310
102
}
330
2
100
AcDbSymbolTableRecord
100
AcDbLayerTableRecord
  2
AM_PARDIM
 70
     0
 62
     3
  6
CONTINUOUS
370
    25
390
166
347
3281
  0
LAYER
  5
1969
102
{ACAD_XDICTIONARY
360
3312
102
}
330
2
100
AcDbSymbolTableRecord
100
AcDbLayerTableRecord
  2
AmdtBRLock
 70
     6
 62
     7
  6
CONTINUOUS
370
    -3
390
166
347
3281
  0
LAYER
  5
1B88
102
{ACAD_XDICTIONARY
360
3314
102
}
330
2
100
AcDbSymbolTableRecord
100
AcDbLayerTableRecord
  2
5
 70
     0
 62
     3
  6
CONTINUOUS
370
    -3
390
166
347
3281
  0
LAYER
  5
1B89
102
{ACAD_XDICTIONARY
360
3316
102
}
330
2
100
AcDbSymbolTableRecord
100
AcDbLayerTableRecord
  2
1
 70
     0
 62
     4
  6
CONTINUOUS
370
    -3
390
166
347
3281
  0
LAYER
  5
1B8A
102
{ACAD_XDICTIONARY
360
3318
102
}
330
2
100
AcDbSymbolTableRecord
100
AcDbLayerTableRecord
  2
3A
 70
     0
 62
     6
  6
GEN3A
370
    -3
390
166
347
3281
  0
LAYER
  5
1B8B
102
{ACAD_XDICTIONARY
360
331A
102
}
330
2
100
AcDbSymbolTableRecord
100
AcDbLayerTableRecord
  2
7
 70
     0
 62
     1
  6
GEN7
370
    -3
390
166
347
3281
  0
LAYER
  5
1B8C
102
{ACAD_XDICTIONARY
360
331C
102
}
330
2
100
AcDbSymbolTableRecord
100
AcDbLayerTableRecord
  2
7A
 70
     0
 62
     1
  6
GEN7A
370
    -3
390
166
347
3281
  0
ENDTAB
  0
TABLE
  2
STYLE
  5
3
330
0
100
AcDbSymbolTable
 70
    13
  0
STYLE
  5
10
330
3
100
AcDbSymbolTableRecord
100
AcDbTextStyleTableRecord
  2
STANDARD
 70
     0
 40
0.0
 41
1.0
 50
0.0
 71
     0
 42
3.5
  3
ISOCP
  4

  0
STYLE
  5
147
330
3
100
AcDbSymbolTableRecord
100
AcDbTextStyleTableRecord
  2
ACJISTS
 70
     0
 40
1.0
 41
1.0
 50
0.0
 71
     0
 42
3.5
  3
isocp.shx
  4
bigfont.shx
  0
STYLE
  5
148
330
3
100
AcDbSymbolTableRecord
100
AcDbTextStyleTableRecord
  2
ACJISGDT
 70
     0
 40
0.0
 41
1.0
 50
0.0
 71
     0
 42
3.5
  3
amgdt.shx
  4

  0
STYLE
  5
14B
330
3
100
AcDbSymbolTableRecord
100
AcDbTextStyleTableRecord
  2
ACANSTSI
 70
     0
 40
1.0
 41
1.0
 50
0.0
 71
     0
 42
3.5
  3
romans.shx
  4

  0
STYLE
  5
14C
330
3
100
AcDbSymbolTableRecord
100
AcDbTextStyleTableRecord
  2
ACANSGDT
 70
     0
 40
0.0
 41
1.0
 50
0.0
 71
     0
 42
3.5
  3
amgdt.shx
  4

  0
STYLE
  5
14F
330
3
100
AcDbSymbolTableRecord
100
AcDbTextStyleTableRecord
  2
ACBSITS
 70
     0
 40
1.0
 41
1.0
 50
0.0
 71
     0
 42
3.5
  3
isocp.shx
  4

  0
STYLE
  5
150
330
3
100
AcDbSymbolTableRecord
100
AcDbTextStyleTableRecord
  2
ACBSIGDT
 70
     0
 40
0.0
 41
1.0
 50
0.0
 71
     0
 42
3.5
  3
amgdt.shx
  4

  0
STYLE
  5
154
330
3
100
AcDbSymbolTableRecord
100
AcDbTextStyleTableRecord
  2
ACDINTS
 70
     0
 40
1.0
 41
1.0
 50
0.0
 71
     0
 42
3.5
  3
isocp.shx
  4

  0
STYLE
  5
155
330
3
100
AcDbSymbolTableRecord
100
AcDbTextStyleTableRecord
  2
ACDINGDT
 70
     0
 40
0.0
 41
1.0
 50
0.0
 71
     0
 42
3.5
  3
amgdt.shx
  4

  0
STYLE
  5
159
330
3
100
AcDbSymbolTableRecord
100
AcDbTextStyleTableRecord
  2
ACISOTS
 70
     0
 40
1.0
 41
1.0
 50
0.0
 71
     0
 42
3.5
  3
isocp.shx
  4

  0
STYLE
  5
15A
330
3
100
AcDbSymbolTableRecord
100
AcDbTextStyleTableRecord
  2
ACISOGDT
 70
     0
 40
0.0
 41
1.0
 50
0.0
 71
     0
 42
3.5
  3
amgdt.shx
  4

  0
STYLE
  5
17B
330
3
100
AcDbSymbolTableRecord
100
AcDbTextStyleTableRecord
  2

 70
     1
 40
0.0
 41
1.0
 50
0.0
 71
     0
 42
3.5
  3
ltypeshp.shx
  4

  0
STYLE
  5
3F4
330
3
100
AcDbSymbolTableRecord
100
AcDbTextStyleTableRecord
  2
ASHADE
 70
     0
 40
0.2
 41
1.0
 50
0.0
 71
     0
 42
3.5
  3
simplex.shx
  4

  0
ENDTAB
  0
TABLE
  2
VIEW
  5
6
330
0
100
AcDbSymbolTable
 70
     3
  0
VIEW
  5
1C8
330
6
100
AcDbSymbolTableRecord
100
AcDbViewTableRecord
  2
AMDTVIEW1
 70
     0
 40
329.0721649484536
 10
210.0
 20
164.5360824742268
 41
420.0
 11
0.0
 21
0.0
 31
1.0
 12
0.0
 22
0.0
 32
0.0
 42
50.0
 43
0.0
 44
0.0
 50
0.0
 71
     0
281
     0
 72
     0
 73
     0
348
328F
  0
VIEW
  5
1C9
330
6
100
AcDbSymbolTableRecord
100
AcDbViewTableRecord
  2
AMDTVIEW2
 70
     0
 40
329.0721649484536
 10
210.0
 20
164.5360824742268
 41
420.0
 11
0.0
 21
0.0
 31
1.0
 12
0.0
 22
0.0
 32
0.0
 42
50.0
 43
0.0
 44
0.0
 50
0.0
 71
     0
281
     0
 72
     0
 73
     0
348
328F
  0
VIEW
  5
1CA
330
6
100
AcDbSymbolTableRecord
100
AcDbViewTableRecord
  2
AMDTVIEW3
 70
     0
 40
329.0721649484536
 10
210.0
 20
164.5360824742268
 41
420.0
 11
0.0
 21
0.0
 31
1.0
 12
0.0
 22
0.0
 32
0.0
 42
50.0
 43
0.0
 44
0.0
 50
0.0
 71
     0
281
     0
 72
     0
 73
     0
348
328F
  0
ENDTAB
  0
TABLE
  2
UCS
  5
7
330
0
100
AcDbSymbolTable
 70
     0
  0
ENDTAB
  0
TABLE
  2
APPID
  5
9
330
0
100
AcDbSymbolTable
 70
    36
  0
APPID
  5
11
330
9
100
AcDbSymbolTableRecord
100
AcDbRegAppTableRecord
  2
ACAD
 70
     0
  0
APPID
  5
CD
330
9
100
AcDbSymbolTableRecord
100
AcDbRegAppTableRecord
  2
AD_DRAW
 70
     0
  0
APPID
  5
E7
330
9
100
AcDbSymbolTableRecord
100
AcDbRegAppTableRecord
  2
DESIGNERASSEMBLIES
 70
     0
  0
APPID
  5
EB
330
9
100
AcDbSymbolTableRecord
100
AcDbRegAppTableRecord
  2
MCAD_NO_VIS
 70
     0
  0
APPID
  5
122
330
9
100
AcDbSymbolTableRecord
100
AcDbRegAppTableRecord
  2
ASURF_PCURVE_APPNAME
 70
     0
  0
APPID
  5
17F
330
9
100
AcDbSymbolTableRecord
100
AcDbRegAppTableRecord
  2
ACAD_TEMP_GRAPHIC
 70
     0
  0
APPID
  5
189
330
9
100
AcDbSymbolTableRecord
100
AcDbRegAppTableRecord
  2
ACATTRIBSERVICES
 70
     0
  0
APPID
  5
1C4
330
9
100
AcDbSymbolTableRecord
100
AcDbRegAppTableRecord
  2
ACADM_DIM_EDIT
 70
     0
  0
APPID
  5
1D5
330
9
100
AcDbSymbolTableRecord
100
AcDbRegAppTableRecord
  2
GENIUS_GENDIM_13
 70
     0
  0
APPID
  5
1D6
330
9
100
AcDbSymbolTableRecord
100
AcDbRegAppTableRecord
  2
GENIUS_GENDTOL_13
 70
     0
  0
APPID
  5
1D7
330
9
100
AcDbSymbolTableRecord
100
AcDbRegAppTableRecord
  2
GENIUS_GE3DTOL_13
 70
     0
  0
APPID
  5
3F5
330
9
100
AcDbSymbolTableRecord
100
AcDbRegAppTableRecord
  2
AVE_RENDER
 70
     0
  0
APPID
  5
3F6
330
9
100
AcDbSymbolTableRecord
100
AcDbRegAppTableRecord
  2
AVE_ENTITY_MATERIAL
 70
     0
  0
APPID
  5
403
330
9
100
AcDbSymbolTableRecord
100
AcDbRegAppTableRecord
  2
AVE_FINISH
 70
     0
  0
APPID
  5
404
330
9
100
AcDbSymbolTableRecord
100
AcDbRegAppTableRecord
  2
AVE_MATERIAL
 70
     0
  0
APPID
  5
405
330
9
100
AcDbSymbolTableRecord
100
AcDbRegAppTableRecord
  2
AVE_GLOBAL
 70
     0
  0
APPID
  5
587
330
9
100
AcDbSymbolTableRecord
100
AcDbRegAppTableRecord
  2
GENIUS_GENREC_14
 70
     0
  0
APPID
  5
588
330
9
100
AcDbSymbolTableRecord
100
AcDbRegAppTableRecord
  2
GENIUS_GENODEF_13
 70
     0
  0
APPID
  5
589
330
9
100
AcDbSymbolTableRecord
100
AcDbRegAppTableRecord
  2
GENIUS_GENOBJ-N-REC_13
 70
     0
  0
APPID
  5
5F8
330
9
100
AcDbSymbolTableRecord
100
AcDbRegAppTableRecord
  2
GENIUS_GENOBJ-3-SH3D_13
 70
     0
  0
APPID
  5
651
330
9
100
AcDbSymbolTableRecord
100
AcDbRegAppTableRecord
  2
AD_SKETCHDIM
 70
     0
  0
APPID
  5
76F
330
9
100
AcDbSymbolTableRecord
100
AcDbRegAppTableRecord
  2
AM_EDITFEAT
 70
     0
  0
APPID
  5
799
330
9
100
AcDbSymbolTableRecord
100
AcDbRegAppTableRecord
  2
GENIUS_GE3SH_14_1
 70
     0
  0
APPID
  5
79A
330
9
100
AcDbSymbolTableRecord
100
AcDbRegAppTableRecord
  2
GENIUS_GE3MANIP_13
 70
     0
  0
APPID
  5
1066
330
9
100
AcDbSymbolTableRecord
100
AcDbRegAppTableRecord
  2
GENIUS_GENSCREG_15
 70
     0
  0
APPID
  5
1068
330
9
100
AcDbSymbolTableRecord
100
AcDbRegAppTableRecord
  2
GENIUS_GENOBJ-N-SDF_13
 70
     0
  0
APPID
  5
1069
330
9
100
AcDbSymbolTableRecord
100
AcDbRegAppTableRecord
  2
GENIUS_GENOENT_13
 70
     0
  0
APPID
  5
106A
330
9
100
AcDbSymbolTableRecord
100
AcDbRegAppTableRecord
  2
GENIUS_GENOREF_13
 70
     0
  0
APPID
  5
106B
330
9
100
AcDbSymbolTableRecord
100
AcDbRegAppTableRecord
  2
GENIUS_GENOLIS_13
 70
     0
  0
APPID
  5
1348
330
9
100
AcDbSymbolTableRecord
100
AcDbRegAppTableRecord
  2
GENIUS_GENDIMSH_14
 70
     0
  0
APPID
  5
17FE
330
9
100
AcDbSymbolTableRecord
100
AcDbRegAppTableRecord
  2
AMG_3D2D_5.0
 70
     0
  0
APPID
  5
1855
330
9
100
AcDbSymbolTableRecord
100
AcDbRegAppTableRecord
  2
AMDT_DM_ADJ
 70
     0
  0
APPID
  5
1B94
330
9
100
AcDbSymbolTableRecord
100
AcDbRegAppTableRecord
  2
GENIUS_GENDREL_13
 70
     0
  0
APPID
  5
1B95
330
9
100
AcDbSymbolTableRecord
100
AcDbRegAppTableRecord
  2
GENIUS_GENOBJ-N-CRS_13
 70
     0
  0
APPID
  5
3008
330
9
100
AcDbSymbolTableRecord
100
AcDbRegAppTableRecord
  2
GENIUS_AMGTXT_16
 70
     0
  0
APPID
  5
32C0
330
9
100
AcDbSymbolTableRecord
100
AcDbRegAppTableRecord
  2
ACAD_MLEADERVER
 70
     0
  0
ENDTAB
  0
TABLE
  2
DIMSTYLE
  5
A
330
0
100
AcDbSymbolTable
 70
    44
100
AcDbDimStyleTable
 71
     6
340
395
340
25
340
62
340
2A
340
29
340
28
  0
DIMSTYLE
105
1D
330
A
100
AcDbSymbolTableRecord
100
AcDbDimStyleTableRecord
  2
STANDARD
 70
     0
 41
2.5
 42
0.625
 43
3.75
 44
1.25
 73
     0
 74
     0
 77
     1
 78
     8
140
2.5
141
2.5
143
0.0394
147
0.625
171
     4
172
     1
273
     8
274
     4
277
     6
340
10
  0
DIMSTYLE
105
25
330
A
100
AcDbSymbolTableRecord
100
AcDbDimStyleTableRecord
  2
ISO-35
 70
     0
 41
3.5
 42
0.875
 43
5.25
 44
1.75
 73
     0
 74
     0
 77
     1
 78
     8
140
3.5
141
3.5
143
0.0394
147
0.875
171
     4
172
     1
273
     8
274
     4
277
     6
340
10
  0
DIMSTYLE
105
26
330
A
100
AcDbSymbolTableRecord
100
AcDbDimStyleTableRecord
  2
ISO-5
 70
     0
 41
5.0
 42
1.25
 43
7.5
 44
2.5
 73
     0
 74
     0
 77
     1
 78
     8
140
5.0
141
5.0
143
0.0394
147
1.25
171
     4
172
     1
273
     8
274
     4
277
     6
340
10
  0
DIMSTYLE
105
27
330
A
100
AcDbSymbolTableRecord
100
AcDbDimStyleTableRecord
  2
ISO-7
 70
     0
 41
7.0
 42
1.75
 43
10.5
 44
3.5
 73
     0
 74
     0
 77
     1
 78
     8
140
7.0
141
7.0
143
0.0394
147
1.75
171
     4
172
     1
273
     8
274
     4
277
     6
340
10
  0
DIMSTYLE
105
28
330
A
100
AcDbSymbolTableRecord
100
AcDbDimStyleTableRecord
  2
ISO1
 70
     0
 41
10.0
 42
2.5
 43
15.0
 44
5.0
 73
     0
 74
     0
 77
     1
 78
     8
140
10.0
141
10.0
143
0.0394
147
2.5
171
     4
172
     1
273
     8
274
     4
277
     6
340
10
  0
DIMSTYLE
105
29
330
A
100
AcDbSymbolTableRecord
100
AcDbDimStyleTableRecord
  2
ISO1-4
 70
     0
 41
14.0
 42
3.5
 43
21.0
 44
7.0
 74
     0
 77
     1
 78
     8
140
14.0
141
14.0
143
0.0394
145
5.599999999999999
147
3.5
172
     1
273
     8
277
     6
340
10
  0
DIMSTYLE
105
2A
330
A
100
AcDbSymbolTableRecord
100
AcDbDimStyleTableRecord
  2
ISO2
 70
     0
 41
20.0
 42
5.0
 43
30.0
 44
10.0
 73
     0
 74
     0
 77
     1
 78
     8
140
20.0
141
20.0
143
0.0394
147
5.0
171
     4
172
     1
273
     8
274
     4
277
     6
340
10
  0
DIMSTYLE
105
60
330
A
100
AcDbSymbolTableRecord
100
AcDbDimStyleTableRecord
  2
ISO-4
 70
     0
 41
14.0
 42
3.5
 43
21.0
 44
7.0
 73
     0
 74
     0
 77
     1
 78
     8
140
14.0
141
14.0
143
0.0394
147
3.5
171
     4
172
     1
273
     8
274
     4
277
     6
340
10
  0
DIMSTYLE
105
62
330
A
100
AcDbSymbolTableRecord
100
AcDbDimStyleTableRecord
  2
ISO-25
 70
     0
 41
2.5
 42
0.625
 43
3.75
 44
1.25
 73
     0
 74
     0
 77
     1
 78
     8
140
2.5
141
2.5
143
0.0394
147
0.625
171
     4
172
     1
273
     8
274
     4
277
     6
340
10
  0
DIMSTYLE
105
395
102
{ACAD_REACTORS
330
2635
330
26C9
330
26E5
330
2701
330
271D
330
2745
330
2784
330
2870
330
28AF
330
2943
330
297A
330
2A0E
330
2A2A
330
2A52
330
2AE6
330
2B02
330
2B2A
330
2BBE
330
2BE2
330
2C2F
330
2C78
330
2CC5
330
2D0E
330
2D57
330
2DA0
330
2E7A
330
2EC3
330
2F08
330
302C
330
309B
102
}
330
A
100
AcDbSymbolTableRecord
100
AcDbDimStyleTableRecord
  2
AM_ISO
 70
     0
  4
"
 41
3.0
 42
0.0
 43
10.0
 44
1.0
 47
0.1
 48
0.1
 73
     0
 74
     0
 77
     1
 78
     8
 79
     2
140
3.5
141
0.0
143
0.0393701
146
0.71
147
1.5
172
     1
176
   256
177
   256
178
     2
271
     2
272
     2
283
     0
340
10
371
    -1
372
    -1
  0
DIMSTYLE
105
396
330
A
100
AcDbSymbolTableRecord
100
AcDbDimStyleTableRecord
  2
AM_ISO$3
 70
     0
  4
"
 41
2.5
 42
1.0
 43
10.0
 44
1.0
 47
0.1
 48
0.1
 73
     0
 77
     1
 78
     8
 79
     2
140
3.5
141
0.0
143
0.0393701
146
0.71
147
1.5
176
   256
177
   256
178
     2
271
     2
272
     2
283
     0
288
     1
289
     0
340
10
371
    -1
372
    -1
  0
DIMSTYLE
105
397
330
A
100
AcDbSymbolTableRecord
100
AcDbDimStyleTableRecord
  2
AM_ISO$4
 70
     0
  4
"
 41
2.5
 42
1.0
 43
10.0
 44
1.0
 47
0.1
 48
0.1
 73
     0
 77
     1
 78
     8
 79
     2
140
3.5
141
0.0
143
0.0393701
146
0.71
147
1.5
176
   256
177
   256
178
     2
271
     2
272
     2
283
     0
288
     1
289
     0
340
10
371
    -1
372
    -1
  0
DIMSTYLE
105
398
330
A
100
AcDbSymbolTableRecord
100
AcDbDimStyleTableRecord
  2
AM_ISO$6
 70
     0
  4
"
 41
2.5
 42
1.0
 43
10.0
 44
1.0
 47
0.1
 48
0.1
 73
     0
 74
     0
 78
     8
 79
     2
140
3.5
141
0.0
143
0.0393701
146
0.71
147
1.5
172
     1
176
   256
177
   256
178
     2
271
     2
272
     3
274
     4
283
     0
340
10
371
    -1
372
    -1
  0
DIMSTYLE
105
399
330
A
100
AcDbSymbolTableRecord
100
AcDbDimStyleTableRecord
  2
AM_ISO$7
 70
     0
  4
"
 41
2.5
 42
1.0
 43
10.0
 44
1.0
 47
0.1
 48
0.1
 73
     0
 74
     0
 77
     1
 78
     8
 79
     2
140
5.0
141
0.0
143
0.0393701
146
0.71
147
1.5
172
     1
176
   256
177
   256
178
     2
271
     2
272
     3
274
     4
283
     0
340
10
371
    -1
372
    -1
  0
DIMSTYLE
105
39A
330
A
100
AcDbSymbolTableRecord
100
AcDbDimStyleTableRecord
  2
AM_ISO$SF
 70
     0
  4
"
 41
2.5
 42
1.0
 43
10.0
 44
1.0
 47
0.1
 48
0.1
 73
     0
 74
     0
 75
     1
 76
     1
 77
     1
 78
     8
 79
     2
140
3.5
141
0.0
143
0.0393701
146
0.71
147
1.5
172
     1
176
   256
177
   256
178
     2
271
     2
272
     3
274
     4
283
     0
340
10
371
    -1
372
    -1
  0
DIMSTYLE
105
39F
330
A
100
AcDbSymbolTableRecord
100
AcDbDimStyleTableRecord
  2
AM_ISO$SH
 70
     0
  4
"
 41
2.5
 42
1.0
 43
10.0
 44
1.0
 47
0.1
 48
0.1
 73
     0
 74
     0
 75
     1
 76
     1
 77
     1
 78
     8
 79
     2
140
3.5
141
0.0
143
0.0393701
144
2.0
146
0.71
147
1.5
172
     1
173
     1
176
   256
177
   256
178
     2
271
     2
272
     3
274
     4
283
     0
340
10
343
39B
371
    -1
372
    -1
  0
DIMSTYLE
105
1832
330
A
100
AcDbSymbolTableRecord
100
AcDbDimStyleTableRecord
  2
AM_BSI
 70
     0
  4
"
 41
4.0
 42
1.0
 43
10.0
 44
1.0
 47
0.1
 48
0.1
 73
     0
 74
     0
 77
     1
 78
     8
 79
     2
140
3.5
141
0.0
143
0.0393701
146
0.71
147
1.5
172
     1
176
   256
177
   256
178
     2
271
     2
272
     3
274
     4
283
     0
284
     8
340
10
371
    -1
372
    -1
  0
DIMSTYLE
105
1833
330
A
100
AcDbSymbolTableRecord
100
AcDbDimStyleTableRecord
  2
AM_BSI$3
 70
     0
  4
"
 41
4.0
 42
1.0
 43
10.0
 44
1.0
 47
0.1
 48
0.1
 73
     0
 77
     1
 78
     8
 79
     2
140
3.5
141
0.0
143
0.0393701
146
0.71
147
1.5
176
   256
177
   256
178
     2
271
     2
272
     3
274
     4
283
     0
284
     8
288
     1
289
     0
340
10
371
    -1
372
    -1
  0
DIMSTYLE
105
1834
330
A
100
AcDbSymbolTableRecord
100
AcDbDimStyleTableRecord
  2
AM_BSI$4
 70
     0
  4
"
 41
4.0
 42
1.0
 43
10.0
 44
1.0
 47
0.1
 48
0.1
 73
     0
 77
     1
 78
     8
 79
     2
140
3.5
141
0.0
143
0.0393701
146
0.71
147
1.5
176
   256
177
   256
178
     2
271
     2
272
     3
274
     4
283
     0
284
     8
288
     1
289
     0
340
10
371
    -1
372
    -1
  0
DIMSTYLE
105
1835
330
A
100
AcDbSymbolTableRecord
100
AcDbDimStyleTableRecord
  2
AM_BSI$6
 70
     0
  4
"
 41
4.0
 42
1.0
 43
10.0
 44
1.0
 47
0.1
 48
0.1
 73
     0
 74
     0
 78
     8
 79
     2
140
3.5
141
0.0
143
0.0393701
146
0.71
147
1.5
172
     1
176
   256
177
   256
178
     2
271
     2
272
     3
274
     4
283
     0
284
     8
340
10
371
    -1
372
    -1
  0
DIMSTYLE
105
1836
330
A
100
AcDbSymbolTableRecord
100
AcDbDimStyleTableRecord
  2
AM_BSI$7
 70
     0
  4
"
 41
2.5
 42
1.0
 43
10.0
 44
1.0
 47
0.1
 48
0.1
 73
     0
 74
     0
 77
     1
 78
     8
 79
     2
140
5.0
141
0.0
143
0.0393701
146
0.71
147
1.5
172
     1
176
   256
177
   256
178
     2
271
     2
272
     3
274
     4
283
     0
284
     8
340
10
371
    -1
372
    -1
  0
DIMSTYLE
105
1837
330
A
100
AcDbSymbolTableRecord
100
AcDbDimStyleTableRecord
  2
AM_BSI$SF
 70
     0
  4
"
 41
4.0
 42
1.0
 43
10.0
 44
1.0
 47
0.1
 48
0.1
 73
     0
 74
     0
 75
     1
 76
     1
 77
     1
 78
     8
 79
     2
140
3.5
141
0.0
143
0.0393701
146
0.71
147
1.5
172
     1
176
   256
177
   256
178
     2
271
     2
272
     3
274
     4
283
     0
284
     8
340
10
371
    -1
372
    -1
  0
DIMSTYLE
105
1838
330
A
100
AcDbSymbolTableRecord
100
AcDbDimStyleTableRecord
  2
AM_BSI$SH
 70
     0
  4
"
 41
4.0
 42
1.0
 43
10.0
 44
1.0
 47
0.1
 48
0.1
 73
     0
 74
     0
 75
     1
 76
     1
 77
     1
 78
     8
 79
     2
140
3.5
141
0.0
143
0.0393701
144
2.0
146
0.71
147
1.5
172
     1
173
     1
176
   256
177
   256
178
     2
271
     2
272
     3
274
     4
283
     0
284
     8
340
10
343
39B
371
    -1
372
    -1
  0
DIMSTYLE
105
183A
330
A
100
AcDbSymbolTableRecord
100
AcDbDimStyleTableRecord
  2
AM_DIN
 70
     0
  4
"
 41
2.5
 42
1.0
 43
10.0
 44
1.0
 47
0.1
 48
0.1
 73
     0
 74
     0
 77
     1
 78
     8
 79
     2
140
3.5
141
0.0
143
0.0393701
146
0.71
147
1.5
172
     1
176
   256
177
   256
178
     2
271
     2
272
     3
274
     4
283
     0
284
     8
340
10
371
    -1
372
    -1
  0
DIMSTYLE
105
183B
330
A
100
AcDbSymbolTableRecord
100
AcDbDimStyleTableRecord
  2
AM_DIN$3
 70
     0
  4
"
 41
2.5
 42
1.0
 43
10.0
 44
1.0
 47
0.1
 48
0.1
 73
     0
 77
     1
 78
     8
 79
     2
140
3.5
141
0.0
143
0.0393701
146
0.71
147
1.5
176
   256
177
   256
178
     2
271
     2
272
     3
274
     4
283
     0
284
     8
288
     1
289
     0
340
10
371
    -1
372
    -1
  0
DIMSTYLE
105
183C
330
A
100
AcDbSymbolTableRecord
100
AcDbDimStyleTableRecord
  2
AM_DIN$4
 70
     0
  4
"
 41
2.5
 42
1.0
 43
10.0
 44
1.0
 47
0.1
 48
0.1
 73
     0
 77
     1
 78
     8
 79
     2
140
3.5
141
0.0
143
0.0393701
146
0.71
147
1.5
176
   256
177
   256
178
     2
271
     2
272
     3
274
     4
283
     0
284
     8
288
     1
289
     0
340
10
371
    -1
372
    -1
  0
DIMSTYLE
105
183D
330
A
100
AcDbSymbolTableRecord
100
AcDbDimStyleTableRecord
  2
AM_DIN$6
 70
     0
  4
"
 41
2.5
 42
1.0
 43
10.0
 44
1.0
 47
0.1
 48
0.1
 73
     0
 74
     0
 78
     8
 79
     2
140
3.5
141
0.0
143
0.0393701
146
0.71
147
1.5
172
     1
176
   256
177
   256
178
     2
271
     2
272
     3
274
     4
283
     0
284
     8
340
10
371
    -1
372
    -1
  0
DIMSTYLE
105
183E
330
A
100
AcDbSymbolTableRecord
100
AcDbDimStyleTableRecord
  2
AM_DIN$7
 70
     0
  4
"
 41
2.5
 42
1.0
 43
10.0
 44
1.0
 47
0.1
 48
0.1
 73
     0
 74
     0
 77
     1
 78
     8
 79
     2
140
5.0
141
0.0
143
0.0393701
146
0.71
147
1.5
172
     1
176
   256
177
   256
178
     2
271
     2
272
     3
274
     4
283
     0
284
     8
340
10
371
    -1
372
    -1
  0
DIMSTYLE
105
183F
330
A
100
AcDbSymbolTableRecord
100
AcDbDimStyleTableRecord
  2
AM_DIN$SF
 70
     0
  4
"
 41
2.5
 42
1.0
 43
10.0
 44
1.0
 47
0.1
 48
0.1
 73
     0
 74
     0
 75
     1
 76
     1
 77
     1
 78
     8
 79
     2
140
3.5
141
0.0
143
0.0393701
146
0.71
147
1.5
172
     1
176
   256
177
   256
178
     2
271
     2
272
     3
274
     4
283
     0
284
     8
340
10
371
    -1
372
    -1
  0
DIMSTYLE
105
1840
330
A
100
AcDbSymbolTableRecord
100
AcDbDimStyleTableRecord
  2
AM_DIN$SH
 70
     0
  4
"
 41
2.5
 42
1.0
 43
10.0
 44
1.0
 47
0.1
 48
0.1
 73
     0
 74
     0
 75
     1
 76
     1
 77
     1
 78
     8
 79
     2
140
3.5
141
0.0
143
0.0393701
144
2.0
146
0.71
147
1.5
172
     1
173
     1
176
   256
177
   256
178
     2
271
     2
272
     3
274
     4
283
     0
284
     8
340
10
343
39B
371
    -1
372
    -1
  0
DIMSTYLE
105
1843
330
A
100
AcDbSymbolTableRecord
100
AcDbDimStyleTableRecord
  2
AM_JIS
 70
     0
  4
"
 41
2.5
 42
1.0
 43
10.0
 44
1.0
 47
0.1
 48
0.1
 73
     0
 74
     0
 77
     3
 78
     8
 79
     2
140
3.5
141
0.0
143
0.0393701
146
0.71
147
1.5
172
     1
176
   256
177
   256
178
     2
271
     2
272
     3
274
     4
283
     0
284
     8
340
10
341
1844
342
1844
343
1844
344
1844
371
    -1
372
    -1
  0
DIMSTYLE
105
184A
330
A
100
AcDbSymbolTableRecord
100
AcDbDimStyleTableRecord
  2
AM_JIS$3
 70
     0
  4
"
 41
2.5
 42
1.0
 43
10.0
 44
1.0
 47
0.1
 48
0.1
 73
     0
 77
     3
 78
     8
 79
     2
140
3.5
141
0.0
143
0.0393701
146
0.71
147
1.5
176
   256
177
   256
178
     2
271
     2
272
     3
274
     4
283
     0
284
     8
288
     1
289
     0
340
10
341
1844
342
1844
343
1844
344
1844
371
    -1
372
    -1
  0
DIMSTYLE
105
184B
330
A
100
AcDbSymbolTableRecord
100
AcDbDimStyleTableRecord
  2
AM_JIS$4
 70
     0
  4
"
 41
2.5
 42
1.0
 43
10.0
 44
1.0
 47
0.1
 48
0.1
 73
     0
 77
     3
 78
     8
 79
     2
140
3.5
141
0.0
143
0.0393701
146
0.71
147
1.5
176
   256
177
   256
178
     2
271
     2
272
     3
274
     4
283
     0
284
     8
288
     1
289
     0
340
10
341
1844
342
1844
343
1844
344
1844
371
    -1
372
    -1
  0
DIMSTYLE
105
184C
330
A
100
AcDbSymbolTableRecord
100
AcDbDimStyleTableRecord
  2
AM_JIS$6
 70
     0
  4
"
 41
2.5
 42
1.0
 43
10.0
 44
1.0
 47
0.1
 48
0.1
 73
     0
 74
     0
 78
     8
 79
     2
140
3.5
141
0.0
143
0.0393701
146
0.71
147
1.5
172
     1
176
   256
177
   256
178
     2
271
     2
272
     3
274
     4
283
     0
284
     8
340
10
341
1844
342
1844
343
1844
344
1844
371
    -1
372
    -1
  0
DIMSTYLE
105
184D
330
A
100
AcDbSymbolTableRecord
100
AcDbDimStyleTableRecord
  2
AM_JIS$7
 70
     0
  4
"
 41
2.5
 42
1.0
 43
10.0
 44
1.0
 47
0.1
 48
0.1
 73
     0
 74
     0
 77
     3
 78
     8
 79
     2
140
5.0
141
0.0
143
0.0393701
146
0.71
147
1.5
172
     1
176
   256
177
   256
178
     2
271
     2
272
     3
274
     4
283
     0
284
     8
340
10
341
1844
342
1844
343
1844
344
1844
371
    -1
372
    -1
  0
DIMSTYLE
105
184E
330
A
100
AcDbSymbolTableRecord
100
AcDbDimStyleTableRecord
  2
AM_JIS$SF
 70
     0
  4
"
 41
2.5
 42
1.0
 43
10.0
 44
1.0
 47
0.1
 48
0.1
 73
     0
 74
     0
 75
     1
 76
     1
 77
     3
 78
     8
 79
     2
140
3.5
141
0.0
143
0.0393701
146
0.71
147
1.5
172
     1
176
   256
177
   256
178
     2
271
     2
272
     3
274
     4
283
     0
284
     8
340
10
341
1844
342
1844
343
1844
344
1844
371
    -1
372
    -1
  0
DIMSTYLE
105
184F
330
A
100
AcDbSymbolTableRecord
100
AcDbDimStyleTableRecord
  2
AM_JIS$SH
 70
     0
  4
"
 41
2.5
 42
1.0
 43
10.0
 44
1.0
 47
0.1
 48
0.1
 73
     0
 74
     0
 75
     1
 76
     1
 77
     3
 78
     8
 79
     2
140
3.5
141
0.0
143
0.0393701
144
2.0
146
0.71
147
1.5
172
     1
173
     1
176
   256
177
   256
178
     2
271
     2
272
     3
274
     4
283
     0
284
     8
340
10
341
1844
342
1844
343
39B
344
1844
371
    -1
372
    -1
  0
DIMSTYLE
105
1B8D
330
A
100
AcDbSymbolTableRecord
100
AcDbDimStyleTableRecord
  2
GEN-ISO$4
 70
     0
  3
<>
  4
"
 41
3.0
 42
0.0
 43
10.0
 44
1.0
 47
0.1
 48
0.1
 73
     0
 77
     1
 78
     8
140
3.5
141
0.0
143
0.0393701
146
0.71
147
1.0
176
   256
177
   256
178
     2
271
     1
272
     3
274
     4
275
     1
283
     0
284
     8
288
     1
289
     0
340
10
  0
DIMSTYLE
105
1B8E
330
A
100
AcDbSymbolTableRecord
100
AcDbDimStyleTableRecord
  2
GEN-ISO$3
 70
     0
  3
<>
  4
"
 41
3.0
 42
0.0
 43
10.0
 44
1.0
 47
0.1
 48
0.1
 73
     0
 77
     1
 78
     8
140
3.5
141
0.0
143
0.0393701
146
0.71
147
1.0
176
   256
177
   256
178
     2
271
     1
272
     3
274
     4
275
     1
283
     0
284
     8
288
     1
289
     0
340
10
  0
DIMSTYLE
105
1B8F
330
A
100
AcDbSymbolTableRecord
100
AcDbDimStyleTableRecord
  2
GEN-ISO
 70
     0
  3
<>
  4
"
 41
3.0
 42
0.0
 43
10.0
 44
1.0
 47
0.1
 48
0.1
 73
     0
 74
     0
 77
     1
 78
     8
140
3.5
141
0.0
143
0.0393701
146
0.71
147
1.0
172
     1
176
   256
177
   256
178
     2
271
     1
272
     3
274
     4
275
     1
283
     0
284
     8
340
10
  0
DIMSTYLE
105
1B90
330
A
100
AcDbSymbolTableRecord
100
AcDbDimStyleTableRecord
  2
GEN-ISO$6
 70
     0
  3
<>
  4
"
 41
3.0
 42
0.0
 43
10.0
 44
1.0
 47
0.1
 48
0.1
 73
     0
 74
     0
 78
     8
140
3.5
141
0.0
143
0.0393701
146
0.71
147
1.0
176
   256
177
   256
178
     2
271
     1
272
     3
274
     4
275
     1
283
     0
284
     8
340
10
  0
DIMSTYLE
105
1B91
330
A
100
AcDbSymbolTableRecord
100
AcDbDimStyleTableRecord
  2
GEN-ISO-POS
 70
     0
  3
<>
  4
"
 41
2.5
 42
0.0
 43
10.0
 44
1.0
 47
0.1
 48
0.1
 73
     0
 74
     0
 78
     8
140
5.0
141
0.0
143
0.0393701
146
0.71
147
1.5
176
   256
177
   256
178
     2
271
     1
272
     3
274
     4
275
     1
283
     0
284
     8
340
10
  0
DIMSTYLE
105
1B92
330
A
100
AcDbSymbolTableRecord
100
AcDbDimStyleTableRecord
  2
GEN-ISO-AXE-F
 70
     0
  3
<>
  4
"
 41
3.0
 42
0.0
 43
10.0
 44
1.0
 47
0.1
 48
0.1
 73
     0
 74
     0
 75
     1
 76
     1
 77
     1
 78
     8
140
3.5
141
0.0
143
0.0393701
146
0.71
147
1.0
172
     1
176
   256
177
   256
178
     2
271
     1
272
     3
274
     4
275
     1
283
     0
284
     8
340
10
  0
DIMSTYLE
105
1B93
330
A
100
AcDbSymbolTableRecord
100
AcDbDimStyleTableRecord
  2
GEN-ISO-AXE-H
 70
     0
  3
<>
  4
"
 41
3.0
 42
0.0
 43
10.0
 44
1.0
 47
0.1
 48
0.1
 73
     0
 74
     0
 75
     1
 76
     1
 77
     1
 78
     8
140
3.5
141
0.0
143
0.0393701
144
2.0
146
0.71
147
1.0
172
     1
173
     1
176
   256
177
   256
178
     2
271
     1
272
     3
274
     4
275
     1
283
     0
284
     8
340
10
  0
ENDTAB
  0
TABLE
  2
BLOCK_RECORD
  5
1
330
0
100
AcDbSymbolTable
 70
    43
  0
BLOCK_RECORD
  5
1A
102
{ACAD_XDICTIONARY
360
12A
102
}
330
1
100
AcDbSymbolTableRecord
100
AcDbBlockTableRecord
  2
*MODEL_SPACE
340
169
 70
     0
280
     1
281
     0
  0
BLOCK_RECORD
  5
17
330
1
100
AcDbSymbolTableRecord
100
AcDbBlockTableRecord
  2
*PAPER_SPACE
340
16A
 70
     0
280
     1
281
     0
  0
BLOCK_RECORD
  5
34D
330
1
100
AcDbSymbolTableRecord
100
AcDbBlockTableRecord
  2
*Paper_Space0
340
351
 70
     0
280
     1
281
     0
  0
BLOCK_RECORD
  5
313
330
1
100
AcDbSymbolTableRecord
100
AcDbBlockTableRecord
  2
*Paper_Space1
340
314
 70
     0
280
     1
281
     0
  0
BLOCK_RECORD
  5
2E0
330
1
100
AcDbSymbolTableRecord
100
AcDbBlockTableRecord
  2
*Paper_Space2
340
2E1
 70
     0
280
     1
281
     0
  0
BLOCK_RECORD
  5
345
330
1
100
AcDbSymbolTableRecord
100
AcDbBlockTableRecord
  2
*Paper_Space3
340
349
 70
     0
280
     1
281
     0
  0
BLOCK_RECORD
  5
39B
330
1
100
AcDbSymbolTableRecord
100
AcDbBlockTableRecord
  2
GENAXEH
340
0
 70
     0
280
     1
281
     0
  0
BLOCK_RECORD
  5
3F8
330
1
100
AcDbSymbolTableRecord
100
AcDbBlockTableRecord
  2
AVE_RENDER
340
0
102
{BLKREFS
331
3FB
331
3FC
331
3FD
331
3FE
331
3FF
331
400
331
401
331
402
102
}
 70
     0
280
     1
281
     0
  0
BLOCK_RECORD
  5
406
330
1
100
AcDbSymbolTableRecord
100
AcDbBlockTableRecord
  2
AVE_GLOBAL
340
0
102
{BLKREFS
331
409
102
}
 70
     0
280
     1
281
     0
  0
BLOCK_RECORD
  5
594
330
1
100
AcDbSymbolTableRecord
100
AcDbBlockTableRecord
  2
*U7
340
0
 70
     0
280
     1
281
     0
  0
BLOCK_RECORD
  5
5E5
330
1
100
AcDbSymbolTableRecord
100
AcDbBlockTableRecord
  2
*U8
340
0
 70
     0
280
     1
281
     0
  0
BLOCK_RECORD
  5
1366
330
1
100
AcDbSymbolTableRecord
100
AcDbBlockTableRecord
  2
GENDOT
340
0
 70
     0
280
     1
281
     0
  0
BLOCK_RECORD
  5
1844
330
1
100
AcDbSymbolTableRecord
100
AcDbBlockTableRecord
  2
_Open30
340
0
 70
     0
280
     1
281
     0
  0
BLOCK_RECORD
  5
19BF
330
1
100
AcDbSymbolTableRecord
100
AcDbBlockTableRecord
  2
BLK32
340
0
102
{BLKREFS
331
1C53
102
}
 70
     0
280
     1
281
     0
  0
BLOCK_RECORD
  5
19C5
330
1
100
AcDbSymbolTableRecord
100
AcDbBlockTableRecord
  2
BLK33
340
0
102
{BLKREFS
331
1C61
102
}
 70
     0
280
     1
281
     0
  0
BLOCK_RECORD
  5
2636
330
1
100
AcDbSymbolTableRecord
100
AcDbBlockTableRecord
  2
*D13
340
0
 70
     0
280
     1
281
     0
  0
BLOCK_RECORD
  5
26CA
330
1
100
AcDbSymbolTableRecord
100
AcDbBlockTableRecord
  2
*D14
340
0
 70
     0
280
     1
281
     0
  0
BLOCK_RECORD
  5
26E6
330
1
100
AcDbSymbolTableRecord
100
AcDbBlockTableRecord
  2
*D15
340
0
 70
     0
280
     1
281
     0
  0
BLOCK_RECORD
  5
2702
330
1
100
AcDbSymbolTableRecord
100
AcDbBlockTableRecord
  2
*D16
340
0
 70
     0
280
     1
281
     0
  0
BLOCK_RECORD
  5
271E
330
1
100
AcDbSymbolTableRecord
100
AcDbBlockTableRecord
  2
*D17
340
0
 70
     0
280
     1
281
     0
  0
BLOCK_RECORD
  5
2746
330
1
100
AcDbSymbolTableRecord
100
AcDbBlockTableRecord
  2
*D18
340
0
 70
     0
280
     1
281
     0
  0
BLOCK_RECORD
  5
2785
330
1
100
AcDbSymbolTableRecord
100
AcDbBlockTableRecord
  2
*D19
340
0
 70
     0
280
     1
281
     0
  0
BLOCK_RECORD
  5
2871
330
1
100
AcDbSymbolTableRecord
100
AcDbBlockTableRecord
  2
*D20
340
0
 70
     0
280
     1
281
     0
  0
BLOCK_RECORD
  5
28B0
330
1
100
AcDbSymbolTableRecord
100
AcDbBlockTableRecord
  2
*D21
340
0
 70
     0
280
     1
281
     0
  0
BLOCK_RECORD
  5
2944
330
1
100
AcDbSymbolTableRecord
100
AcDbBlockTableRecord
  2
*D22
340
0
 70
     0
280
     1
281
     0
  0
BLOCK_RECORD
  5
297B
330
1
100
AcDbSymbolTableRecord
100
AcDbBlockTableRecord
  2
*D23
340
0
 70
     0
280
     1
281
     0
  0
BLOCK_RECORD
  5
2A0F
330
1
100
AcDbSymbolTableRecord
100
AcDbBlockTableRecord
  2
*D24
340
0
 70
     0
280
     1
281
     0
  0
BLOCK_RECORD
  5
2A2B
330
1
100
AcDbSymbolTableRecord
100
AcDbBlockTableRecord
  2
*D25
340
0
 70
     0
280
     1
281
     0
  0
BLOCK_RECORD
  5
2A53
330
1
100
AcDbSymbolTableRecord
100
AcDbBlockTableRecord
  2
*D26
340
0
 70
     0
280
     1
281
     0
  0
BLOCK_RECORD
  5
2AE7
330
1
100
AcDbSymbolTableRecord
100
AcDbBlockTableRecord
  2
*D27
340
0
 70
     0
280
     1
281
     0
  0
BLOCK_RECORD
  5
2B03
330
1
100
AcDbSymbolTableRecord
100
AcDbBlockTableRecord
  2
*D28
340
0
 70
     0
280
     1
281
     0
  0
BLOCK_RECORD
  5
2B2B
330
1
100
AcDbSymbolTableRecord
100
AcDbBlockTableRecord
  2
*D29
340
0
 70
     0
280
     1
281
     0
  0
BLOCK_RECORD
  5
2BBF
330
1
100
AcDbSymbolTableRecord
100
AcDbBlockTableRecord
  2
*D30
340
0
 70
     0
280
     1
281
     0
  0
BLOCK_RECORD
  5
2BE3
330
1
100
AcDbSymbolTableRecord
100
AcDbBlockTableRecord
  2
*D31
340
0
 70
     0
280
     1
281
     0
  0
BLOCK_RECORD
  5
2C30
330
1
100
AcDbSymbolTableRecord
100
AcDbBlockTableRecord
  2
*D32
340
0
 70
     0
280
     1
281
     0
  0
BLOCK_RECORD
  5
2C79
330
1
100
AcDbSymbolTableRecord
100
AcDbBlockTableRecord
  2
*D33
340
0
 70
     0
280
     1
281
     0
  0
BLOCK_RECORD
  5
2CC6
330
1
100
AcDbSymbolTableRecord
100
AcDbBlockTableRecord
  2
*D34
340
0
 70
     0
280
     1
281
     0
  0
BLOCK_RECORD
  5
2D0F
330
1
100
AcDbSymbolTableRecord
100
AcDbBlockTableRecord
  2
*D35
340
0
 70
     0
280
     1
281
     0
  0
BLOCK_RECORD
  5
2D58
330
1
100
AcDbSymbolTableRecord
100
AcDbBlockTableRecord
  2
*D36
340
0
 70
     0
280
     1
281
     0
  0
BLOCK_RECORD
  5
2DA1
330
1
100
AcDbSymbolTableRecord
100
AcDbBlockTableRecord
  2
*D37
340
0
 70
     0
280
     1
281
     0
  0
BLOCK_RECORD
  5
2E7B
330
1
100
AcDbSymbolTableRecord
100
AcDbBlockTableRecord
  2
*D38
340
0
 70
     0
280
     1
281
     0
  0
BLOCK_RECORD
  5
2EC4
330
1
100
AcDbSymbolTableRecord
100
AcDbBlockTableRecord
  2
*D39
340
0
 70
     0
280
     1
281
     0
  0
BLOCK_RECORD
  5
2F09
330
1
100
AcDbSymbolTableRecord
100
AcDbBlockTableRecord
  2
*D40
340
0
 70
     0
280
     1
281
     0
  0
BLOCK_RECORD
  5
302D
330
1
100
AcDbSymbolTableRecord
100
AcDbBlockTableRecord
  2
*D41
340
0
 70
     0
280
     1
281
     0
  0
BLOCK_RECORD
  5
309C
330
1
100
AcDbSymbolTableRecord
100
AcDbBlockTableRecord
  2
*D42
340
0
 70
     0
280
     1
281
     0
  0
ENDTAB
  0
ENDSEC
  0
SECTION
  2
BLOCKS
  0
BLOCK
  5
1B
330
1A
100
AcDbEntity
  8
0
100
AcDbBlockBegin
  2
*MODEL_SPACE
 70
     0
 10
0.0
 20
0.0
 30
0.0
  3
*MODEL_SPACE
  1

  0
ENDBLK
  5
1C
330
1A
100
AcDbEntity
  8
0
100
AcDbBlockEnd
  0
BLOCK
  5
18
330
17
100
AcDbEntity
 67
     1
  8
0
100
AcDbBlockBegin
  2
*PAPER_SPACE
 70
     0
 10
0.0
 20
0.0
 30
0.0
  3
*PAPER_SPACE
  1

  0
ENDBLK
  5
19
330
17
100
AcDbEntity
 67
     1
  8
0
100
AcDbBlockEnd
  0
BLOCK
  5
34F
330
34D
100
AcDbEntity
 67
     1
  8
0
100
AcDbBlockBegin
  2
*Paper_Space0
 70
     0
 10
0.0
 20
0.0
 30
0.0
  3
*Paper_Space0
  1

  0
VIEWPORT
  5
34E
330
34D
100
AcDbEntity
 67
     1
  8
AM_VIEWS
100
AcDbViewport
 10
577.468994140625
 20
415.4593176841736
 30
0.0
 40
1195.734595476714
 41
932.8590910236622
 68
     0
 69
     0
 12
577.468994140625
 22
415.4593176841736
 13
0.0
 23
0.0
 14
10.0
 24
10.0
 15
10.0
 25
10.0
 16
0.0
 26
0.0
 36
1.0
 17
0.0
 27
0.0
 37
0.0
 42
50.0
 43
0.0
 44
0.0
 45
932.8590910236622
 50
0.0
 51
0.0
 72
   100
331
1969
 90
    32800
  1

281
     0
 71
     1
 74
     0
110
0.0
120
0.0
130
0.0
111
1.0
121
0.0
131
0.0
112
0.0
122
1.0
132
0.0
 79
     0
146
0.0
170
     0
 61
     5
348
328F
292
     1
282
     1
141
0.0
142
0.0
 63
   250
421
  3355443
  0
ENDBLK
  5
350
330
34D
100
AcDbEntity
 67
     1
  8
0
100
AcDbBlockEnd
  0
BLOCK
  5
315
330
313
100
AcDbEntity
 67
     1
  8
0
100
AcDbBlockBegin
  2
*Paper_Space1
 70
     0
 10
0.0
 20
0.0
 30
0.0
  3
*Paper_Space1
  1

  0
VIEWPORT
  5
344
330
313
100
AcDbEntity
 67
     1
  8
AM_VIEWS
100
AcDbViewport
 10
279.9926452636719
 20
204.9779944419861
 30
0.0
 40
597.3137355517764
 41
465.9976808487594
 68
     0
 69
     0
 12
279.9926452636719
 22
204.9779944419861
 13
0.0
 23
0.0
 14
10.0
 24
10.0
 15
10.0
 25
10.0
 16
0.0
 26
0.0
 36
1.0
 17
0.0
 27
0.0
 37
0.0
 42
50.0
 43
0.0
 44
0.0
 45
465.9976808487594
 50
0.0
 51
0.0
 72
   100
331
1969
 90
    32800
  1

281
     0
 71
     1
 74
     0
110
0.0
120
0.0
130
0.0
111
1.0
121
0.0
131
0.0
112
0.0
122
1.0
132
0.0
 79
     0
146
0.0
170
     0
 61
     5
348
328F
292
     1
282
     1
141
0.0
142
0.0
 63
   250
421
  3355443
  0
ENDBLK
  5
316
330
313
100
AcDbEntity
 67
     1
  8
0
100
AcDbBlockEnd
  0
BLOCK
  5
2E2
330
2E0
100
AcDbEntity
 67
     1
  8
0
100
AcDbBlockBegin
  2
*Paper_Space2
 70
     0
 10
0.0
 20
0.0
 30
0.0
  3
*Paper_Space2
  1

  0
VIEWPORT
  5
31D
330
2E0
100
AcDbEntity
 67
     1
  8
AM_VIEWS
100
AcDbViewport
 10
204.9674224853516
 20
143.4782419204712
 30
0.0
 40
422.4372280469156
 41
329.5667868615042
 68
     0
 69
     0
 12
204.9674224853516
 22
143.4782419204712
 13
0.0
 23
0.0
 14
10.0
 24
10.0
 15
10.0
 25
10.0
 16
0.0
 26
0.0
 36
1.0
 17
0.0
 27
0.0
 37
0.0
 42
50.0
 43
0.0
 44
0.0
 45
329.5667868615042
 50
0.0
 51
0.0
 72
   100
331
1969
 90
    32800
  1

281
     0
 71
     1
 74
     0
110
0.0
120
0.0
130
0.0
111
1.0
121
0.0
131
0.0
112
0.0
122
1.0
132
0.0
 79
     0
146
0.0
170
     0
 61
     5
348
328F
292
     1
282
     1
141
0.0
142
0.0
 63
   250
421
  3355443
  0
ENDBLK
  5
2E3
330
2E0
100
AcDbEntity
 67
     1
  8
0
100
AcDbBlockEnd
  0
BLOCK
  5
347
330
345
100
AcDbEntity
 67
     1
  8
0
100
AcDbBlockBegin
  2
*Paper_Space3
 70
     0
 10
0.0
 20
0.0
 30
0.0
  3
*Paper_Space3
  1

  0
VIEWPORT
  5
346
330
345
100
AcDbEntity
 67
     1
  8
AM_VIEWS
100
AcDbViewport
 10
279.9926452636719
 20
204.9779944419861
 30
0.0
 40
597.3137355517764
 41
465.9976808487594
 68
     0
 69
     0
 12
279.9926452636719
 22
204.9779944419861
 13
0.0
 23
0.0
 14
10.0
 24
10.0
 15
10.0
 25
10.0
 16
0.0
 26
0.0
 36
1.0
 17
0.0
 27
0.0
 37
0.0
 42
50.0
 43
0.0
 44
0.0
 45
465.9976808487594
 50
0.0
 51
0.0
 72
   100
331
1969
 90
    32800
  1

281
     0
 71
     1
 74
     0
110
0.0
120
0.0
130
0.0
111
1.0
121
0.0
131
0.0
112
0.0
122
1.0
132
0.0
 79
     0
146
0.0
170
     0
 61
     5
348
328F
292
     1
282
     1
141
0.0
142
0.0
 63
   250
421
  3355443
  0
ENDBLK
  5
348
330
345
100
AcDbEntity
 67
     1
  8
0
100
AcDbBlockEnd
  0
BLOCK
  5
39D
330
39B
100
AcDbEntity
  8
0
100
AcDbBlockBegin
  2
GENAXEH
 70
     0
 10
0.0
 20
0.0
 30
0.0
  3
GENAXEH
  1

  0
LINE
  5
39C
330
39B
100
AcDbEntity
  8
0
100
AcDbLine
 10
-1.0
 20
0.0
 30
0.0
 11
1.0
 21
0.0
 31
0.0
  0
ENDBLK
  5
39E
330
39B
100
AcDbEntity
  8
0
100
AcDbBlockEnd
  0
BLOCK
  5
3F9
330
3F8
100
AcDbEntity
  8
ASHADE
100
AcDbBlockBegin
  2
AVE_RENDER
 70
     0
 10
0.0
 20
0.0
 30
0.0
  3
AVE_RENDER
  1
AVE_RENDER
  0
ENDBLK
  5
3FA
330
3F8
100
AcDbEntity
  8
0
100
AcDbBlockEnd
  0
BLOCK
  5
407
330
406
100
AcDbEntity
  8
ASHADE
100
AcDbBlockBegin
  2
AVE_GLOBAL
 70
     0
 10
0.0
 20
0.0
 30
0.0
  3
AVE_GLOBAL
  1
AVE_GLOBAL
  0
ENDBLK
  5
408
330
406
100
AcDbEntity
  8
0
100
AcDbBlockEnd
  0
BLOCK
  5
595
330
594
100
AcDbEntity
  8
0
100
AcDbBlockBegin
  2
*U7
 70
     1
 10
0.0
 20
0.0
 30
0.0
  3
*U7
  1

  0
ENDBLK
  5
596
330
594
100
AcDbEntity
  8
0
100
AcDbBlockEnd
  0
BLOCK
  5
5E6
330
5E5
100
AcDbEntity
  8
0
100
AcDbBlockBegin
  2
*U8
 70
     1
 10
0.0
 20
0.0
 30
0.0
  3
*U8
  1

  0
ENDBLK
  5
5E7
330
5E5
100
AcDbEntity
  8
0
100
AcDbBlockEnd
  0
BLOCK
  5
1369
330
1366
100
AcDbEntity
  8
0
100
AcDbBlockBegin
  2
GENDOT
 70
     0
 10
0.0
 20
0.0
 30
0.0
  3
GENDOT
  1

  0
LINE
  5
1367
330
1366
100
AcDbEntity
  8
0
100
AcDbLine
 10
0.0
 20
0.0
 30
0.0
 11
-1.0
 21
0.0
 31
0.0
  0
LWPOLYLINE
  5
1368
330
1366
100
AcDbEntity
  8
0
100
AcDbPolyline
 90
        2
 70
     1
 43
0.25
 10
-0.125
 20
0.0
 42
1.0
 10
0.125
 20
0.0
 42
1.0
  0
ENDBLK
  5
136A
330
1366
100
AcDbEntity
  8
0
100
AcDbBlockEnd
  0
BLOCK
  5
1848
330
1844
100
AcDbEntity
  8
0
100
AcDbBlockBegin
  2
_Open30
 70
     0
 10
0.0
 20
0.0
 30
0.0
  3
_Open30
  1

  0
LINE
  5
1845
330
1844
100
AcDbEntity
  8
0
  6
ByBlock
 62
     0
370
    -2
100
AcDbLine
 10
-1.0
 20
0.26794919
 30
0.0
 11
0.0
 21
0.0
 31
0.0
  0
LINE
  5
1846
330
1844
100
AcDbEntity
  8
0
  6
ByBlock
 62
     0
370
    -2
100
AcDbLine
 10
0.0
 20
0.0
 30
0.0
 11
-1.0
 21
-0.26794919
 31
0.0
  0
LINE
  5
1847
330
1844
100
AcDbEntity
  8
0
  6
ByBlock
 62
     0
370
    -2
100
AcDbLine
 10
0.0
 20
0.0
 30
0.0
 11
-1.0
 21
0.0
 31
0.0
  0
ENDBLK
  5
1849
330
1844
100
AcDbEntity
  8
0
100
AcDbBlockEnd
  0
BLOCK
  5
19C3
330
19BF
100
AcDbEntity
  8
0
100
AcDbBlockBegin
  2
BLK32
 70
     2
 10
0.0
 20
0.0
 30
0.0
  3
BLK32
  1

  0
LINE
  5
19C0
330
19BF
100
AcDbEntity
  8
1
100
AcDbLine
 10
-35.000431
 20
28.299988
 30
0.0
 11
-30.000429
 21
28.299988
 31
0.0
  0
LINE
  5
19C1
330
19BF
100
AcDbEntity
  8
1
100
AcDbLine
 10
-35.000431
 20
44.29998799999999
 30
0.0
 11
-35.000431
 21
28.299988
 31
0.0
  0
LINE
  5
19C2
330
19BF
100
AcDbEntity
  8
1
100
AcDbLine
 10
-30.000431
 20
44.29998799999999
 30
0.0
 11
-35.000431
 21
44.29998799999999
 31
0.0
  0
ENDBLK
  5
19C4
330
19BF
100
AcDbEntity
  8
0
100
AcDbBlockEnd
  0
BLOCK
  5
19CC
330
19C5
100
AcDbEntity
  8
0
100
AcDbBlockBegin
  2
BLK33
 70
     2
 10
0.0
 20
0.0
 30
0.0
  3
BLK33
  1

  0
LINE
  5
19C6
330
19C5
100
AcDbEntity
  8
1
100
AcDbLine
 10
-34.999931
 20
65.05053700000001
 30
0.0
 11
-30.000008
 21
65.05053700000001
 31
0.0
  0
LINE
  5
19C7
330
19C5
100
AcDbEntity
  8
1
100
AcDbLine
 10
-34.999939
 20
77.55054499999999
 30
0.0
 11
-30.000008
 21
77.55054499999999
 31
0.0
  0
LINE
  5
19C8
330
19C5
100
AcDbEntity
  8
1
100
AcDbLine
 10
-34.999947
 20
71.30053700000001
 30
0.0
 11
-34.999947
 21
78.80053700000001
 31
0.0
  0
LINE
  5
19C9
330
19C5
100
AcDbEntity
  8
1
100
AcDbLine
 10
-34.999947
 20
71.30053700000001
 30
0.0
 11
-34.999947
 21
63.80054499999999
 31
0.0
  0
LINE
  5
19CA
330
19C5
100
AcDbEntity
  8
1
100
AcDbLine
 10
-34.999947
 20
63.800537
 30
0.0
 11
-30.000008
 21
63.800537
 31
0.0
  0
LINE
  5
19CB
330
19C5
100
AcDbEntity
  8
1
100
AcDbLine
 10
-34.999947
 20
78.80054499999999
 30
0.0
 11
-30.000008
 21
78.80054499999999
 31
0.0
  0
ENDBLK
  5
19CD
330
19C5
100
AcDbEntity
  8
0
100
AcDbBlockEnd
  0
BLOCK
  5
2640
330
2636
100
AcDbEntity
  8
0
100
AcDbBlockBegin
  2
*D13
 70
     1
 10
0.0
 20
0.0
 30
0.0
  3
*D13
  1

  0
LINE
  5
31F5
330
2636
100
AcDbEntity
  8
AM_5
100
AcDbLine
 10
175.6326565419271
 20
380.0307430524566
 30
0.0
 11
135.9312103894696
 21
380.0307430524566
 31
0.0
  0
LINE
  5
31F6
330
2636
100
AcDbEntity
  8
AM_5
100
AcDbLine
 10
165.6327785419271
 20
326.5318570524566
 30
0.0
 11
135.9312103894696
 21
326.5318570524566
 31
0.0
  0
LINE
  5
31F7
330
2636
100
AcDbEntity
  8
AM_5
100
AcDbLine
 10
137.9312103894696
 20
374.0307430524566
 30
0.0
 11
137.9312103894696
 21
332.5318570524566
 31
0.0
  0
SOLID
  5
31F8
330
2636
100
AcDbEntity
  8
AM_5
100
AcDbTrace
 10
136.9312103894696
 20
374.0307430524566
 30
0.0
 11
138.9312103894696
 21
374.0307430524566
 31
0.0
 12
137.9312103894696
 22
380.0307430524566
 32
0.0
 13
137.9312103894696
 23
380.0307430524566
 33
0.0
  0
SOLID
  5
31F9
330
2636
100
AcDbEntity
  8
AM_5
100
AcDbTrace
 10
136.9312103894696
 20
332.5318570524566
 30
0.0
 11
138.9312103894696
 21
332.5318570524566
 31
0.0
 12
137.9312103894696
 22
326.5318570524566
 32
0.0
 13
137.9312103894696
 23
326.5318570524566
 33
0.0
  0
MTEXT
  5
31FA
330
2636
100
AcDbEntity
  8
AM_5
 62
     2
100
AcDbMText
 10
131.4312103894696
 20
352.7708044313873
 30
0.0
 40
7.0
 41
0.0
 46
0.0
 71
     5
 72
     1
  1
53.5
 11
0.0000000000000001
 21
1.0
 31
0.0
 73
     1
 44
1.0
  0
POINT
  5
31FB
330
2636
100
AcDbEntity
  8
Defpoints
 62
     0
100
AcDbPoint
 10
175.6326565419271
 20
380.0307430524566
 30
0.0
  0
POINT
  5
31FC
330
2636
100
AcDbEntity
  8
Defpoints
 62
     0
100
AcDbPoint
 10
165.6327785419271
 20
326.5318570524566
 30
0.0
  0
POINT
  5
31FD
330
2636
100
AcDbEntity
  8
Defpoints
 62
     0
100
AcDbPoint
 10
137.9312103894696
 20
326.5318570524566
 30
0.0
  0
ENDBLK
  5
2641
330
2636
100
AcDbEntity
  8
0
100
AcDbBlockEnd
  0
BLOCK
  5
26D4
330
26CA
100
AcDbEntity
  8
0
100
AcDbBlockBegin
  2
*D14
 70
     1
 10
0.0
 20
0.0
 30
0.0
  3
*D14
  1

  0
LINE
  5
3223
330
26CA
100
AcDbEntity
  8
AM_5
100
AcDbLine
 10
165.6327785419271
 20
326.5318570524566
 30
0.0
 11
135.9312103894697
 21
326.5318570524566
 31
0.0
  0
LINE
  5
3224
330
26CA
100
AcDbEntity
  8
AM_5
100
AcDbLine
 10
165.6327785419271
 20
296.5318410524566
 30
0.0
 11
135.9312103894696
 21
296.5318410524566
 31
0.0
  0
LINE
  5
3225
330
26CA
100
AcDbEntity
  8
AM_5
100
AcDbLine
 10
137.9312103894697
 20
320.5318570524566
 30
0.0
 11
137.9312103894696
 21
302.5318410524566
 31
0.0
  0
SOLID
  5
3226
330
26CA
100
AcDbEntity
  8
AM_5
100
AcDbTrace
 10
136.9312103894697
 20
320.5318570524566
 30
0.0
 11
138.9312103894697
 21
320.5318570524566
 31
0.0
 12
137.9312103894697
 22
326.5318570524566
 32
0.0
 13
137.9312103894697
 23
326.5318570524566
 33
0.0
  0
SOLID
  5
3227
330
26CA
100
AcDbEntity
  8
AM_5
100
AcDbTrace
 10
136.9312103894696
 20
302.5318410524566
 30
0.0
 11
138.9312103894696
 21
302.5318410524566
 31
0.0
 12
137.9312103894696
 22
296.5318410524566
 32
0.0
 13
137.9312103894696
 23
296.5318410524566
 33
0.0
  0
MTEXT
  5
3228
330
26CA
100
AcDbEntity
  8
AM_5
 62
     2
100
AcDbMText
 10
131.4312103894696
 20
311.5318490524566
 30
0.0
 40
7.0
 41
0.0
 46
0.0
 71
     5
 72
     1
  1
30
 11
0.0000000000000001
 21
1.0
 31
0.0
 73
     1
 44
1.0
  0
POINT
  5
3229
330
26CA
100
AcDbEntity
  8
Defpoints
 62
     0
100
AcDbPoint
 10
165.6327785419271
 20
326.5318570524566
 30
0.0
  0
POINT
  5
322A
330
26CA
100
AcDbEntity
  8
Defpoints
 62
     0
100
AcDbPoint
 10
165.6327785419271
 20
296.5318410524566
 30
0.0
  0
POINT
  5
322B
330
26CA
100
AcDbEntity
  8
Defpoints
 62
     0
100
AcDbPoint
 10
137.9312103894696
 20
296.5318410524566
 30
0.0
  0
ENDBLK
  5
26D5
330
26CA
100
AcDbEntity
  8
0
100
AcDbBlockEnd
  0
BLOCK
  5
26F0
330
26E6
100
AcDbEntity
  8
0
100
AcDbBlockBegin
  2
*D15
 70
     1
 10
0.0
 20
0.0
 30
0.0
  3
*D15
  1

  0
LINE
  5
322C
330
26E6
100
AcDbEntity
  8
AM_5
100
AcDbLine
 10
165.6327785419271
 20
296.5318410524566
 30
0.0
 11
135.9312103894696
 21
296.5318410524566
 31
0.0
  0
LINE
  5
322D
330
26E6
100
AcDbEntity
  8
AM_5
100
AcDbLine
 10
165.6318105419271
 20
257.5307430524566
 30
0.0
 11
135.9312103894696
 21
257.5307430524566
 31
0.0
  0
LINE
  5
322E
330
26E6
100
AcDbEntity
  8
AM_5
100
AcDbLine
 10
137.9312103894696
 20
290.5318410524566
 30
0.0
 11
137.9312103894696
 21
263.5307430524566
 31
0.0
  0
SOLID
  5
322F
330
26E6
100
AcDbEntity
  8
AM_5
100
AcDbTrace
 10
136.9312103894696
 20
290.5318410524566
 30
0.0
 11
138.9312103894696
 21
290.5318410524566
 31
0.0
 12
137.9312103894696
 22
296.5318410524566
 32
0.0
 13
137.9312103894696
 23
296.5318410524566
 33
0.0
  0
SOLID
  5
3230
330
26E6
100
AcDbEntity
  8
AM_5
100
AcDbTrace
 10
136.9312103894696
 20
263.5307430524566
 30
0.0
 11
138.9312103894696
 21
263.5307430524566
 31
0.0
 12
137.9312103894696
 22
257.5307430524566
 32
0.0
 13
137.9312103894696
 23
257.5307430524566
 33
0.0
  0
MTEXT
  5
3231
330
26E6
100
AcDbEntity
  8
AM_5
 62
     2
100
AcDbMText
 10
131.4312103894696
 20
277.0312920524567
 30
0.0
 40
7.0
 41
0.0
 46
0.0
 71
     5
 72
     1
  1
39
 11
0.0000000000000001
 21
1.0
 31
0.0
 73
     1
 44
1.0
  0
POINT
  5
3232
330
26E6
100
AcDbEntity
  8
Defpoints
 62
     0
100
AcDbPoint
 10
165.6327785419271
 20
296.5318410524566
 30
0.0
  0
POINT
  5
3233
330
26E6
100
AcDbEntity
  8
Defpoints
 62
     0
100
AcDbPoint
 10
165.6318105419271
 20
257.5307430524566
 30
0.0
  0
POINT
  5
3234
330
26E6
100
AcDbEntity
  8
Defpoints
 62
     0
100
AcDbPoint
 10
137.9312103894696
 20
257.5307430524566
 30
0.0
  0
ENDBLK
  5
26F1
330
26E6
100
AcDbEntity
  8
0
100
AcDbBlockEnd
  0
BLOCK
  5
270C
330
2702
100
AcDbEntity
  8
0
100
AcDbBlockBegin
  2
*D16
 70
     1
 10
0.0
 20
0.0
 30
0.0
  3
*D16
  1

  0
LINE
  5
3235
330
2702
100
AcDbEntity
  8
AM_5
100
AcDbLine
 10
165.6318105419271
 20
257.5307430524566
 30
0.0
 11
135.9312103894697
 21
257.5307430524566
 31
0.0
  0
LINE
  5
3236
330
2702
100
AcDbEntity
  8
AM_5
100
AcDbLine
 10
165.6318105419271
 20
225.5307430524566
 30
0.0
 11
135.9312103894697
 21
225.5307430524566
 31
0.0
  0
LINE
  5
3237
330
2702
100
AcDbEntity
  8
AM_5
100
AcDbLine
 10
137.9312103894697
 20
251.5307430524567
 30
0.0
 11
137.9312103894697
 21
231.5307430524566
 31
0.0
  0
SOLID
  5
3238
330
2702
100
AcDbEntity
  8
AM_5
100
AcDbTrace
 10
136.9312103894697
 20
251.5307430524567
 30
0.0
 11
138.9312103894697
 21
251.5307430524567
 31
0.0
 12
137.9312103894697
 22
257.5307430524566
 32
0.0
 13
137.9312103894697
 23
257.5307430524566
 33
0.0
  0
SOLID
  5
3239
330
2702
100
AcDbEntity
  8
AM_5
100
AcDbTrace
 10
136.9312103894697
 20
231.5307430524566
 30
0.0
 11
138.9312103894697
 21
231.5307430524566
 31
0.0
 12
137.9312103894697
 22
225.5307430524566
 32
0.0
 13
137.9312103894697
 23
225.5307430524566
 33
0.0
  0
MTEXT
  5
323A
330
2702
100
AcDbEntity
  8
AM_5
 62
     2
100
AcDbMText
 10
131.4305214130917
 20
241.5307430524567
 30
0.0
 40
7.0
 41
0.0
 46
0.0
 71
     5
 72
     1
  1
32
 11
0.0000000000000001
 21
1.0
 31
0.0
 73
     1
 44
1.0
  0
POINT
  5
323B
330
2702
100
AcDbEntity
  8
Defpoints
 62
     0
100
AcDbPoint
 10
165.6318105419271
 20
257.5307430524566
 30
0.0
  0
POINT
  5
323C
330
2702
100
AcDbEntity
  8
Defpoints
 62
     0
100
AcDbPoint
 10
165.6318105419271
 20
225.5307430524566
 30
0.0
  0
POINT
  5
323D
330
2702
100
AcDbEntity
  8
Defpoints
 62
     0
100
AcDbPoint
 10
137.9312103894697
 20
225.5307430524566
 30
0.0
  0
ENDBLK
  5
270D
330
2702
100
AcDbEntity
  8
0
100
AcDbBlockEnd
  0
BLOCK
  5
2728
330
271E
100
AcDbEntity
  8
0
100
AcDbBlockBegin
  2
*D17
 70
     1
 10
0.0
 20
0.0
 30
0.0
  3
*D17
  1

  0
LINE
  5
323E
330
271E
100
AcDbEntity
  8
AM_5
100
AcDbLine
 10
165.6318105419271
 20
225.5307430524566
 30
0.0
 11
135.9312103894698
 21
225.5307430524566
 31
0.0
  0
LINE
  5
323F
330
271E
100
AcDbEntity
  8
AM_5
100
AcDbLine
 10
175.6326565419271
 20
110.0307610524567
 30
0.0
 11
135.9312103894697
 21
110.0307610524567
 31
0.0
  0
LINE
  5
3240
330
271E
100
AcDbEntity
  8
AM_5
100
AcDbLine
 10
137.9312103894698
 20
219.5307430524566
 30
0.0
 11
137.9312103894697
 21
116.0307610524567
 31
0.0
  0
SOLID
  5
3241
330
271E
100
AcDbEntity
  8
AM_5
100
AcDbTrace
 10
136.9312103894698
 20
219.5307430524566
 30
0.0
 11
138.9312103894698
 21
219.5307430524566
 31
0.0
 12
137.9312103894698
 22
225.5307430524566
 32
0.0
 13
137.9312103894698
 23
225.5307430524566
 33
0.0
  0
SOLID
  5
3242
330
271E
100
AcDbEntity
  8
AM_5
100
AcDbTrace
 10
136.9312103894697
 20
116.0307610524567
 30
0.0
 11
138.9312103894697
 21
116.0307610524567
 31
0.0
 12
137.9312103894697
 22
110.0307610524567
 32
0.0
 13
137.9312103894697
 23
110.0307610524567
 33
0.0
  0
MTEXT
  5
3243
330
271E
100
AcDbEntity
  8
AM_5
 62
     2
100
AcDbMText
 10
131.4312103894697
 20
167.7807520524567
 30
0.0
 40
7.0
 41
0.0
 46
0.0
 71
     5
 72
     1
  1
115.5
 11
0.0000000000000001
 21
1.0
 31
0.0
 73
     1
 44
1.0
  0
POINT
  5
3244
330
271E
100
AcDbEntity
  8
Defpoints
 62
     0
100
AcDbPoint
 10
165.6318105419271
 20
225.5307430524566
 30
0.0
  0
POINT
  5
3245
330
271E
100
AcDbEntity
  8
Defpoints
 62
     0
100
AcDbPoint
 10
175.6326565419271
 20
110.0307610524567
 30
0.0
  0
POINT
  5
3246
330
271E
100
AcDbEntity
  8
Defpoints
 62
     0
100
AcDbPoint
 10
137.9312103894697
 20
110.0307610524567
 30
0.0
  0
ENDBLK
  5
2729
330
271E
100
AcDbEntity
  8
0
100
AcDbBlockEnd
  0
BLOCK
  5
2750
330
2746
100
AcDbEntity
  8
0
100
AcDbBlockBegin
  2
*D18
 70
     1
 10
0.0
 20
0.0
 30
0.0
  3
*D18
  1

  0
LINE
  5
2E0B
330
2746
100
AcDbEntity
  8
AM_5
100
AcDbLine
 10
175.6326565419271
 20
380.0307430524566
 30
0.0
 11
119.6318105419272
 21
380.0307430524567
 31
0.0
  0
LINE
  5
2E0C
330
2746
100
AcDbEntity
  8
AM_5
100
AcDbLine
 10
175.6326565419271
 20
110.0307610524567
 30
0.0
 11
119.6318105419271
 21
110.0307610524567
 31
0.0
  0
LINE
  5
2E0D
330
2746
100
AcDbEntity
  8
AM_5
100
AcDbLine
 10
121.6318105419272
 20
374.0307430524567
 30
0.0
 11
121.6318105419271
 21
116.0307610524567
 31
0.0
  0
SOLID
  5
2E0E
330
2746
100
AcDbEntity
  8
AM_5
100
AcDbTrace
 10
120.6318105419272
 20
374.0307430524567
 30
0.0
 11
122.6318105419272
 21
374.0307430524567
 31
0.0
 12
121.6318105419272
 22
380.0307430524567
 32
0.0
 13
121.6318105419272
 23
380.0307430524567
 33
0.0
  0
SOLID
  5
2E0F
330
2746
100
AcDbEntity
  8
AM_5
100
AcDbTrace
 10
120.6318105419271
 20
116.0307610524567
 30
0.0
 11
122.6318105419271
 21
116.0307610524567
 31
0.0
 12
121.6318105419271
 22
110.0307610524567
 32
0.0
 13
121.6318105419271
 23
110.0307610524567
 33
0.0
  0
MTEXT
  5
2E10
330
2746
100
AcDbEntity
  8
AM_5
 62
     2
100
AcDbMText
 10
115.1311215655492
 20
245.0307520524567
 30
0.0
 40
7.0
 41
0.0
 46
0.0
 71
     5
 72
     1
  1
270
 11
0.0000000000000001
 21
1.0
 31
0.0
 73
     1
 44
1.0
  0
POINT
  5
2E11
330
2746
100
AcDbEntity
  8
Defpoints
 62
     0
100
AcDbPoint
 10
175.6326565419271
 20
380.0307430524566
 30
0.0
  0
POINT
  5
2E12
330
2746
100
AcDbEntity
  8
Defpoints
 62
     0
100
AcDbPoint
 10
175.6326565419271
 20
110.0307610524567
 30
0.0
  0
POINT
  5
2E13
330
2746
100
AcDbEntity
  8
Defpoints
 62
     0
100
AcDbPoint
 10
121.6318105419271
 20
110.0307610524567
 30
0.0
  0
ENDBLK
  5
2751
330
2746
100
AcDbEntity
  8
0
100
AcDbBlockEnd
  0
BLOCK
  5
2791
330
2785
100
AcDbEntity
  8
0
100
AcDbBlockBegin
  2
*D19
 70
     1
 10
0.0
 20
0.0
 30
0.0
  3
*D19
  1

  0
LINE
  5
31EA
330
2785
100
AcDbEntity
  8
AM_5
100
AcDbLine
 10
175.6326565419271
 20
326.5318570524566
 30
0.0
 11
175.6326565419271
 21
349.349509865015
 31
0.0
  0
LINE
  5
31EB
330
2785
100
AcDbEntity
  8
AM_5
100
AcDbLine
 10
165.6327785419271
 20
326.5318410524566
 30
0.0
 11
165.6327785419271
 21
349.349509865015
 31
0.0
  0
LINE
  5
31EC
330
2785
100
AcDbEntity
  8
AM_5
100
AcDbLine
 10
181.6326565419271
 20
347.349509865015
 30
0.0
 11
187.6326565419271
 21
347.349509865015
 31
0.0
  0
LINE
  5
31ED
330
2785
100
AcDbEntity
  8
AM_5
100
AcDbLine
 10
159.6327785419271
 20
347.349509865015
 30
0.0
 11
141.3272667309035
 21
347.349509865015
 31
0.0
  0
LINE
  5
31EE
330
2785
100
AcDbEntity
  8
AM_5
100
AcDbLine
 10
175.6326565419271
 20
347.349509865015
 30
0.0
 11
165.6327785419271
 21
347.349509865015
 31
0.0
  0
SOLID
  5
31EF
330
2785
100
AcDbEntity
  8
AM_5
100
AcDbTrace
 10
181.6326565419271
 20
348.349509865015
 30
0.0
 11
181.6326565419271
 21
346.349509865015
 31
0.0
 12
175.6326565419271
 22
347.349509865015
 32
0.0
 13
175.6326565419271
 23
347.349509865015
 33
0.0
  0
SOLID
  5
31F0
330
2785
100
AcDbEntity
  8
AM_5
100
AcDbTrace
 10
159.6327785419271
 20
348.349509865015
 30
0.0
 11
159.6327785419271
 21
346.349509865015
 31
0.0
 12
165.6327785419271
 22
347.349509865015
 32
0.0
 13
165.6327785419271
 23
347.349509865015
 33
0.0
  0
MTEXT
  5
31F1
330
2785
100
AcDbEntity
  8
AM_5
 62
     2
100
AcDbMText
 10
147.4800226364153
 20
353.8495098650149
 30
0.0
 40
7.0
 41
0.0
 46
0.0
 71
     5
 72
     1
  1
10
 73
     1
 44
1.0
  0
POINT
  5
31F2
330
2785
100
AcDbEntity
  8
Defpoints
 62
     0
100
AcDbPoint
 10
175.6326565419271
 20
326.5318570524566
 30
0.0
  0
POINT
  5
31F3
330
2785
100
AcDbEntity
  8
Defpoints
 62
     0
100
AcDbPoint
 10
165.6327785419271
 20
326.5318410524566
 30
0.0
  0
POINT
  5
31F4
330
2785
100
AcDbEntity
  8
Defpoints
 62
     0
100
AcDbPoint
 10
165.6327785419271
 20
347.349509865015
 30
0.0
  0
ENDBLK
  5
2792
330
2785
100
AcDbEntity
  8
0
100
AcDbBlockEnd
  0
BLOCK
  5
287B
330
2871
100
AcDbEntity
  8
0
100
AcDbBlockBegin
  2
*D20
 70
     1
 10
0.0
 20
0.0
 30
0.0
  3
*D20
  1

  0
LINE
  5
2898
330
2871
100
AcDbEntity
  8
AM_5
100
AcDbLine
 10
228.8317625419271
 20
229.0307570524566
 30
0.0
 11
243.4713273458505
 21
229.0307570524566
 31
0.0
  0
LINE
  5
2899
330
2871
100
AcDbEntity
  8
AM_5
100
AcDbLine
 10
215.6503625419271
 20
289.0307650524567
 30
0.0
 11
243.4713273458505
 21
289.0307650524567
 31
0.0
  0
LINE
  5
289A
330
2871
100
AcDbEntity
  8
AM_5
100
AcDbLine
 10
241.4713273458505
 20
235.0307570524566
 30
0.0
 11
241.4713273458505
 21
283.0307650524567
 31
0.0
  0
SOLID
  5
289B
330
2871
100
AcDbEntity
  8
AM_5
100
AcDbTrace
 10
240.4713273458504
 20
235.0307570524566
 30
0.0
 11
242.4713273458504
 21
235.0307570524566
 31
0.0
 12
241.4713273458505
 22
229.0307570524566
 32
0.0
 13
241.4713273458505
 23
229.0307570524566
 33
0.0
  0
SOLID
  5
289C
330
2871
100
AcDbEntity
  8
AM_5
100
AcDbTrace
 10
240.4713273458504
 20
283.0307650524567
 30
0.0
 11
242.4713273458504
 21
283.0307650524567
 31
0.0
 12
241.4713273458505
 22
289.0307650524567
 32
0.0
 13
241.4713273458505
 23
289.0307650524567
 33
0.0
  0
MTEXT
  5
289D
330
2871
100
AcDbEntity
  8
AM_5
 62
     2
100
AcDbMText
 10
234.9713273458504
 20
259.0307610524567
 30
0.0
 40
7.0
 41
0.0
 46
0.0
 71
     5
 72
     1
  1
60
 11
0.0000000000000001
 21
1.0
 31
0.0
 73
     1
 44
1.0
  0
POINT
  5
289E
330
2871
100
AcDbEntity
  8
Defpoints
 62
     0
100
AcDbPoint
 10
228.8317625419271
 20
229.0307570524566
 30
0.0
  0
POINT
  5
289F
330
2871
100
AcDbEntity
  8
Defpoints
 62
     0
100
AcDbPoint
 10
215.6503625419271
 20
289.0307650524567
 30
0.0
  0
POINT
  5
28A0
330
2871
100
AcDbEntity
  8
Defpoints
 62
     0
100
AcDbPoint
 10
241.4713273458505
 20
289.0307650524567
 30
0.0
  0
ENDBLK
  5
287C
330
2871
100
AcDbEntity
  8
0
100
AcDbBlockEnd
  0
BLOCK
  5
28BA
330
28B0
100
AcDbEntity
  8
0
100
AcDbBlockBegin
  2
*D21
 70
     1
 10
0.0
 20
0.0
 30
0.0
  3
*D21
  1

  0
LINE
  5
3013
330
28B0
100
AcDbEntity
  8
AM_5
100
AcDbLine
 10
175.6326565419271
 20
110.0307610524566
 30
0.0
 11
175.6326565419271
 21
86.11669809591234
 31
0.0
  0
LINE
  5
3014
330
28B0
100
AcDbEntity
  8
AM_5
100
AcDbLine
 10
205.6326625419271
 20
144.8076630524566
 30
0.0
 11
205.6326625419271
 21
86.11669809591234
 31
0.0
  0
LINE
  5
3015
330
28B0
100
AcDbEntity
  8
AM_5
100
AcDbLine
 10
181.6326565419271
 20
88.11669809591235
 30
0.0
 11
199.6326625419271
 21
88.11669809591235
 31
0.0
  0
SOLID
  5
3016
330
28B0
100
AcDbEntity
  8
AM_5
100
AcDbTrace
 10
181.6326565419271
 20
89.11669809591234
 30
0.0
 11
181.6326565419271
 21
87.11669809591233
 31
0.0
 12
175.6326565419271
 22
88.11669809591235
 32
0.0
 13
175.6326565419271
 23
88.11669809591235
 33
0.0
  0
SOLID
  5
3017
330
28B0
100
AcDbEntity
  8
AM_5
100
AcDbTrace
 10
199.6326625419271
 20
89.11669809591234
 30
0.0
 11
199.6326625419271
 21
87.11669809591233
 31
0.0
 12
205.6326625419271
 22
88.11669809591235
 32
0.0
 13
205.6326625419271
 23
88.11669809591235
 33
0.0
  0
MTEXT
  5
3018
330
28B0
100
AcDbEntity
  8
AM_5
 62
     2
100
AcDbMText
 10
190.6326595419271
 20
94.66537864969643
 30
0.0
 40
7.0
 41
0.0
 46
0.0
 71
     5
 72
     1
  1
D=30
 73
     1
 44
1.0
  0
POINT
  5
3019
330
28B0
100
AcDbEntity
  8
Defpoints
 62
     0
100
AcDbPoint
 10
175.6326565419271
 20
110.0307610524566
 30
0.0
  0
POINT
  5
301A
330
28B0
100
AcDbEntity
  8
Defpoints
 62
     0
100
AcDbPoint
 10
205.6326625419271
 20
144.8076630524566
 30
0.0
  0
POINT
  5
301B
330
28B0
100
AcDbEntity
  8
Defpoints
 62
     0
100
AcDbPoint
 10
205.6326625419271
 20
88.11669809591235
 30
0.0
  0
ENDBLK
  5
28BB
330
28B0
100
AcDbEntity
  8
0
100
AcDbBlockEnd
  0
BLOCK
  5
294E
330
2944
100
AcDbEntity
  8
0
100
AcDbBlockBegin
  2
*D22
 70
     1
 10
0.0
 20
0.0
 30
0.0
  3
*D22
  1

  0
LINE
  5
301C
330
2944
100
AcDbEntity
  8
AM_5
100
AcDbLine
 10
205.6326625419271
 20
144.8076630524566
 30
0.0
 11
205.6326625419271
 21
86.11669809591228
 31
0.0
  0
LINE
  5
301D
330
2944
100
AcDbEntity
  8
AM_5
100
AcDbLine
 10
225.6326665419271
 20
160.0307770524566
 30
0.0
 11
225.6326665419271
 21
86.11669809591228
 31
0.0
  0
LINE
  5
301E
330
2944
100
AcDbEntity
  8
AM_5
100
AcDbLine
 10
211.6326625419271
 20
88.11669809591228
 30
0.0
 11
219.6326665419271
 21
88.11669809591228
 31
0.0
  0
SOLID
  5
301F
330
2944
100
AcDbEntity
  8
AM_5
100
AcDbTrace
 10
211.6326625419271
 20
89.11669809591229
 30
0.0
 11
211.6326625419271
 21
87.11669809591228
 31
0.0
 12
205.6326625419271
 22
88.11669809591228
 32
0.0
 13
205.6326625419271
 23
88.11669809591228
 33
0.0
  0
SOLID
  5
3020
330
2944
100
AcDbEntity
  8
AM_5
100
AcDbTrace
 10
219.6326665419271
 20
89.11669809591229
 30
0.0
 11
219.6326665419271
 21
87.11669809591228
 31
0.0
 12
225.6326665419271
 22
88.11669809591228
 32
0.0
 13
225.6326665419271
 23
88.11669809591228
 33
0.0
  0
MTEXT
  5
3021
330
2944
100
AcDbEntity
  8
AM_5
 62
     2
100
AcDbMText
 10
215.6326645419271
 20
94.61738707229024
 30
0.0
 40
7.0
 41
0.0
 46
0.0
 71
     5
 72
     1
  1
20
 73
     1
 44
1.0
  0
POINT
  5
3022
330
2944
100
AcDbEntity
  8
Defpoints
 62
     0
100
AcDbPoint
 10
205.6326625419271
 20
144.8076630524566
 30
0.0
  0
POINT
  5
3023
330
2944
100
AcDbEntity
  8
Defpoints
 62
     0
100
AcDbPoint
 10
225.6326665419271
 20
160.0307770524566
 30
0.0
  0
POINT
  5
3024
330
2944
100
AcDbEntity
  8
Defpoints
 62
     0
100
AcDbPoint
 10
225.6326665419271
 20
88.11669809591228
 30
0.0
  0
ENDBLK
  5
294F
330
2944
100
AcDbEntity
  8
0
100
AcDbBlockEnd
  0
BLOCK
  5
2985
330
297B
100
AcDbEntity
  8
0
100
AcDbBlockBegin
  2
*D23
 70
     1
 10
0.0
 20
0.0
 30
0.0
  3
*D23
  1

  0
LINE
  5
31E1
330
297B
100
AcDbEntity
  8
AM_5
100
AcDbLine
 10
215.6326645419271
 20
150.0307470524566
 30
0.0
 11
259.4955090210164
 21
150.0307470524566
 31
0.0
  0
LINE
  5
31E2
330
297B
100
AcDbEntity
  8
AM_5
100
AcDbLine
 10
228.8317625419271
 20
181.0307470524566
 30
0.0
 11
259.4955090210164
 21
181.0307470524566
 31
0.0
  0
LINE
  5
31E3
330
297B
100
AcDbEntity
  8
AM_5
100
AcDbLine
 10
257.4955090210164
 20
156.0307470524566
 30
0.0
 11
257.4955090210164
 21
175.0307470524566
 31
0.0
  0
SOLID
  5
31E4
330
297B
100
AcDbEntity
  8
AM_5
100
AcDbTrace
 10
256.4955090210164
 20
156.0307470524566
 30
0.0
 11
258.4955090210164
 21
156.0307470524566
 31
0.0
 12
257.4955090210164
 22
150.0307470524566
 32
0.0
 13
257.4955090210164
 23
150.0307470524566
 33
0.0
  0
SOLID
  5
31E5
330
297B
100
AcDbEntity
  8
AM_5
100
AcDbTrace
 10
256.4955090210164
 20
175.0307470524566
 30
0.0
 11
258.4955090210164
 21
175.0307470524566
 31
0.0
 12
257.4955090210164
 22
181.0307470524566
 32
0.0
 13
257.4955090210164
 23
181.0307470524566
 33
0.0
  0
MTEXT
  5
31E6
330
297B
100
AcDbEntity
  8
AM_5
 62
     2
100
AcDbMText
 10
250.9955090210163
 20
165.5307470524566
 30
0.0
 40
7.0
 41
0.0
 46
0.0
 71
     5
 72
     1
  1
31
 11
0.0000000000000001
 21
1.0
 31
0.0
 73
     1
 44
1.0
  0
POINT
  5
31E7
330
297B
100
AcDbEntity
  8
Defpoints
 62
     0
100
AcDbPoint
 10
215.6326645419271
 20
150.0307470524566
 30
0.0
  0
POINT
  5
31E8
330
297B
100
AcDbEntity
  8
Defpoints
 62
     0
100
AcDbPoint
 10
228.8317625419271
 20
181.0307470524566
 30
0.0
  0
POINT
  5
31E9
330
297B
100
AcDbEntity
  8
Defpoints
 62
     0
100
AcDbPoint
 10
257.4955090210164
 20
181.0307470524566
 30
0.0
  0
ENDBLK
  5
2986
330
297B
100
AcDbEntity
  8
0
100
AcDbBlockEnd
  0
BLOCK
  5
2A19
330
2A0F
100
AcDbEntity
  8
0
100
AcDbBlockBegin
  2
*D24
 70
     1
 10
0.0
 20
0.0
 30
0.0
  3
*D24
  1

  0
LINE
  5
3197
330
2A0F
100
AcDbEntity
  8
AM_5
100
AcDbLine
 10
228.8317625419271
 20
181.0307470524566
 30
0.0
 11
259.4955090210164
 21
181.0307470524566
 31
0.0
  0
LINE
  5
3198
330
2A0F
100
AcDbEntity
  8
AM_5
100
AcDbLine
 10
215.6503625419272
 20
289.0307650524567
 30
0.0
 11
259.4955090210164
 21
289.0307650524567
 31
0.0
  0
LINE
  5
3199
330
2A0F
100
AcDbEntity
  8
AM_5
100
AcDbLine
 10
257.4955090210164
 20
187.0307470524565
 30
0.0
 11
257.4955090210164
 21
283.0307650524567
 31
0.0
  0
SOLID
  5
319A
330
2A0F
100
AcDbEntity
  8
AM_5
100
AcDbTrace
 10
256.4955090210164
 20
187.0307470524565
 30
0.0
 11
258.4955090210164
 21
187.0307470524565
 31
0.0
 12
257.4955090210164
 22
181.0307470524566
 32
0.0
 13
257.4955090210164
 23
181.0307470524566
 33
0.0
  0
SOLID
  5
319B
330
2A0F
100
AcDbEntity
  8
AM_5
100
AcDbTrace
 10
256.4955090210164
 20
283.0307650524567
 30
0.0
 11
258.4955090210164
 21
283.0307650524567
 31
0.0
 12
257.4955090210164
 22
289.0307650524567
 32
0.0
 13
257.4955090210164
 23
289.0307650524567
 33
0.0
  0
MTEXT
  5
319C
330
2A0F
100
AcDbEntity
  8
AM_5
 62
     2
100
AcDbMText
 10
250.9955090210164
 20
234.5665785165376
 30
0.0
 40
7.0
 41
0.0
 46
0.0
 71
     5
 72
     1
  1
108
 11
0.0000000000000001
 21
1.0
 31
0.0
 73
     1
 44
1.0
  0
POINT
  5
319D
330
2A0F
100
AcDbEntity
  8
Defpoints
 62
     0
100
AcDbPoint
 10
228.8317625419271
 20
181.0307470524566
 30
0.0
  0
POINT
  5
319E
330
2A0F
100
AcDbEntity
  8
Defpoints
 62
     0
100
AcDbPoint
 10
215.6503625419272
 20
289.0307650524567
 30
0.0
  0
POINT
  5
319F
330
2A0F
100
AcDbEntity
  8
Defpoints
 62
     0
100
AcDbPoint
 10
257.4955090210164
 20
289.0307650524567
 30
0.0
  0
ENDBLK
  5
2A1A
330
2A0F
100
AcDbEntity
  8
0
100
AcDbBlockEnd
  0
BLOCK
  5
2A35
330
2A2B
100
AcDbEntity
  8
0
100
AcDbBlockBegin
  2
*D25
 70
     1
 10
0.0
 20
0.0
 30
0.0
  3
*D25
  1

  0
LINE
  5
31D8
330
2A2B
100
AcDbEntity
  8
AM_5
100
AcDbLine
 10
215.6503625419272
 20
289.0307650524567
 30
0.0
 11
259.4955090210164
 21
289.0307650524567
 31
0.0
  0
LINE
  5
31D9
330
2A2B
100
AcDbEntity
  8
AM_5
100
AcDbLine
 10
215.6326645419272
 20
340.0307730524567
 30
0.0
 11
259.4955090210164
 21
340.0307730524567
 31
0.0
  0
LINE
  5
31DA
330
2A2B
100
AcDbEntity
  8
AM_5
100
AcDbLine
 10
257.4955090210164
 20
295.0307650524567
 30
0.0
 11
257.4955090210164
 21
334.0307730524567
 31
0.0
  0
SOLID
  5
31DB
330
2A2B
100
AcDbEntity
  8
AM_5
100
AcDbTrace
 10
256.4955090210164
 20
295.0307650524567
 30
0.0
 11
258.4955090210164
 21
295.0307650524567
 31
0.0
 12
257.4955090210164
 22
289.0307650524567
 32
0.0
 13
257.4955090210164
 23
289.0307650524567
 33
0.0
  0
SOLID
  5
31DC
330
2A2B
100
AcDbEntity
  8
AM_5
100
AcDbTrace
 10
256.4955090210164
 20
334.0307730524567
 30
0.0
 11
258.4955090210164
 21
334.0307730524567
 31
0.0
 12
257.4955090210164
 22
340.0307730524567
 32
0.0
 13
257.4955090210164
 23
340.0307730524567
 33
0.0
  0
MTEXT
  5
31DD
330
2A2B
100
AcDbEntity
  8
AM_5
 62
     2
100
AcDbMText
 10
250.9955090210164
 20
314.5307690524567
 30
0.0
 40
7.0
 41
0.0
 46
0.0
 71
     5
 72
     1
  1
51
 11
0.0000000000000001
 21
1.0
 31
0.0
 73
     1
 44
1.0
  0
POINT
  5
31DE
330
2A2B
100
AcDbEntity
  8
Defpoints
 62
     0
100
AcDbPoint
 10
215.6503625419272
 20
289.0307650524567
 30
0.0
  0
POINT
  5
31DF
330
2A2B
100
AcDbEntity
  8
Defpoints
 62
     0
100
AcDbPoint
 10
215.6326645419272
 20
340.0307730524567
 30
0.0
  0
POINT
  5
31E0
330
2A2B
100
AcDbEntity
  8
Defpoints
 62
     0
100
AcDbPoint
 10
257.4955090210164
 20
340.0307730524567
 30
0.0
  0
ENDBLK
  5
2A36
330
2A2B
100
AcDbEntity
  8
0
100
AcDbBlockEnd
  0
BLOCK
  5
2A5D
330
2A53
100
AcDbEntity
  8
0
100
AcDbBlockBegin
  2
*D26
 70
     1
 10
0.0
 20
0.0
 30
0.0
  3
*D26
  1

  0
LINE
  5
31BC
330
2A53
100
AcDbEntity
  8
AM_5
100
AcDbLine
 10
178.6326565419271
 20
110.0307610524566
 30
0.0
 11
277.6168877663996
 21
110.0307610524566
 31
0.0
  0
LINE
  5
31BD
330
2A53
100
AcDbEntity
  8
AM_5
100
AcDbLine
 10
215.6326645419271
 20
150.0307470524566
 30
0.0
 11
277.6168877663997
 21
150.0307470524566
 31
0.0
  0
LINE
  5
31BE
330
2A53
100
AcDbEntity
  8
AM_5
100
AcDbLine
 10
275.6168877663996
 20
116.0307610524566
 30
0.0
 11
275.6168877663997
 21
144.0307470524565
 31
0.0
  0
SOLID
  5
31BF
330
2A53
100
AcDbEntity
  8
AM_5
100
AcDbTrace
 10
274.6168877663996
 20
116.0307610524566
 30
0.0
 11
276.6168877663996
 21
116.0307610524566
 31
0.0
 12
275.6168877663996
 22
110.0307610524566
 32
0.0
 13
275.6168877663996
 23
110.0307610524566
 33
0.0
  0
SOLID
  5
31C0
330
2A53
100
AcDbEntity
  8
AM_5
100
AcDbTrace
 10
274.6168877663996
 20
144.0307470524565
 30
0.0
 11
276.6168877663996
 21
144.0307470524565
 31
0.0
 12
275.6168877663997
 22
150.0307470524566
 32
0.0
 13
275.6168877663997
 23
150.0307470524566
 33
0.0
  0
MTEXT
  5
31C1
330
2A53
100
AcDbEntity
  8
AM_5
 62
     2
100
AcDbMText
 10
269.1168877663996
 20
130.0307540524566
 30
0.0
 40
7.0
 41
0.0
 46
0.0
 71
     5
 72
     1
  1
40
 11
0.0000000000000001
 21
1.0
 31
0.0
 73
     1
 44
1.0
  0
POINT
  5
31C2
330
2A53
100
AcDbEntity
  8
Defpoints
 62
     0
100
AcDbPoint
 10
178.6326565419271
 20
110.0307610524566
 30
0.0
  0
POINT
  5
31C3
330
2A53
100
AcDbEntity
  8
Defpoints
 62
     0
100
AcDbPoint
 10
215.6326645419271
 20
150.0307470524566
 30
0.0
  0
POINT
  5
31C4
330
2A53
100
AcDbEntity
  8
Defpoints
 62
     0
100
AcDbPoint
 10
275.6168877663997
 20
150.0307470524566
 30
0.0
  0
ENDBLK
  5
2A5E
330
2A53
100
AcDbEntity
  8
0
100
AcDbBlockEnd
  0
BLOCK
  5
2AF1
330
2AE7
100
AcDbEntity
  8
0
100
AcDbBlockBegin
  2
*D27
 70
     1
 10
0.0
 20
0.0
 30
0.0
  3
*D27
  1

  0
LINE
  5
318E
330
2AE7
100
AcDbEntity
  8
AM_5
100
AcDbLine
 10
215.6326645419271
 20
150.0307470524566
 30
0.0
 11
277.6168877663997
 21
150.0307470524566
 31
0.0
  0
LINE
  5
318F
330
2AE7
100
AcDbEntity
  8
AM_5
100
AcDbLine
 10
215.6326665419272
 20
340.0307730524567
 30
0.0
 11
277.6168877663997
 21
340.0307730524567
 31
0.0
  0
LINE
  5
3190
330
2AE7
100
AcDbEntity
  8
AM_5
100
AcDbLine
 10
275.6168877663997
 20
156.0307470524566
 30
0.0
 11
275.6168877663997
 21
334.0307730524567
 31
0.0
  0
SOLID
  5
3191
330
2AE7
100
AcDbEntity
  8
AM_5
100
AcDbTrace
 10
274.6168877663996
 20
156.0307470524566
 30
0.0
 11
276.6168877663996
 21
156.0307470524566
 31
0.0
 12
275.6168877663997
 22
150.0307470524566
 32
0.0
 13
275.6168877663997
 23
150.0307470524566
 33
0.0
  0
SOLID
  5
3192
330
2AE7
100
AcDbEntity
  8
AM_5
100
AcDbTrace
 10
274.6168877663996
 20
334.0307730524567
 30
0.0
 11
276.6168877663996
 21
334.0307730524567
 31
0.0
 12
275.6168877663997
 22
340.0307730524567
 32
0.0
 13
275.6168877663997
 23
340.0307730524567
 33
0.0
  0
MTEXT
  5
3193
330
2AE7
100
AcDbEntity
  8
AM_5
 62
     2
100
AcDbMText
 10
269.1168877663996
 20
244.8217218776885
 30
0.0
 40
7.0
 41
0.0
 46
0.0
 71
     5
 72
     1
  1
190
 11
0.0000000000000001
 21
1.0
 31
0.0
 73
     1
 44
1.0
  0
POINT
  5
3194
330
2AE7
100
AcDbEntity
  8
Defpoints
 62
     0
100
AcDbPoint
 10
215.6326645419271
 20
150.0307470524566
 30
0.0
  0
POINT
  5
3195
330
2AE7
100
AcDbEntity
  8
Defpoints
 62
     0
100
AcDbPoint
 10
215.6326665419272
 20
340.0307730524567
 30
0.0
  0
POINT
  5
3196
330
2AE7
100
AcDbEntity
  8
Defpoints
 62
     0
100
AcDbPoint
 10
275.6168877663997
 20
340.0307730524567
 30
0.0
  0
ENDBLK
  5
2AF2
330
2AE7
100
AcDbEntity
  8
0
100
AcDbBlockEnd
  0
BLOCK
  5
2B0D
330
2B03
100
AcDbEntity
  8
0
100
AcDbBlockBegin
  2
*D28
 70
     1
 10
0.0
 20
0.0
 30
0.0
  3
*D28
  1

  0
LINE
  5
31B3
330
2B03
100
AcDbEntity
  8
AM_5
100
AcDbLine
 10
215.6326665419272
 20
340.0307730524567
 30
0.0
 11
277.6168877663997
 21
340.0307730524567
 31
0.0
  0
LINE
  5
31B4
330
2B03
100
AcDbEntity
  8
AM_5
100
AcDbLine
 10
178.6326565419271
 20
380.0307430524566
 30
0.0
 11
277.6168877663997
 21
380.0307430524566
 31
0.0
  0
LINE
  5
31B5
330
2B03
100
AcDbEntity
  8
AM_5
100
AcDbLine
 10
275.6168877663997
 20
346.0307730524566
 30
0.0
 11
275.6168877663997
 21
374.0307430524566
 31
0.0
  0
SOLID
  5
31B6
330
2B03
100
AcDbEntity
  8
AM_5
100
AcDbTrace
 10
274.6168877663996
 20
346.0307730524566
 30
0.0
 11
276.6168877663996
 21
346.0307730524566
 31
0.0
 12
275.6168877663997
 22
340.0307730524567
 32
0.0
 13
275.6168877663997
 23
340.0307730524567
 33
0.0
  0
SOLID
  5
31B7
330
2B03
100
AcDbEntity
  8
AM_5
100
AcDbTrace
 10
274.6168877663996
 20
374.0307430524566
 30
0.0
 11
276.6168877663996
 21
374.0307430524566
 31
0.0
 12
275.6168877663997
 22
380.0307430524566
 32
0.0
 13
275.6168877663997
 23
380.0307430524566
 33
0.0
  0
MTEXT
  5
31B8
330
2B03
100
AcDbEntity
  8
AM_5
 62
     2
100
AcDbMText
 10
269.1168877663996
 20
360.0307580524567
 30
0.0
 40
7.0
 41
0.0
 46
0.0
 71
     5
 72
     1
  1
40
 11
0.0000000000000001
 21
1.0
 31
0.0
 73
     1
 44
1.0
  0
POINT
  5
31B9
330
2B03
100
AcDbEntity
  8
Defpoints
 62
     0
100
AcDbPoint
 10
215.6326665419272
 20
340.0307730524567
 30
0.0
  0
POINT
  5
31BA
330
2B03
100
AcDbEntity
  8
Defpoints
 62
     0
100
AcDbPoint
 10
178.6326565419271
 20
380.0307430524566
 30
0.0
  0
POINT
  5
31BB
330
2B03
100
AcDbEntity
  8
Defpoints
 62
     0
100
AcDbPoint
 10
275.6168877663997
 20
380.0307430524566
 30
0.0
  0
ENDBLK
  5
2B0E
330
2B03
100
AcDbEntity
  8
0
100
AcDbBlockEnd
  0
BLOCK
  5
2B35
330
2B2B
100
AcDbEntity
  8
0
100
AcDbBlockBegin
  2
*D29
 70
     1
 10
0.0
 20
0.0
 30
0.0
  3
*D29
  1

  0
LINE
  5
2BB5
330
2B2B
100
AcDbEntity
  8
AM_5
100
AcDbLine
 10
368.5076425419271
 20
364.0308030524567
 30
0.0
 11
325.3928067199642
 21
364.0308030524567
 31
0.0
  0
LINE
  5
2BB6
330
2B2B
100
AcDbEntity
  8
AM_5
100
AcDbLine
 10
368.5076425419271
 20
126.0307650524566
 30
0.0
 11
325.3928067199641
 21
126.0307650524566
 31
0.0
  0
LINE
  5
2BB7
330
2B2B
100
AcDbEntity
  8
AM_5
100
AcDbLine
 10
327.3928067199642
 20
358.0308030524567
 30
0.0
 11
327.3928067199642
 21
132.0307650524566
 31
0.0
  0
SOLID
  5
2BB8
330
2B2B
100
AcDbEntity
  8
AM_5
100
AcDbTrace
 10
326.3928067199641
 20
358.0308030524567
 30
0.0
 11
328.3928067199641
 21
358.0308030524567
 31
0.0
 12
327.3928067199642
 22
364.0308030524567
 32
0.0
 13
327.3928067199642
 23
364.0308030524567
 33
0.0
  0
SOLID
  5
2BB9
330
2B2B
100
AcDbEntity
  8
AM_5
100
AcDbTrace
 10
326.3928067199641
 20
132.0307650524566
 30
0.0
 11
328.3928067199641
 21
132.0307650524566
 31
0.0
 12
327.3928067199641
 22
126.0307650524566
 32
0.0
 13
327.3928067199641
 23
126.0307650524566
 33
0.0
  0
MTEXT
  5
2BBA
330
2B2B
100
AcDbEntity
  8
AM_5
 62
     2
100
AcDbMText
 10
320.8921177435862
 20
245.0307840524567
 30
0.0
 40
7.0
 41
0.0
 46
0.0
 71
     5
 72
     1
  1
238
 11
0.0000000000000001
 21
1.0
 31
0.0
 73
     1
 44
1.0
  0
POINT
  5
2BBB
330
2B2B
100
AcDbEntity
  8
Defpoints
 62
     0
100
AcDbPoint
 10
368.5076425419271
 20
364.0308030524567
 30
0.0
  0
POINT
  5
2BBC
330
2B2B
100
AcDbEntity
  8
Defpoints
 62
     0
100
AcDbPoint
 10
368.5076425419271
 20
126.0307650524566
 30
0.0
  0
POINT
  5
2BBD
330
2B2B
100
AcDbEntity
  8
Defpoints
 62
     0
100
AcDbPoint
 10
327.3928067199641
 20
126.0307650524566
 30
0.0
  0
ENDBLK
  5
2B36
330
2B2B
100
AcDbEntity
  8
0
100
AcDbBlockEnd
  0
BLOCK
  5
2BCB
330
2BBF
100
AcDbEntity
  8
0
100
AcDbBlockBegin
  2
*D30
 70
     1
 10
0.0
 20
0.0
 30
0.0
  3
*D30
  1

  0
LINE
  5
2BCD
330
2BBF
100
AcDbEntity
  8
AM_5
100
AcDbLine
 10
368.5076425419271
 20
126.0307650524566
 30
0.0
 11
325.3928067199641
 21
126.0307650524566
 31
0.0
  0
LINE
  5
2BCE
330
2BBF
100
AcDbEntity
  8
AM_5
100
AcDbLine
 10
366.6326425419271
 20
110.0307650524566
 30
0.0
 11
325.3928067199641
 21
110.0307650524566
 31
0.0
  0
LINE
  5
2BCF
330
2BBF
100
AcDbEntity
  8
AM_5
100
AcDbLine
 10
327.3928067199642
 20
132.0307650524566
 30
0.0
 11
327.3928067199642
 21
138.0307650524566
 31
0.0
  0
LINE
  5
2BD0
330
2BBF
100
AcDbEntity
  8
AM_5
100
AcDbLine
 10
327.3928067199641
 20
104.0307650524566
 30
0.0
 11
327.3928067199641
 21
98.03076505245666
 31
0.0
  0
LINE
  5
2BD1
330
2BBF
100
AcDbEntity
  8
AM_5
100
AcDbLine
 10
327.3928067199641
 20
126.0307650524566
 30
0.0
 11
327.3928067199641
 21
110.0307650524566
 31
0.0
  0
SOLID
  5
2BD2
330
2BBF
100
AcDbEntity
  8
AM_5
100
AcDbTrace
 10
326.3928067199641
 20
132.0307650524566
 30
0.0
 11
328.3928067199641
 21
132.0307650524566
 31
0.0
 12
327.3928067199641
 22
126.0307650524566
 32
0.0
 13
327.3928067199641
 23
126.0307650524566
 33
0.0
  0
SOLID
  5
2BD3
330
2BBF
100
AcDbEntity
  8
AM_5
100
AcDbTrace
 10
326.3928067199641
 20
104.0307650524566
 30
0.0
 11
328.3928067199641
 21
104.0307650524566
 31
0.0
 12
327.3928067199641
 22
110.0307650524566
 32
0.0
 13
327.3928067199641
 23
110.0307650524566
 33
0.0
  0
MTEXT
  5
2BD4
330
2BBF
100
AcDbEntity
  8
AM_5
 62
     2
100
AcDbMText
 10
320.8928067199641
 20
118.0307650524567
 30
0.0
 40
7.0
 41
0.0
 46
0.0
 71
     5
 72
     1
  1
16
 11
0.0000000000000001
 21
1.0
 31
0.0
 73
     1
 44
1.0
  0
POINT
  5
2BD5
330
2BBF
100
AcDbEntity
  8
Defpoints
 62
     0
100
AcDbPoint
 10
368.5076425419271
 20
126.0307650524566
 30
0.0
  0
POINT
  5
2BD6
330
2BBF
100
AcDbEntity
  8
Defpoints
 62
     0
100
AcDbPoint
 10
366.6326425419271
 20
110.0307650524566
 30
0.0
  0
POINT
  5
2BD7
330
2BBF
100
AcDbEntity
  8
Defpoints
 62
     0
100
AcDbPoint
 10
327.3928067199641
 20
110.0307650524566
 30
0.0
  0
ENDBLK
  5
2BCC
330
2BBF
100
AcDbEntity
  8
0
100
AcDbBlockEnd
  0
BLOCK
  5
2BEF
330
2BE3
100
AcDbEntity
  8
0
100
AcDbBlockBegin
  2
*D31
 70
     1
 10
0.0
 20
0.0
 30
0.0
  3
*D31
  1

  0
LINE
  5
2C12
330
2BE3
100
AcDbEntity
  8
AM_5
100
AcDbLine
 10
384.6326265419272
 20
110.0307650524566
 30
0.0
 11
384.6326265419272
 21
84.03076405245663
 31
0.0
  0
LINE
  5
2C13
330
2BE3
100
AcDbEntity
  8
AM_5
100
AcDbLine
 10
366.6326425419271
 20
110.0307650524566
 30
0.0
 11
366.6326425419271
 21
84.03076405245663
 31
0.0
  0
LINE
  5
2C14
330
2BE3
100
AcDbEntity
  8
AM_5
100
AcDbLine
 10
390.6326265419271
 20
86.03076405245664
 30
0.0
 11
396.6326265419271
 21
86.03076405245664
 31
0.0
  0
LINE
  5
2C15
330
2BE3
100
AcDbEntity
  8
AM_5
100
AcDbLine
 10
360.6326425419271
 20
86.03076405245664
 30
0.0
 11
354.6326425419271
 21
86.03076405245664
 31
0.0
  0
LINE
  5
2C16
330
2BE3
100
AcDbEntity
  8
AM_5
100
AcDbLine
 10
384.6326265419272
 20
86.03076405245664
 30
0.0
 11
366.6326425419271
 21
86.03076405245664
 31
0.0
  0
SOLID
  5
2C17
330
2BE3
100
AcDbEntity
  8
AM_5
100
AcDbTrace
 10
390.6326265419271
 20
87.03076405245663
 30
0.0
 11
390.6326265419271
 21
85.03076405245662
 31
0.0
 12
384.6326265419272
 22
86.03076405245664
 32
0.0
 13
384.6326265419272
 23
86.03076405245664
 33
0.0
  0
SOLID
  5
2C18
330
2BE3
100
AcDbEntity
  8
AM_5
100
AcDbTrace
 10
360.6326425419271
 20
87.03076405245663
 30
0.0
 11
360.6326425419271
 21
85.03076405245662
 31
0.0
 12
366.6326425419271
 22
86.03076405245664
 32
0.0
 13
366.6326425419271
 23
86.03076405245664
 33
0.0
  0
MTEXT
  5
2C19
330
2BE3
100
AcDbEntity
  8
AM_5
 62
     2
100
AcDbMText
 10
375.6326345419271
 20
92.53076405245662
 30
0.0
 40
7.0
 41
0.0
 46
0.0
 71
     5
 72
     1
  1
18
 73
     1
 44
1.0
  0
POINT
  5
2C1A
330
2BE3
100
AcDbEntity
  8
Defpoints
 62
     0
100
AcDbPoint
 10
384.6326265419272
 20
110.0307650524566
 30
0.0
  0
POINT
  5
2C1B
330
2BE3
100
AcDbEntity
  8
Defpoints
 62
     0
100
AcDbPoint
 10
366.6326425419271
 20
110.0307650524566
 30
0.0
  0
POINT
  5
2C1C
330
2BE3
100
AcDbEntity
  8
Defpoints
 62
     0
100
AcDbPoint
 10
366.6326425419271
 20
86.03076405245664
 30
0.0
  0
ENDBLK
  5
2BF0
330
2BE3
100
AcDbEntity
  8
0
100
AcDbBlockEnd
  0
BLOCK
  5
2C3C
330
2C30
100
AcDbEntity
  8
0
100
AcDbBlockBegin
  2
*D32
 70
     1
 10
0.0
 20
0.0
 30
0.0
  3
*D32
  1

  0
LINE
  5
2C5F
330
2C30
100
AcDbEntity
  8
AM_5
100
AcDbLine
 10
373.1326425419271
 20
126.0307650524566
 30
0.0
 11
373.1326425419271
 21
152.0307650524566
 31
0.0
  0
LINE
  5
2C60
330
2C30
100
AcDbEntity
  8
AM_5
100
AcDbLine
 10
378.1326425419271
 20
126.0307650524566
 30
0.0
 11
378.1326425419271
 21
152.0307650524566
 31
0.0
  0
LINE
  5
2C61
330
2C30
100
AcDbEntity
  8
AM_5
100
AcDbLine
 10
367.1326425419271
 20
150.0307650524566
 30
0.0
 11
361.1326425419271
 21
150.0307650524566
 31
0.0
  0
LINE
  5
2C62
330
2C30
100
AcDbEntity
  8
AM_5
100
AcDbLine
 10
384.1326425419271
 20
150.0307650524566
 30
0.0
 11
399.2225920355883
 21
150.0307650524566
 31
0.0
  0
LINE
  5
2C63
330
2C30
100
AcDbEntity
  8
AM_5
100
AcDbLine
 10
373.1326425419271
 20
150.0307650524566
 30
0.0
 11
378.1326425419271
 21
150.0307650524566
 31
0.0
  0
SOLID
  5
2C64
330
2C30
100
AcDbEntity
  8
AM_5
100
AcDbTrace
 10
367.1326425419271
 20
151.0307650524566
 30
0.0
 11
367.1326425419271
 21
149.0307650524566
 31
0.0
 12
373.1326425419271
 22
150.0307650524566
 32
0.0
 13
373.1326425419271
 23
150.0307650524566
 33
0.0
  0
SOLID
  5
2C65
330
2C30
100
AcDbEntity
  8
AM_5
100
AcDbTrace
 10
384.1326425419271
 20
151.0307650524566
 30
0.0
 11
384.1326425419271
 21
149.0307650524566
 31
0.0
 12
378.1326425419271
 22
150.0307650524566
 32
0.0
 13
378.1326425419271
 23
150.0307650524566
 33
0.0
  0
MTEXT
  5
2C66
330
2C30
100
AcDbEntity
  8
AM_5
 62
     2
100
AcDbMText
 10
394.6776172887577
 20
156.5307650524566
 30
0.0
 40
7.0
 41
0.0
 46
0.0
 71
     5
 72
     1
  1
5
 73
     1
 44
1.0
  0
POINT
  5
2C67
330
2C30
100
AcDbEntity
  8
Defpoints
 62
     0
100
AcDbPoint
 10
373.1326425419271
 20
126.0307650524566
 30
0.0
  0
POINT
  5
2C68
330
2C30
100
AcDbEntity
  8
Defpoints
 62
     0
100
AcDbPoint
 10
378.1326425419271
 20
126.0307650524566
 30
0.0
  0
POINT
  5
2C69
330
2C30
100
AcDbEntity
  8
Defpoints
 62
     0
100
AcDbPoint
 10
378.1326425419271
 20
150.0307650524566
 30
0.0
  0
ENDBLK
  5
2C3D
330
2C30
100
AcDbEntity
  8
0
100
AcDbBlockEnd
  0
BLOCK
  5
2C85
330
2C79
100
AcDbEntity
  8
0
100
AcDbBlockBegin
  2
*D33
 70
     1
 10
0.0
 20
0.0
 30
0.0
  3
*D33
  1

  0
LINE
  5
2CA8
330
2C79
100
AcDbEntity
  8
AM_5
100
AcDbLine
 10
370.8826425419271
 20
126.0307650524566
 30
0.0
 11
370.8826425419271
 21
172.0307650524566
 31
0.0
  0
LINE
  5
2CA9
330
2C79
100
AcDbEntity
  8
AM_5
100
AcDbLine
 10
380.3826425419271
 20
126.0307650524566
 30
0.0
 11
380.3826425419271
 21
172.0307650524566
 31
0.0
  0
LINE
  5
2CAA
330
2C79
100
AcDbEntity
  8
AM_5
100
AcDbLine
 10
364.8826425419271
 20
170.0307650524566
 30
0.0
 11
358.8826425419271
 21
170.0307650524566
 31
0.0
  0
LINE
  5
2CAB
330
2C79
100
AcDbEntity
  8
AM_5
100
AcDbLine
 10
386.3826425419271
 20
170.0307650524566
 30
0.0
 11
408.7625415292494
 21
170.0307650524566
 31
0.0
  0
LINE
  5
2CAC
330
2C79
100
AcDbEntity
  8
AM_5
100
AcDbLine
 10
370.8826425419271
 20
170.0307650524566
 30
0.0
 11
380.3826425419271
 21
170.0307650524566
 31
0.0
  0
SOLID
  5
2CAD
330
2C79
100
AcDbEntity
  8
AM_5
100
AcDbTrace
 10
364.8826425419271
 20
171.0307650524566
 30
0.0
 11
364.8826425419271
 21
169.0307650524566
 31
0.0
 12
370.8826425419271
 22
170.0307650524566
 32
0.0
 13
370.8826425419271
 23
170.0307650524566
 33
0.0
  0
SOLID
  5
2CAE
330
2C79
100
AcDbEntity
  8
AM_5
100
AcDbTrace
 10
386.3826425419271
 20
171.0307650524566
 30
0.0
 11
386.3826425419271
 21
169.0307650524566
 31
0.0
 12
380.3826425419271
 22
170.0307650524566
 32
0.0
 13
380.3826425419271
 23
170.0307650524566
 33
0.0
  0
MTEXT
  5
2CAF
330
2C79
100
AcDbEntity
  8
AM_5
 62
     2
100
AcDbMText
 10
400.5725920355883
 20
176.5307650524566
 30
0.0
 40
7.0
 41
0.0
 46
0.0
 71
     5
 72
     1
  1
9.5
 73
     1
 44
1.0
  0
POINT
  5
2CB0
330
2C79
100
AcDbEntity
  8
Defpoints
 62
     0
100
AcDbPoint
 10
370.8826425419271
 20
126.0307650524566
 30
0.0
  0
POINT
  5
2CB1
330
2C79
100
AcDbEntity
  8
Defpoints
 62
     0
100
AcDbPoint
 10
380.3826425419271
 20
126.0307650524566
 30
0.0
  0
POINT
  5
2CB2
330
2C79
100
AcDbEntity
  8
Defpoints
 62
     0
100
AcDbPoint
 10
380.3826425419271
 20
170.0307650524566
 30
0.0
  0
ENDBLK
  5
2C86
330
2C79
100
AcDbEntity
  8
0
100
AcDbBlockEnd
  0
BLOCK
  5
2CD2
330
2CC6
100
AcDbEntity
  8
0
100
AcDbBlockBegin
  2
*D34
 70
     1
 10
0.0
 20
0.0
 30
0.0
  3
*D34
  1

  0
LINE
  5
2DF4
330
2CC6
100
AcDbEntity
  8
AM_5
100
AcDbLine
 10
369.6326105419271
 20
257.6307630524566
 30
0.0
 11
369.6326105419271
 21
267.5654687020536
 31
0.0
  0
LINE
  5
2DF5
330
2CC6
100
AcDbEntity
  8
AM_5
100
AcDbLine
 10
378.0326365419271
 20
257.6307630524566
 30
0.0
 11
378.0326365419271
 21
267.5654687020536
 31
0.0
  0
LINE
  5
2DF6
330
2CC6
100
AcDbEntity
  8
AM_5
100
AcDbLine
 10
363.6326105419271
 20
265.5654687020536
 30
0.0
 11
357.6326105419271
 21
265.5654687020536
 31
0.0
  0
LINE
  5
2DF7
330
2CC6
100
AcDbEntity
  8
AM_5
100
AcDbLine
 10
384.0326365419271
 20
265.5654687020536
 30
0.0
 11
406.5326365419271
 21
265.5654687020536
 31
0.0
  0
LINE
  5
2DF8
330
2CC6
100
AcDbEntity
  8
AM_5
100
AcDbLine
 10
369.6326105419271
 20
265.5654687020536
 30
0.0
 11
378.0326365419271
 21
265.5654687020536
 31
0.0
  0
SOLID
  5
2DF9
330
2CC6
100
AcDbEntity
  8
AM_5
100
AcDbTrace
 10
363.6326105419271
 20
266.5654687020536
 30
0.0
 11
363.6326105419271
 21
264.5654687020536
 31
0.0
 12
369.6326105419271
 22
265.5654687020536
 32
0.0
 13
369.6326105419271
 23
265.5654687020536
 33
0.0
  0
SOLID
  5
2DFA
330
2CC6
100
AcDbEntity
  8
AM_5
100
AcDbTrace
 10
384.0326365419271
 20
266.5654687020536
 30
0.0
 11
384.0326365419271
 21
264.5654687020536
 31
0.0
 12
378.0326365419271
 22
265.5654687020536
 32
0.0
 13
378.0326365419271
 23
265.5654687020536
 33
0.0
  0
MTEXT
  5
2DFB
330
2CC6
100
AcDbEntity
  8
AM_5
 62
     2
100
AcDbMText
 10
398.2826365419271
 20
272.0654687020537
 30
0.0
 40
7.0
 41
0.0
 46
0.0
 71
     5
 72
     1
  1
8.4
 73
     1
 44
1.0
  0
POINT
  5
2DFC
330
2CC6
100
AcDbEntity
  8
Defpoints
 62
     0
100
AcDbPoint
 10
369.6326105419271
 20
257.6307630524566
 30
0.0
  0
POINT
  5
2DFD
330
2CC6
100
AcDbEntity
  8
Defpoints
 62
     0
100
AcDbPoint
 10
378.0326365419271
 20
257.6307630524566
 30
0.0
  0
POINT
  5
2DFE
330
2CC6
100
AcDbEntity
  8
Defpoints
 62
     0
100
AcDbPoint
 10
378.0326365419271
 20
265.5654687020536
 30
0.0
  0
ENDBLK
  5
2CD3
330
2CC6
100
AcDbEntity
  8
0
100
AcDbBlockEnd
  0
BLOCK
  5
2D1B
330
2D0F
100
AcDbEntity
  8
0
100
AcDbBlockBegin
  2
*D35
 70
     1
 10
0.0
 20
0.0
 30
0.0
  3
*D35
  1

  0
LINE
  5
2DE9
330
2D0F
100
AcDbEntity
  8
AM_5
100
AcDbLine
 10
369.6326105419271
 20
296.4307670524566
 30
0.0
 11
369.6326105419271
 21
280.1094874246486
 31
0.0
  0
LINE
  5
2DEA
330
2D0F
100
AcDbEntity
  8
AM_5
100
AcDbLine
 10
380.6326425419271
 20
298.9307670524567
 30
0.0
 11
380.6326425419271
 21
280.1094874246486
 31
0.0
  0
LINE
  5
2DEB
330
2D0F
100
AcDbEntity
  8
AM_5
100
AcDbLine
 10
363.6326105419271
 20
282.1094874246486
 30
0.0
 11
357.6326105419271
 21
282.1094874246486
 31
0.0
  0
LINE
  5
2DEC
330
2D0F
100
AcDbEntity
  8
AM_5
100
AcDbLine
 10
386.6326425419271
 20
282.1094874246486
 30
0.0
 11
392.6326425419271
 21
282.1094874246486
 31
0.0
  0
LINE
  5
2DED
330
2D0F
100
AcDbEntity
  8
AM_5
100
AcDbLine
 10
369.6326105419271
 20
282.1094874246486
 30
0.0
 11
380.6326425419271
 21
282.1094874246486
 31
0.0
  0
SOLID
  5
2DEE
330
2D0F
100
AcDbEntity
  8
AM_5
100
AcDbTrace
 10
363.6326105419271
 20
283.1094874246486
 30
0.0
 11
363.6326105419271
 21
281.1094874246486
 31
0.0
 12
369.6326105419271
 22
282.1094874246486
 32
0.0
 13
369.6326105419271
 23
282.1094874246486
 33
0.0
  0
SOLID
  5
2DEF
330
2D0F
100
AcDbEntity
  8
AM_5
100
AcDbTrace
 10
386.6326425419271
 20
283.1094874246486
 30
0.0
 11
386.6326425419271
 21
281.1094874246486
 31
0.0
 12
380.6326425419271
 22
282.1094874246486
 32
0.0
 13
380.6326425419271
 23
282.1094874246486
 33
0.0
  0
MTEXT
  5
2DF0
330
2D0F
100
AcDbEntity
  8
AM_5
 62
     2
100
AcDbMText
 10
375.1326265419271
 20
288.6094874246486
 30
0.0
 40
7.0
 41
0.0
 46
0.0
 71
     5
 72
     1
  1
11
 73
     1
 44
1.0
  0
POINT
  5
2DF1
330
2D0F
100
AcDbEntity
  8
Defpoints
 62
     0
100
AcDbPoint
 10
369.6326105419271
 20
296.4307670524566
 30
0.0
  0
POINT
  5
2DF2
330
2D0F
100
AcDbEntity
  8
Defpoints
 62
     0
100
AcDbPoint
 10
380.6326425419271
 20
298.9307670524567
 30
0.0
  0
POINT
  5
2DF3
330
2D0F
100
AcDbEntity
  8
Defpoints
 62
     0
100
AcDbPoint
 10
380.6326425419271
 20
282.1094874246486
 30
0.0
  0
ENDBLK
  5
2D1C
330
2D0F
100
AcDbEntity
  8
0
100
AcDbBlockEnd
  0
BLOCK
  5
2D64
330
2D58
100
AcDbEntity
  8
0
100
AcDbBlockBegin
  2
*D36
 70
     1
 10
0.0
 20
0.0
 30
0.0
  3
*D36
  1

  0
LINE
  5
2DDE
330
2D58
100
AcDbEntity
  8
AM_5
100
AcDbLine
 10
369.6326105419271
 20
326.6307790524566
 30
0.0
 11
369.6326105419271
 21
303.238988975964
 31
0.0
  0
LINE
  5
2DDF
330
2D58
100
AcDbEntity
  8
AM_5
100
AcDbLine
 10
366.6326425419271
 20
326.6307790524566
 30
0.0
 11
366.6326425419271
 21
303.238988975964
 31
0.0
  0
LINE
  5
2DE0
330
2D58
100
AcDbEntity
  8
AM_5
100
AcDbLine
 10
375.6326105419271
 20
305.238988975964
 30
0.0
 11
381.6326105419271
 21
305.238988975964
 31
0.0
  0
LINE
  5
2DE1
330
2D58
100
AcDbEntity
  8
AM_5
100
AcDbLine
 10
360.6326425419271
 20
305.238988975964
 30
0.0
 11
345.3383786534631
 21
305.238988975964
 31
0.0
  0
LINE
  5
2DE2
330
2D58
100
AcDbEntity
  8
AM_5
100
AcDbLine
 10
369.6326105419271
 20
305.238988975964
 30
0.0
 11
366.6326425419271
 21
305.238988975964
 31
0.0
  0
SOLID
  5
2DE3
330
2D58
100
AcDbEntity
  8
AM_5
100
AcDbTrace
 10
375.6326105419271
 20
306.2389889759641
 30
0.0
 11
375.6326105419271
 21
304.2389889759641
 31
0.0
 12
369.6326105419271
 22
305.238988975964
 32
0.0
 13
369.6326105419271
 23
305.238988975964
 33
0.0
  0
SOLID
  5
2DE4
330
2D58
100
AcDbEntity
  8
AM_5
100
AcDbTrace
 10
360.6326425419271
 20
306.2389889759641
 30
0.0
 11
360.6326425419271
 21
304.2389889759641
 31
0.0
 12
366.6326425419271
 22
305.238988975964
 32
0.0
 13
366.6326425419271
 23
305.238988975964
 33
0.0
  0
MTEXT
  5
2DE5
330
2D58
100
AcDbEntity
  8
AM_5
 62
     2
100
AcDbMText
 10
349.8833534002937
 20
311.738988975964
 30
0.0
 40
7.0
 41
0.0
 46
0.0
 71
     5
 72
     1
  1
3
 73
     1
 44
1.0
  0
POINT
  5
2DE6
330
2D58
100
AcDbEntity
  8
Defpoints
 62
     0
100
AcDbPoint
 10
369.6326105419271
 20
326.6307790524566
 30
0.0
  0
POINT
  5
2DE7
330
2D58
100
AcDbEntity
  8
Defpoints
 62
     0
100
AcDbPoint
 10
366.6326425419271
 20
326.6307790524566
 30
0.0
  0
POINT
  5
2DE8
330
2D58
100
AcDbEntity
  8
Defpoints
 62
     0
100
AcDbPoint
 10
366.6326425419271
 20
305.238988975964
 30
0.0
  0
ENDBLK
  5
2D65
330
2D58
100
AcDbEntity
  8
0
100
AcDbBlockEnd
  0
BLOCK
  5
2DAD
330
2DA1
100
AcDbEntity
  8
0
100
AcDbBlockBegin
  2
*D37
 70
     1
 10
0.0
 20
0.0
 30
0.0
  3
*D37
  1

  0
LINE
  5
2DFF
330
2DA1
100
AcDbEntity
  8
AM_5
100
AcDbLine
 10
369.6326425419271
 20
257.6307630524566
 30
0.0
 11
369.6326425419271
 21
229.1924591827478
 31
0.0
  0
LINE
  5
2E00
330
2DA1
100
AcDbEntity
  8
AM_5
100
AcDbLine
 10
366.6326425419271
 20
257.6307630524566
 30
0.0
 11
366.6326425419271
 21
229.1924591827478
 31
0.0
  0
LINE
  5
2E01
330
2DA1
100
AcDbEntity
  8
AM_5
100
AcDbLine
 10
375.6326425419271
 20
231.1924591827478
 30
0.0
 11
381.6326425419271
 21
231.1924591827478
 31
0.0
  0
LINE
  5
2E02
330
2DA1
100
AcDbEntity
  8
AM_5
100
AcDbLine
 10
360.6326425419271
 20
231.1924591827478
 30
0.0
 11
345.5426930482659
 21
231.1924591827478
 31
0.0
  0
LINE
  5
2E03
330
2DA1
100
AcDbEntity
  8
AM_5
100
AcDbLine
 10
369.6326425419271
 20
231.1924591827478
 30
0.0
 11
366.6326425419271
 21
231.1924591827478
 31
0.0
  0
SOLID
  5
2E04
330
2DA1
100
AcDbEntity
  8
AM_5
100
AcDbTrace
 10
375.6326425419271
 20
232.1924591827478
 30
0.0
 11
375.6326425419271
 21
230.1924591827478
 31
0.0
 12
369.6326425419271
 22
231.1924591827478
 32
0.0
 13
369.6326425419271
 23
231.1924591827478
 33
0.0
  0
SOLID
  5
2E05
330
2DA1
100
AcDbEntity
  8
AM_5
100
AcDbTrace
 10
360.6326425419271
 20
232.1924591827478
 30
0.0
 11
360.6326425419271
 21
230.1924591827478
 31
0.0
 12
366.6326425419271
 22
231.1924591827478
 32
0.0
 13
366.6326425419271
 23
231.1924591827478
 33
0.0
  0
MTEXT
  5
2E06
330
2DA1
100
AcDbEntity
  8
AM_5
 62
     2
100
AcDbMText
 10
350.0876677950965
 20
237.6924591827478
 30
0.0
 40
7.0
 41
0.0
 46
0.0
 71
     5
 72
     1
  1
3
 73
     1
 44
1.0
  0
POINT
  5
2E07
330
2DA1
100
AcDbEntity
  8
Defpoints
 62
     0
100
AcDbPoint
 10
369.6326425419271
 20
257.6307630524566
 30
0.0
  0
POINT
  5
2E08
330
2DA1
100
AcDbEntity
  8
Defpoints
 62
     0
100
AcDbPoint
 10
366.6326425419271
 20
257.6307630524566
 30
0.0
  0
POINT
  5
2E09
330
2DA1
100
AcDbEntity
  8
Defpoints
 62
     0
100
AcDbPoint
 10
366.6326425419271
 20
231.1924591827478
 30
0.0
  0
ENDBLK
  5
2DAE
330
2DA1
100
AcDbEntity
  8
0
100
AcDbBlockEnd
  0
BLOCK
  5
2E87
330
2E7B
100
AcDbEntity
  8
0
100
AcDbBlockBegin
  2
*D38
 70
     1
 10
0.0
 20
0.0
 30
0.0
  3
*D38
  1

  0
LINE
  5
2EAA
330
2E7B
100
AcDbEntity
  8
AM_5
100
AcDbLine
 10
175.6327185419271
 20
37.93072105245662
 30
0.0
 11
159.9447398922672
 21
37.93072105245662
 31
0.0
  0
LINE
  5
2EAB
330
2E7B
100
AcDbEntity
  8
AM_5
100
AcDbLine
 10
178.6326565419271
 20
37.43073705245661
 30
0.0
 11
159.9447398922672
 21
37.43073705245662
 31
0.0
  0
LINE
  5
2EAC
330
2E7B
100
AcDbEntity
  8
AM_5
100
AcDbLine
 10
161.9447398922672
 20
43.93072105245662
 30
0.0
 11
161.9447398922672
 21
49.93072105245662
 31
0.0
  0
LINE
  5
2EAD
330
2E7B
100
AcDbEntity
  8
AM_5
100
AcDbLine
 10
161.9447398922672
 20
31.43073705245662
 30
0.0
 11
161.9447398922672
 21
9.335275747771824
 31
0.0
  0
LINE
  5
2EAE
330
2E7B
100
AcDbEntity
  8
AM_5
100
AcDbLine
 10
161.9447398922672
 20
37.93072105245662
 30
0.0
 11
161.9447398922672
 21
37.43073705245662
 31
0.0
  0
SOLID
  5
2EAF
330
2E7B
100
AcDbEntity
  8
AM_5
100
AcDbTrace
 10
160.9447398922672
 20
43.93072105245662
 30
0.0
 11
162.9447398922672
 21
43.93072105245662
 31
0.0
 12
161.9447398922672
 22
37.93072105245662
 32
0.0
 13
161.9447398922672
 23
37.93072105245662
 33
0.0
  0
SOLID
  5
2EB0
330
2E7B
100
AcDbEntity
  8
AM_5
100
AcDbTrace
 10
160.9447398922672
 20
31.43073705245662
 30
0.0
 11
162.9447398922672
 21
31.43073705245662
 31
0.0
 12
161.9447398922672
 22
37.43073705245662
 32
0.0
 13
161.9447398922672
 23
37.43073705245662
 33
0.0
  0
MTEXT
  5
2EB1
330
2E7B
100
AcDbEntity
  8
AM_5
 62
     2
100
AcDbMText
 10
155.4447398922672
 20
17.38300640011424
 30
0.0
 40
7.0
 41
0.0
 46
0.0
 71
     5
 72
     1
  1
0.5
 11
0.0000000000000001
 21
1.0
 31
0.0
 73
     1
 44
1.0
  0
POINT
  5
2EB2
330
2E7B
100
AcDbEntity
  8
Defpoints
 62
     0
100
AcDbPoint
 10
175.6327185419271
 20
37.93072105245662
 30
0.0
  0
POINT
  5
2EB3
330
2E7B
100
AcDbEntity
  8
Defpoints
 62
     0
100
AcDbPoint
 10
178.6326565419271
 20
37.43073705245661
 30
0.0
  0
POINT
  5
2EB4
330
2E7B
100
AcDbEntity
  8
Defpoints
 62
     0
100
AcDbPoint
 10
161.9447398922672
 20
37.43073705245662
 30
0.0
  0
ENDBLK
  5
2E88
330
2E7B
100
AcDbEntity
  8
0
100
AcDbBlockEnd
  0
BLOCK
  5
2ED0
330
2EC4
100
AcDbEntity
  8
0
100
AcDbBlockBegin
  2
*D39
 70
     1
 10
0.0
 20
0.0
 30
0.0
  3
*D39
  1

  0
LINE
  5
2EF3
330
2EC4
100
AcDbEntity
  8
AM_5
100
AcDbLine
 10
175.6327185419271
 20
19.93076705245661
 30
0.0
 11
175.6327185419271
 21
4.130695067573356
 31
0.0
  0
LINE
  5
2EF4
330
2EC4
100
AcDbEntity
  8
AM_5
100
AcDbLine
 10
178.6326425419271
 20
19.93076705245661
 30
0.0
 11
178.6326425419271
 21
4.130695067573356
 31
0.0
  0
LINE
  5
2EF5
330
2EC4
100
AcDbEntity
  8
AM_5
100
AcDbLine
 10
169.6327185419271
 20
6.130695067573356
 30
0.0
 11
163.6327185419271
 21
6.130695067573356
 31
0.0
  0
LINE
  5
2EF6
330
2EC4
100
AcDbEntity
  8
AM_5
100
AcDbLine
 10
184.6326425419271
 20
6.130695067573356
 30
0.0
 11
199.7225920355882
 21
6.130695067573356
 31
0.0
  0
LINE
  5
2EF7
330
2EC4
100
AcDbEntity
  8
AM_5
100
AcDbLine
 10
175.6327185419271
 20
6.130695067573356
 30
0.0
 11
178.6326425419271
 21
6.130695067573356
 31
0.0
  0
SOLID
  5
2EF8
330
2EC4
100
AcDbEntity
  8
AM_5
100
AcDbTrace
 10
169.6327185419271
 20
7.130695067573356
 30
0.0
 11
169.6327185419271
 21
5.130695067573356
 31
0.0
 12
175.6327185419271
 22
6.130695067573356
 32
0.0
 13
175.6327185419271
 23
6.130695067573356
 33
0.0
  0
SOLID
  5
2EF9
330
2EC4
100
AcDbEntity
  8
AM_5
100
AcDbTrace
 10
184.6326425419271
 20
7.130695067573356
 30
0.0
 11
184.6326425419271
 21
5.130695067573356
 31
0.0
 12
178.6326425419271
 22
6.130695067573356
 32
0.0
 13
178.6326425419271
 23
6.130695067573356
 33
0.0
  0
MTEXT
  5
2EFA
330
2EC4
100
AcDbEntity
  8
AM_5
 62
     2
100
AcDbMText
 10
195.1776172887576
 20
12.63069506757335
 30
0.0
 40
7.0
 41
0.0
 46
0.0
 71
     5
 72
     1
  1
3
 73
     1
 44
1.0
  0
POINT
  5
2EFB
330
2EC4
100
AcDbEntity
  8
Defpoints
 62
     0
100
AcDbPoint
 10
175.6327185419271
 20
19.93076705245661
 30
0.0
  0
POINT
  5
2EFC
330
2EC4
100
AcDbEntity
  8
Defpoints
 62
     0
100
AcDbPoint
 10
178.6326425419271
 20
19.93076705245661
 30
0.0
  0
POINT
  5
2EFD
330
2EC4
100
AcDbEntity
  8
Defpoints
 62
     0
100
AcDbPoint
 10
178.6326425419271
 20
6.130695067573356
 30
0.0
  0
ENDBLK
  5
2ED1
330
2EC4
100
AcDbEntity
  8
0
100
AcDbBlockEnd
  0
BLOCK
  5
2F15
330
2F09
100
AcDbEntity
  8
0
100
AcDbBlockBegin
  2
*D40
 70
     1
 10
0.0
 20
0.0
 30
0.0
  3
*D40
  1

  0
LINE
  5
2F47
330
2F09
100
AcDbEntity
  8
AM_5
100
AcDbLine
 10
225.6326685419271
 20
23.83079105245662
 30
0.0
 11
240.9005415143589
 21
23.83079105245661
 31
0.0
  0
LINE
  5
2F48
330
2F09
100
AcDbEntity
  8
AM_5
100
AcDbLine
 10
225.6326685419271
 20
37.43073705245661
 30
0.0
 11
240.9005415143589
 21
37.4307370524566
 31
0.0
  0
LINE
  5
2F49
330
2F09
100
AcDbEntity
  8
AM_5
100
AcDbLine
 10
238.9005415143589
 20
17.83079105245661
 30
0.0
 11
238.9005415143589
 21
11.83079105245661
 31
0.0
  0
LINE
  5
2F4A
330
2F09
100
AcDbEntity
  8
AM_5
100
AcDbLine
 10
238.9005415143589
 20
43.4307370524566
 30
0.0
 11
238.9005415143589
 21
49.43073705245661
 31
0.0
  0
LINE
  5
2F4B
330
2F09
100
AcDbEntity
  8
AM_5
100
AcDbLine
 10
238.9005415143589
 20
23.83079105245661
 30
0.0
 11
238.9005415143589
 21
37.43073705245661
 31
0.0
  0
SOLID
  5
2F4C
330
2F09
100
AcDbEntity
  8
AM_5
100
AcDbTrace
 10
237.9005415143589
 20
17.83079105245661
 30
0.0
 11
239.9005415143589
 21
17.83079105245661
 31
0.0
 12
238.9005415143589
 22
23.83079105245661
 32
0.0
 13
238.9005415143589
 23
23.83079105245661
 33
0.0
  0
SOLID
  5
2F4D
330
2F09
100
AcDbEntity
  8
AM_5
100
AcDbTrace
 10
237.9005415143589
 20
43.4307370524566
 30
0.0
 11
239.9005415143589
 21
43.4307370524566
 31
0.0
 12
238.9005415143589
 22
37.43073705245661
 32
0.0
 13
238.9005415143589
 23
37.43073705245661
 33
0.0
  0
MTEXT
  5
2F4E
330
2F09
100
AcDbEntity
  8
AM_5
 62
     2
100
AcDbMText
 10
232.4005415143589
 20
30.63076405245665
 30
0.0
 40
7.0
 41
0.0
 46
0.0
 71
     5
 72
     1
  1
14
 11
0.0000000000000001
 21
1.0
 31
0.0
 73
     1
 44
1.0
  0
POINT
  5
2F4F
330
2F09
100
AcDbEntity
  8
Defpoints
 62
     0
100
AcDbPoint
 10
225.6326685419271
 20
23.83079105245662
 30
0.0
  0
POINT
  5
2F50
330
2F09
100
AcDbEntity
  8
Defpoints
 62
     0
100
AcDbPoint
 10
225.6326685419271
 20
37.43073705245661
 30
0.0
  0
POINT
  5
2F51
330
2F09
100
AcDbEntity
  8
Defpoints
 62
     0
100
AcDbPoint
 10
238.9005415143589
 20
37.43073705245661
 30
0.0
  0
ENDBLK
  5
2F16
330
2F09
100
AcDbEntity
  8
0
100
AcDbBlockEnd
  0
BLOCK
  5
3039
330
302D
100
AcDbEntity
  8
0
100
AcDbBlockBegin
  2
*D41
 70
     1
 10
0.0
 20
0.0
 30
0.0
  3
*D41
  1

  0
LINE
  5
3130
330
302D
100
AcDbEntity
  8
AM_5
100
AcDbLine
 10
201.6326465419271
 20
293.0307730524567
 30
0.0
 11
201.6326465419271
 21
312.7023708154054
 31
0.0
  0
LINE
  5
3131
330
302D
100
AcDbEntity
  8
AM_5
100
AcDbLine
 10
209.6326625419271
 20
293.0307730524567
 30
0.0
 11
209.6326625419271
 21
312.7023708154054
 31
0.0
  0
LINE
  5
3132
330
302D
100
AcDbEntity
  8
AM_5
100
AcDbLine
 10
195.6326465419271
 20
310.7023708154054
 30
0.0
 11
189.6326465419271
 21
310.7023708154054
 31
0.0
  0
LINE
  5
3133
330
302D
100
AcDbEntity
  8
AM_5
100
AcDbLine
 10
215.6326625419271
 20
310.7023708154054
 30
0.0
 11
221.6326625419271
 21
310.7023708154054
 31
0.0
  0
LINE
  5
3134
330
302D
100
AcDbEntity
  8
AM_5
100
AcDbLine
 10
201.6326465419271
 20
310.7023708154054
 30
0.0
 11
209.6326625419271
 21
310.7023708154054
 31
0.0
  0
SOLID
  5
3135
330
302D
100
AcDbEntity
  8
AM_5
100
AcDbTrace
 10
195.6326465419271
 20
311.7023708154054
 30
0.0
 11
195.6326465419271
 21
309.7023708154054
 31
0.0
 12
201.6326465419271
 22
310.7023708154054
 32
0.0
 13
201.6326465419271
 23
310.7023708154054
 33
0.0
  0
SOLID
  5
3136
330
302D
100
AcDbEntity
  8
AM_5
100
AcDbTrace
 10
215.6326625419271
 20
311.7023708154054
 30
0.0
 11
215.6326625419271
 21
309.7023708154054
 31
0.0
 12
209.6326625419271
 22
310.7023708154054
 32
0.0
 13
209.6326625419271
 23
310.7023708154054
 33
0.0
  0
MTEXT
  5
3137
330
302D
100
AcDbEntity
  8
AM_5
 62
     2
100
AcDbMText
 10
205.6326545419271
 20
317.2023708154054
 30
0.0
 40
7.0
 41
0.0
 46
0.0
 71
     5
 72
     1
  1
8
 73
     1
 44
1.0
  0
POINT
  5
3138
330
302D
100
AcDbEntity
  8
Defpoints
 62
     0
100
AcDbPoint
 10
201.6326465419271
 20
293.0307730524567
 30
0.0
  0
POINT
  5
3139
330
302D
100
AcDbEntity
  8
Defpoints
 62
     0
100
AcDbPoint
 10
209.6326625419271
 20
293.0307730524567
 30
0.0
  0
POINT
  5
313A
330
302D
100
AcDbEntity
  8
Defpoints
 62
     0
100
AcDbPoint
 10
209.6326625419271
 20
310.7023708154054
 30
0.0
  0
ENDBLK
  5
303A
330
302D
100
AcDbEntity
  8
0
100
AcDbBlockEnd
  0
BLOCK
  5
30A8
330
309C
100
AcDbEntity
  8
0
100
AcDbBlockBegin
  2
*D42
 70
     1
 10
0.0
 20
0.0
 30
0.0
  3
*D42
  1

  0
LINE
  5
30D9
330
309C
100
AcDbEntity
  8
AM_5
100
AcDbLine
 10
165.6318105419271
 20
225.5307430524566
 30
0.0
 11
165.6318105419271
 21
200.9049841685744
 31
0.0
  0
LINE
  5
30DA
330
309C
100
AcDbEntity
  8
AM_5
100
AcDbLine
 10
175.6318145419271
 20
225.5307430524566
 30
0.0
 11
175.6318145419271
 21
200.9049841685744
 31
0.0
  0
LINE
  5
30DB
330
309C
100
AcDbEntity
  8
AM_5
100
AcDbLine
 10
181.6318145419271
 20
202.9049841685744
 30
0.0
 11
187.6318145419271
 21
202.9049841685744
 31
0.0
  0
LINE
  5
30DC
330
309C
100
AcDbEntity
  8
AM_5
100
AcDbLine
 10
159.6318105419271
 20
202.9049841685744
 30
0.0
 11
141.3262987309035
 21
202.9049841685744
 31
0.0
  0
LINE
  5
30DD
330
309C
100
AcDbEntity
  8
AM_5
100
AcDbLine
 10
175.6318145419271
 20
202.9049841685744
 30
0.0
 11
165.6318105419271
 21
202.9049841685744
 31
0.0
  0
SOLID
  5
30DE
330
309C
100
AcDbEntity
  8
AM_5
100
AcDbTrace
 10
181.6318145419271
 20
203.9049841685744
 30
0.0
 11
181.6318145419271
 21
201.9049841685744
 31
0.0
 12
175.6318145419271
 22
202.9049841685744
 32
0.0
 13
175.6318145419271
 23
202.9049841685744
 33
0.0
  0
SOLID
  5
30DF
330
309C
100
AcDbEntity
  8
AM_5
100
AcDbTrace
 10
159.6318105419271
 20
203.9049841685744
 30
0.0
 11
159.6318105419271
 21
201.9049841685744
 31
0.0
 12
165.6318105419271
 22
202.9049841685744
 32
0.0
 13
165.6318105419271
 23
202.9049841685744
 33
0.0
  0
MTEXT
  5
30E0
330
309C
100
AcDbEntity
  8
AM_5
 62
     2
100
AcDbMText
 10
147.4790546364153
 20
209.4049841685744
 30
0.0
 40
7.0
 41
0.0
 46
0.0
 71
     5
 72
     1
  1
10
 73
     1
 44
1.0
  0
POINT
  5
30E1
330
309C
100
AcDbEntity
  8
Defpoints
 62
     0
100
AcDbPoint
 10
165.6318105419271
 20
225.5307430524566
 30
0.0
  0
POINT
  5
30E2
330
309C
100
AcDbEntity
  8
Defpoints
 62
     0
100
AcDbPoint
 10
175.6318145419271
 20
225.5307430524566
 30
0.0
  0
POINT
  5
30E3
330
309C
100
AcDbEntity
  8
Defpoints
 62
     0
100
AcDbPoint
 10
175.6318145419271
 20
202.9049841685744
 30
0.0
  0
ENDBLK
  5
30A9
330
309C
100
AcDbEntity
  8
0
100
AcDbBlockEnd
  0
ENDSEC
  0
SECTION
  2
ENTITIES
  0
INSERT
  5
3FB
330
1A
100
AcDbEntity
  8
ASHADE
 62
     1
100
AcDbBlockReference
  2
AVE_RENDER
 10
0.0
 20
0.0
 30
0.0
1001
AVE_RENDER
1002
{
1070
     7
1000
Pref
1070
    60
1070
    30
1070
     1
1070
     0
1000

1070
    10
1070
     1
1070
    10
1040
1.0
1070
     1
1040
0.3
1040
0.7
1040
0.0
1040
10.0
1010
-1.0
1020
-1.0
1030
-1.0
1040
0.3
1070
    49
1070
     1
1070
     0
1010
1.0
1020
1.0
1030
1.0
1040
45.0
1070
     1
1070
     0
1000
WCS
1040
0.0
1070
     1
1040
10.0
1002
}
  0
INSERT
  5
3FC
330
1A
100
AcDbEntity
  8
ASHADE
 62
     3
100
AcDbBlockReference
  2
AVE_RENDER
 10
0.0
 20
0.0
 30
0.0
1001
AVE_RENDER
1002
{
1070
     0
1000
Full Opt
1070
     0
1070
     1
1070
     1
1070
     1
1070
     0
1070
     0
1070
     0
1070
     1
1070
     1
1040
0.0001
1040
0.0001
1002
}
  0
INSERT
  5
3FD
330
1A
100
AcDbEntity
  8
ASHADE
 62
     4
100
AcDbBlockReference
  2
AVE_RENDER
 10
0.0
 20
0.0
 30
0.0
1001
AVE_RENDER
1002
{
1070
     0
1000
Quick Opt
1070
     0
1070
     1
1070
     1
1070
     1
1070
     0
1070
     0
1070
     1
1002
}
  0
INSERT
  5
3FE
330
1A
100
AcDbEntity
  8
ASHADE
 62
     5
100
AcDbBlockReference
  2
AVE_RENDER
 10
0.0
 20
0.0
 30
0.0
1001
AVE_RENDER
1002
{
1070
     1
1000
Scanl Opt
1070
     2
1070
     0
1070
     2
1040
2.0
1040
4.0
1070
     0
1070
     1
1070
     0
1040
0.03
1002
}
  0
INSERT
  5
3FF
330
1A
100
AcDbEntity
  8
ASHADE
 62
     6
100
AcDbBlockReference
  2
AVE_RENDER
 10
0.0
 20
0.0
 30
0.0
1001
AVE_RENDER
1002
{
1070
     2
1000
Raytr Opt
1070
     3
1070
     0
1070
     2
1040
2.0
1040
4.0
1070
     0
1070
     1
1070
     1
1040
0.03
1070
     3
1040
0.03
1002
}
  0
INSERT
  5
400
330
1A
100
AcDbEntity
  8
ASHADE
 62
     7
100
AcDbBlockReference
  2
AVE_RENDER
 10
0.0
 20
0.0
 30
0.0
1001
AVE_RENDER
1002
{
1070
     0
1000
RFile Opt
1070
     5
1070
  1600
1070
  1280
1070
 10000
1070
     1
1070
    32
1070
    32
1070
     0
1070
     0
1070
     0
1070
     0
1070
     0
1070
     0
1070
     0
1002
}
  0
INSERT
  5
401
330
1A
100
AcDbEntity
  8
ASHADE
 62
     8
100
AcDbBlockReference
  2
AVE_RENDER
 10
0.0
 20
0.0
 30
0.0
1001
AVE_RENDER
1002
{
1070
     0
1000
Fog Opt
1070
     0
1070
     0
1040
0.0
1040
1.0
1040
0.0
1040
1.0
1010
0.5
1020
0.5
1030
0.5
1002
}
  0
INSERT
  5
402
330
1A
100
AcDbEntity
  8
ASHADE
 62
     9
100
AcDbBlockReference
  2
AVE_RENDER
 10
0.0
 20
0.0
 30
0.0
1001
AVE_RENDER
1002
{
1070
     0
1000
BG Opt
1070
     0
1070
     0
1010
1.0
1020
1.0
1030
1.0
1010
1.0
1020
0.0
1030
0.0
1010
0.0
1020
1.0
1030
0.0
1010
0.0
1020
0.0
1030
1.0
1040
0.5
1040
0.33
1040
0.0
1000

1070
     1
1000

1070
     1
1070
     1
1040
1.0
1040
1.0
1040
0.0
1040
0.0
1070
     0
1002
}
  0
INSERT
  5
409
330
1A
100
AcDbEntity
  8
ASHADE
 62
     1
100
AcDbBlockReference
  2
AVE_GLOBAL
 10
0.0
 20
0.0
 30
0.0
1001
AVE_MATERIAL
1002
{
1000
*GLOBAL*
1000
2
1000
Globales Material.
1002
{
1002
}
1002
{
1070
    63
1002
{
1002
{
1010
-1.0
1020
-1.0
1030
-1.0
1002
}
1040
0.1000000014901161
1000

1040
0.0
1002
{
1002
}
1040
0.0
1002
{
1002
}
1040
0.0
1002
}
1002
{
1002
{
1010
-1.0
1020
-1.0
1030
-1.0
1002
}
1040
0.6999999880790711
1000

1040
0.0
1002
{
1002
}
1040
0.0
1002
{
1002
}
1040
0.0
1002
}
1002
{
1002
{
1010
-1.0
1020
-1.0
1030
-1.0
1002
}
1040
0.2000000029802322
1000

1040
0.0
1002
{
1002
}
1040
0.0
1002
{
1002
}
1040
0.0
1002
}
1002
{
1070
     0
1002
{
1070
     1
1002
{
1040
1.0
1040
1.0
1000

1040
0.0
1002
{
1002
}
1040
0.0
1002
{
1002
}
1040
0.0
1002
}
1002
}
1040
1.0
1040
0.0
1040
0.0
1002
}
1002
{
1040
1.0
1040
1.0
1000

1040
0.0
1002
{
1002
}
1040
0.0
1002
{
1002
}
1040
0.0
1002
}
1002
{
1040
0.5
1040
1.0
1000

1040
0.0
1002
{
1002
}
1040
0.0
1002
{
1002
}
1040
0.0
1002
}
1002
{
1070
     0
1040
0.0
1002
{
1002
}
1040
1.0
1002
{
1002
}
1040
0.0
1002
}
1002
{
1040
0.0
1002
{
1002
{
1010
0.0
1020
0.0
1030
0.0
1002
}
1040
1.0
1000

1040
0.0
1002
{
1002
}
1040
0.0
1002
{
1002
}
1040
0.0
1002
}
1002
}
1002
{
1002
{
1070
     1
1002
{
1040
0.0
1040
1.0
1000

1040
0.0
1002
{
1002
}
1040
0.0
1002
{
1002
}
1040
0.0
1002
}
1002
}
1040
0.0
1002
{
1002
}
1010
1.0
1020
0.0
1030
0.0
1010
0.0
1020
1.0
1030
0.0
1010
0.0
1020
0.0
1030
1.0
1070
     0
1002
}
1002
{
1002
{
1040
1.0
1040
1.0
1002
{
1070
     1
1002
{
1040
1.0
1040
1.0
1000

1040
0.0
1002
{
1002
}
1040
0.0
1002
{
1002
}
1040
0.0
1002
}
1002
}
1002
}
1070
     0
1040
0.0
1002
{
1002
}
1002
}
1002
{
1002
}
1002
}
1002
{
1071
        3
1070
     3
1070
     0
1002
{
1070
     2
1070
     0
1070
     0
1040
0.0
1002
}
1070
     0
1070
     2
1002
{
1002
}
1002
}
1002
{
1040
8030.0
1040
190.3000030517578
1040
0.3050000071525574
1040
228.0
1040
545.0
1040
14.0
1040
17.39999961853027
1040
0.4560000002384186
1002
}
1002
}
  0
POINT
  5
1677
330
1A
100
AcDbEntity
  8
0
 60
     1
100
AcDbPoint
 10
0.0
 20
0.0
 30
0.0
1001
GENIUS_GENODEF_13
1002
{
1000
HIER
1070
     1
1002
}
1002
{
1000
MANEDIT
1070
     0
1002
}
1002
{
1000
NOSEL
1070
     0
1002
}
1002
{
1000
BEHIND
1070
     0
1002
}
1002
{
1000
REACTOR
1002
}
1001
GENIUS_GENOBJ-N-SDF_13
1002
{
1000
OWNER
1000
GEN
1002
}
1001
GENIUS_GENOENT_13
1002
{
1000
MYREF
1005
1677
1002
}
1002
{
1000
GRP
1005
0
1002
}
1001
GENIUS_GENOLIS_13
1002
{
1000
ENT
1005
22
1002
}
  0
POLYLINE
  5
1C22
330
1A
100
AcDbEntity
  8
1
100
AcDb2dPolyline
 66
     1
 10
0.0
 20
0.0
 30
0.0
 70
     1
  0
VERTEX
  5
1C23
330
1C22
100
AcDbEntity
  8
1
100
AcDbVertex
100
AcDb2dVertex
 10
178.6326565419271
 20
380.0307430524566
 30
0.0
  0
VERTEX
  5
1C24
330
1C22
100
AcDbEntity
  8
1
100
AcDbVertex
100
AcDb2dVertex
 10
175.6326565419271
 20
380.0307430524566
 30
0.0
  0
VERTEX
  5
1C25
330
1C22
100
AcDbEntity
  8
1
100
AcDbVertex
100
AcDb2dVertex
 10
175.6326565419271
 20
110.0307610524566
 30
0.0
  0
VERTEX
  5
1C26
330
1C22
100
AcDbEntity
  8
1
100
AcDbVertex
100
AcDb2dVertex
 10
178.6326565419271
 20
110.0307610524566
 30
0.0
  0
SEQEND
  5
1C27
330
1C22
100
AcDbEntity
  8
1
  0
LINE
  5
1C28
330
1A
100
AcDbEntity
  8
7
  6
GEN7A
100
AcDbLine
 10
205.6326625419271
 20
144.8076630524566
 30
0.0
 11
205.6326625419271
 21
300.6048550524566
 31
0.0
  0
LINE
  5
1C2A
330
1A
100
AcDbEntity
  8
1
100
AcDbLine
 10
172.7531945419271
 20
25.80939905245663
 30
0.0
 11
165.6318645419271
 21
32.93073705245661
 31
0.0
  0
LINE
  5
1C2C
330
1A
100
AcDbEntity
  8
7
  6
GEN7A
100
AcDbLine
 10
205.6326885419271
 20
17.37916105245662
 30
0.0
 11
205.6326885419271
 21
44.40847305245663
 31
0.0
  0
LINE
  5
1C2D
330
1A
100
AcDbEntity
  8
1
100
AcDbLine
 10
225.6326685419271
 20
23.83079105245662
 30
0.0
 11
225.6326685419271
 21
37.43073705245661
 31
0.0
  0
LINE
  5
1C2E
330
1A
100
AcDbEntity
  8
1
100
AcDbLine
 10
175.6327185419271
 20
19.93076705245661
 30
0.0
 11
175.6327185419271
 21
37.93072105245662
 31
0.0
  0
LINE
  5
1C2F
330
1A
100
AcDbEntity
  8
1
100
AcDbLine
 10
178.6326425419271
 20
19.93076705245661
 30
0.0
 11
178.6326425419271
 21
37.93072105245662
 31
0.0
  0
LINE
  5
1C30
330
1A
100
AcDbEntity
  8
1
100
AcDbLine
 10
223.6326705419271
 20
23.4307970524566
 30
0.0
 11
187.6327005419271
 21
23.4307970524566
 31
0.0
  0
LINE
  5
1C31
330
1A
100
AcDbEntity
  8
1
100
AcDbLine
 10
225.6326685419271
 20
23.83079105245662
 30
0.0
 11
178.6326565419271
 21
23.83079105245662
 31
0.0
  0
ARC
  5
1C33
330
1A
100
AcDbEntity
  8
1
100
AcDbCircle
 10
174.8745165419271
 20
27.93073705245661
 30
0.0
 40
3.0
100
AcDbArc
 50
225.0000920000005
 51
270.0
  0
LINE
  5
1C34
330
1A
100
AcDbEntity
  8
1
100
AcDbLine
 10
178.6326565419271
 20
19.93079705245662
 30
0.0
 11
175.6327185419271
 21
19.93079705245662
 31
0.0
  0
LINE
  5
1C35
330
1A
100
AcDbEntity
  8
1
100
AcDbLine
 10
175.6327185419271
 20
24.93073705245661
 30
0.0
 11
174.8745165419271
 21
24.93073705245661
 31
0.0
  0
LINE
  5
1C36
330
1A
100
AcDbEntity
  8
1
100
AcDbLine
 10
187.6327005419271
 20
23.83079105245662
 30
0.0
 11
187.6327005419271
 21
23.4307970524566
 31
0.0
  0
LINE
  5
1C37
330
1A
100
AcDbEntity
  8
1
100
AcDbLine
 10
223.6326685419271
 20
23.83079105245662
 30
0.0
 11
223.6326685419271
 21
23.4307970524566
 31
0.0
  0
LINE
  5
1C39
330
1A
100
AcDbEntity
  8
1
100
AcDbLine
 10
223.6326725419271
 20
37.83073105245663
 30
0.0
 11
187.6327025419271
 21
37.83073105245663
 31
0.0
  0
LINE
  5
1C3A
330
1A
100
AcDbEntity
  8
1
100
AcDbLine
 10
225.6326725419271
 20
37.43073705245661
 30
0.0
 11
178.6326565419271
 21
37.43073705245661
 31
0.0
  0
LINE
  5
1C3B
330
1A
100
AcDbEntity
  8
1
100
AcDbLine
 10
175.6327185419271
 20
32.93073705245661
 30
0.0
 11
165.6318645419271
 21
32.93073705245661
 31
0.0
  0
LINE
  5
1C3C
330
1A
100
AcDbEntity
  8
1
100
AcDbLine
 10
175.6327485419271
 20
35.43073705245661
 30
0.0
 11
165.6318645419271
 21
35.43073705245661
 31
0.0
  0
LINE
  5
1C3D
330
1A
100
AcDbEntity
  8
1
100
AcDbLine
 10
165.6318645419271
 20
32.93073705245661
 30
0.0
 11
165.6318645419271
 21
35.43073705245661
 31
0.0
  0
LINE
  5
1C3E
330
1A
100
AcDbEntity
  8
1
100
AcDbLine
 10
175.6327185419271
 20
37.93072105245662
 30
0.0
 11
178.6326425419271
 21
37.93072105245662
 31
0.0
  0
LINE
  5
1C3F
330
1A
100
AcDbEntity
  8
1
100
AcDbLine
 10
187.6327025419271
 20
37.43073705245661
 30
0.0
 11
187.6327025419271
 21
37.83073105245663
 31
0.0
  0
LINE
  5
1C40
330
1A
100
AcDbEntity
  8
1
100
AcDbLine
 10
223.6326705419271
 20
37.43073705245661
 30
0.0
 11
223.6326705419271
 21
37.83073105245663
 31
0.0
  0
LINE
  5
1C47
330
1A
100
AcDbEntity
  8
1
100
AcDbLine
 10
225.6326665419271
 20
160.0307770524566
 30
0.0
 11
225.6326665419271
 21
330.0307730524567
 31
0.0
  0
ARC
  5
1C48
330
1A
100
AcDbEntity
  8
1
100
AcDbCircle
 10
205.6326625419271
 20
229.0307570524566
 30
0.0
 40
8.599999999999999
100
AcDbArc
 50
306.3718869999996
 51
233.6281319999991
  0
ARC
  5
1C49
330
1A
100
AcDbEntity
  8
1
100
AcDbCircle
 10
205.6326625419271
 20
181.0307470524566
 30
0.0
 40
8.599999999999999
100
AcDbArc
 50
306.3718640000001
 51
233.6281510000007
  0
LINE
  5
1C4A
330
1A
100
AcDbEntity
  8
7
  6
GEN7A
100
AcDbLine
 10
185.0807505419271
 20
229.0307570524566
 30
0.0
 11
228.8317625419271
 21
229.0307570524566
 31
0.0
  0
LINE
  5
1C4B
330
1A
100
AcDbEntity
  8
1
100
AcDbLine
 10
178.6326465419271
 20
150.0307470524566
 30
0.0
 11
215.6326645419271
 21
150.0307470524566
 31
0.0
  0
LINE
  5
1C4C
330
1A
100
AcDbEntity
  8
7
  6
GEN7A
100
AcDbLine
 10
185.0807505419271
 20
181.0307470524566
 30
0.0
 11
228.8317625419271
 21
181.0307470524566
 31
0.0
  0
ARC
  5
1C4D
330
1A
100
AcDbEntity
  8
1
100
AcDbCircle
 10
205.6326625419271
 20
209.0307650524566
 30
0.0
 40
5.099999999999999
100
AcDbArc
 50
180.0000460000002
 51
359.9999569999999
  0
ARC
  5
1C4E
330
1A
100
AcDbEntity
  8
1
100
AcDbCircle
 10
205.6326625419271
 20
161.0307550524566
 30
0.0
 40
5.099999999999999
100
AcDbArc
 50
180.0
 51
0.0
  0
ARC
  5
1C4F
330
1A
100
AcDbEntity
  8
1
100
AcDbCircle
 10
205.6326625419271
 20
229.0307570524566
 30
0.0
 40
17.999998
100
AcDbArc
 50
286.4592510000007
 51
252.7317336183932
  0
ARC
  5
1C50
330
1A
100
AcDbEntity
  8
1
100
AcDbCircle
 10
205.6326625419271
 20
181.0307470524566
 30
0.0
 40
17.999998
100
AcDbArc
 50
286.4592510000007
 51
253.5407560000001
  0
LINE
  5
1C52
330
1A
100
AcDbEntity
  8
1
100
AcDbLine
 10
200.5326625419271
 20
161.0307550524566
 30
0.0
 11
200.5326625419271
 21
174.1061510524566
 31
0.0
  0
INSERT
  5
1C53
330
1A
100
AcDbEntity
  8
5
 62
     3
100
AcDbBlockReference
  2
BLK32
 10
235.6326725419271
 20
168.9307670524566
 30
0.0
 41
2.0
 42
2.0
 43
2.0
  0
LINE
  5
1C54
330
1A
100
AcDbEntity
  8
1
100
AcDbLine
 10
200.5326625419271
 20
209.0307650524566
 30
0.0
 11
200.5326625419271
 21
222.1061670524566
 31
0.0
  0
LINE
  5
1C56
330
1A
100
AcDbEntity
  8
1
100
AcDbLine
 10
215.6326645419271
 20
150.0307470524566
 30
0.0
 11
225.6326645419271
 21
160.0307470524566
 31
0.0
  0
LINE
  5
1C57
330
1A
100
AcDbEntity
  8
1
100
AcDbLine
 10
210.7326625419271
 20
161.0307550524566
 30
0.0
 11
210.7326625419271
 21
174.1061510524566
 31
0.0
  0
LINE
  5
1C58
330
1A
100
AcDbEntity
  8
1
100
AcDbLine
 10
210.7326625419271
 20
209.0307650524566
 30
0.0
 11
210.7326625419271
 21
222.1061670524566
 31
0.0
  0
CIRCLE
  5
1C5A
330
1A
100
AcDbEntity
  8
1
100
AcDbCircle
 10
205.6326625419271
 20
289.0307650524567
 30
0.0
 40
7.0
  0
LINE
  5
1C5B
330
1A
100
AcDbEntity
  8
1
100
AcDbLine
 10
201.6326465419271
 20
285.0307650524566
 30
0.0
 11
209.6326625419271
 21
285.0307650524566
 31
0.0
  0
LINE
  5
1C5C
330
1A
100
AcDbEntity
  8
1
100
AcDbLine
 10
201.6326465419271
 20
293.0307730524567
 30
0.0
 11
209.6326625419271
 21
293.0307730524567
 31
0.0
  0
LINE
  5
1C5E
330
1A
100
AcDbEntity
  8
1
100
AcDbLine
 10
178.6326605419271
 20
340.0307730524567
 30
0.0
 11
215.6326645419271
 21
340.0307730524567
 31
0.0
  0
LINE
  5
1C5F
330
1A
100
AcDbEntity
  8
7
  6
GEN7A
100
AcDbLine
 10
196.2989505419271
 20
289.0307650524567
 30
0.0
 11
215.6503625419271
 21
289.0307650524567
 31
0.0
  0
LINE
  5
1C60
330
1A
100
AcDbEntity
  8
1
100
AcDbLine
 10
190.3326625419271
 20
296.3807790524567
 30
0.0
 11
190.3326625419271
 21
326.6807670524566
 31
0.0
  0
INSERT
  5
1C61
330
1A
100
AcDbEntity
  8
5
 62
     3
100
AcDbBlockReference
  2
BLK33
 10
235.6326725419271
 20
168.9307670524566
 30
0.0
 41
2.0
 42
2.0
 43
2.0
  0
LINE
  5
1C62
330
1A
100
AcDbEntity
  8
1
100
AcDbLine
 10
201.6326605419271
 20
285.0307650524566
 30
0.0
 11
201.6326605419271
 21
293.0307430524566
 31
0.0
  0
LINE
  5
1C63
330
1A
100
AcDbEntity
  8
1
100
AcDbLine
 10
190.3326585419271
 20
296.3807630524566
 30
0.0
 11
178.8326625419271
 21
296.3807630524566
 31
0.0
  0
LINE
  5
1C67
330
1A
100
AcDbEntity
  8
1
100
AcDbLine
 10
190.3326585419271
 20
326.6807670524566
 30
0.0
 11
178.8326585419271
 21
326.6807670524566
 31
0.0
  0
LINE
  5
1C6A
330
1A
100
AcDbEntity
  8
1
100
AcDbLine
 10
209.6326645419271
 20
285.0307650524566
 30
0.0
 11
209.6326645419271
 21
293.0307730524567
 31
0.0
  0
LINE
  5
1C6C
330
1A
100
AcDbEntity
  8
1
100
AcDbLine
 10
215.6326665419271
 20
340.0307730524567
 30
0.0
 11
225.6326665419271
 21
330.0307730524567
 31
0.0
  0
LINE
  5
1C70
330
1A
100
AcDbEntity
  8
1
100
AcDbLine
 10
384.6326425419271
 20
110.0307650524566
 30
0.0
 11
384.6326425419271
 21
380.0307430524566
 31
0.0
  0
LINE
  5
1C71
330
1A
100
AcDbEntity
  8
1
100
AcDbLine
 10
366.6326425419271
 20
110.0307650524566
 30
0.0
 11
366.6326425419271
 21
380.0307430524566
 31
0.0
  0
LINE
  5
1C73
330
1A
100
AcDbEntity
  8
7
  6
GEN7A
100
AcDbLine
 10
375.6326425419271
 20
133.1557730524566
 30
0.0
 11
375.6326425419271
 21
118.9057650524566
 31
0.0
  0
LINE
  5
1C75
330
1A
100
AcDbEntity
  8
1
100
AcDbLine
 10
384.6326265419272
 20
110.0307650524566
 30
0.0
 11
366.6326425419271
 21
110.0307650524566
 31
0.0
  0
LINE
  5
1C76
330
1A
100
AcDbEntity
  8
7
  6
GEN7A
100
AcDbLine
 10
368.5076425419271
 20
126.0307650524566
 30
0.0
 11
382.7576425419271
 21
126.0307650524566
 31
0.0
  0
CIRCLE
  5
1C77
330
1A
100
AcDbEntity
  8
1
100
AcDbCircle
 10
375.6326425419271
 20
126.0307650524566
 30
0.0
 40
2.5
  0
CIRCLE
  5
1C78
330
1A
100
AcDbEntity
  8
1
100
AcDbCircle
 10
375.6326425419271
 20
126.0307650524566
 30
0.0
 40
4.75
  0
LINE
  5
1C7B
330
1A
100
AcDbEntity
  8
1
100
AcDbLine
 10
378.0326365419271
 20
225.4307590524566
 30
0.0
 11
378.0326365419271
 21
257.6307630524566
 31
0.0
  0
LINE
  5
1C7C
330
1A
100
AcDbEntity
  8
1
100
AcDbLine
 10
369.6326425419271
 20
225.4307590524566
 30
0.0
 11
369.6326425419271
 21
257.6307630524566
 31
0.0
  0
LINE
  5
1C7D
330
1A
100
AcDbEntity
  8
1
100
AcDbLine
 10
369.6326425419271
 20
225.4307590524566
 30
0.0
 11
378.0326365419271
 21
225.4307590524566
 31
0.0
  0
LINE
  5
1C7E
330
1A
100
AcDbEntity
  8
1
100
AcDbLine
 10
369.6326105419271
 20
257.6307630524566
 30
0.0
 11
378.0326365419271
 21
257.6307630524566
 31
0.0
  0
LINE
  5
1C7F
330
1A
100
AcDbEntity
  8
7
  6
GEN7A
100
AcDbLine
 10
387.7028925419272
 20
241.5307650524566
 30
0.0
 11
362.3024885419271
 21
241.5307650524566
 31
0.0
  0
LINE
  5
1C83
330
1A
100
AcDbEntity
  8
1
100
AcDbLine
 10
372.4326445419272
 20
324.1307790524567
 30
0.0
 11
372.4326445419272
 21
326.6307790524566
 31
0.0
  0
LINE
  5
1C84
330
1A
100
AcDbEntity
  8
1
100
AcDbLine
 10
369.6326425419271
 20
311.5307730524567
 30
0.0
 11
369.6326425419271
 21
326.6307790524566
 31
0.0
  0
LINE
  5
1C85
330
1A
100
AcDbEntity
  8
1
100
AcDbLine
 10
372.4326445419272
 20
298.9307670524567
 30
0.0
 11
380.6326425419271
 21
298.9307670524567
 31
0.0
  0
LINE
  5
1C86
330
1A
100
AcDbEntity
  8
1
100
AcDbLine
 10
372.4326445419272
 20
324.1307790524567
 30
0.0
 11
380.6326425419271
 21
324.1307790524567
 31
0.0
  0
LINE
  5
1C87
330
1A
100
AcDbEntity
  8
7
  6
GEN7A
100
AcDbLine
 10
387.7504865419271
 20
311.5307730524567
 30
0.0
 11
363.0937625419272
 21
311.5307730524567
 31
0.0
  0
LINE
  5
1C88
330
1A
100
AcDbEntity
  8
1
100
AcDbLine
 10
369.6326425419271
 20
311.5307730524567
 30
0.0
 11
369.6326425419271
 21
296.4307590524567
 31
0.0
  0
LINE
  5
1C89
330
1A
100
AcDbEntity
  8
1
100
AcDbLine
 10
372.4326445419272
 20
298.9307670524567
 30
0.0
 11
372.4326445419272
 21
296.4307590524567
 31
0.0
  0
LINE
  5
1C8A
330
1A
100
AcDbEntity
  8
1
100
AcDbLine
 10
369.6326105419271
 20
296.4307670524566
 30
0.0
 11
372.4326445419272
 21
296.4307670524566
 31
0.0
  0
LINE
  5
1C8B
330
1A
100
AcDbEntity
  8
1
100
AcDbLine
 10
380.6326425419271
 20
298.9307670524567
 30
0.0
 11
380.6326425419271
 21
324.1307790524567
 31
0.0
  0
LINE
  5
1C92
330
1A
100
AcDbEntity
  8
1
100
AcDbLine
 10
369.6326105419271
 20
326.6307790524566
 30
0.0
 11
372.4326445419272
 21
326.6307790524566
 31
0.0
  0
LINE
  5
1C97
330
1A
100
AcDbEntity
  8
7
  6
GEN7A
100
AcDbLine
 10
368.5076425419271
 20
364.0308030524567
 30
0.0
 11
382.7576425419271
 21
364.0308030524567
 31
0.0
  0
CIRCLE
  5
1C98
330
1A
100
AcDbEntity
  8
1
100
AcDbCircle
 10
375.6326425419271
 20
364.0308030524567
 30
0.0
 40
4.75
  0
CIRCLE
  5
1C99
330
1A
100
AcDbEntity
  8
1
100
AcDbCircle
 10
375.6326425419271
 20
364.0308030524567
 30
0.0
 40
2.5
  0
LINE
  5
1C9A
330
1A
100
AcDbEntity
  8
1
100
AcDbLine
 10
384.6326425419271
 20
380.0307570524566
 30
0.0
 11
366.6326425419271
 21
380.0307570524566
 31
0.0
  0
LINE
  5
1C9B
330
1A
100
AcDbEntity
  8
7
  6
GEN7A
100
AcDbLine
 10
375.6326425419271
 20
371.1558030524567
 30
0.0
 11
375.6326425419271
 21
356.9058030524567
 31
0.0
  0
LWPOLYLINE
  5
2239
330
1A
100
AcDbEntity
  8
AM_VIEWS
100
AcDbPolyline
 90
        4
 70
     1
 43
0.0
 10
72.74390959892992
 20
-17.02080186520049
 10
447.1431823395309
 20
-17.02080186520049
 10
447.1431823395309
 20
422.8307702023491
 10
72.74390959892992
 20
422.8307702023491
1001
GENIUS_GENSCREG_15
1040
2.0
1040
1.0
1011
72.74390959892992
1021
-17.02080186520049
1031
0.0
1011
447.1431823395309
1021
422.8307702023491
1031
0.0
1070
     2
1001
GENIUS_GENOBJ-N-SDF_13
1002
{
1000
OWNER
1000
GEN
1002
}
1001
GENIUS_GENODEF_13
1002
{
1000
HIER
1070
     0
1002
}
1002
{
1000
MANEDIT
1070
     0
1002
}
1002
{
1000
NOSEL
1070
     0
1002
}
1002
{
1000
BEHIND
1070
     0
1002
}
1002
{
1000
OTHER
1070
     0
1002
}
1002
{
1000
REACTOR
1002
}
  0
DIMENSION
  5
2635
330
1A
100
AcDbEntity
  8
AM_5
100
AcDbDimension
  2
*D13
 10
137.9312103894696
 20
326.5318570524566
 30
0.0
 11
137.9312103894696
 21
352.7708044313873
 31
0.0
 70
   160
 71
     5
 42
53.49888599999997
 73
     0
 74
     0
 75
     0
  3
AM_ISO
100
AcDbAlignedDimension
 13
175.6326565419271
 23
380.0307430524566
 33
0.0
 14
165.6327785419271
 24
326.5318570524566
 34
0.0
 50
90.00000000000003
100
AcDbRotatedDimension
1001
ACAD
1000
DSTYLE
1002
{
1070
    40
1040
2.0
1070
   174
1070
     1
1002
}
  0
DIMENSION
  5
26C9
330
1A
100
AcDbEntity
  8
AM_5
100
AcDbDimension
  2
*D14
 10
137.9312103894696
 20
296.5318410524566
 30
0.0
 11
131.4312103894696
 21
311.5318490524566
 31
0.0
 70
    32
 71
     5
 42
30.00001600000002
 73
     0
 74
     0
 75
     0
  3
AM_ISO
100
AcDbAlignedDimension
 13
165.6327785419271
 23
326.5318570524566
 33
0.0
 14
165.6327785419271
 24
296.5318410524566
 34
0.0
 50
90.0
100
AcDbRotatedDimension
1001
ACAD
1000
DSTYLE
1002
{
1070
   174
1070
     1
1070
    40
1040
2.0
1002
}
  0
DIMENSION
  5
26E5
330
1A
100
AcDbEntity
  8
AM_5
100
AcDbDimension
  2
*D15
 10
137.9312103894696
 20
257.5307430524566
 30
0.0
 11
131.4312103894696
 21
277.0312920524567
 31
0.0
 70
    32
 71
     5
 42
39.00109800000001
 73
     0
 74
     0
 75
     0
  3
AM_ISO
100
AcDbAlignedDimension
 13
165.6327785419271
 23
296.5318410524566
 33
0.0
 14
165.6318105419271
 24
257.5307430524566
 34
0.0
 50
90.0
100
AcDbRotatedDimension
1001
ACAD
1000
DSTYLE
1002
{
1070
   174
1070
     1
1070
    40
1040
2.0
1002
}
  0
DIMENSION
  5
2701
330
1A
100
AcDbEntity
  8
AM_5
100
AcDbDimension
  2
*D16
 10
137.9312103894697
 20
225.5307430524566
 30
0.0
 11
131.4305214130917
 21
241.5307430524567
 31
0.0
 70
    32
 71
     5
 42
32.00000000000003
 73
     0
 74
     0
 75
     0
  3
AM_ISO
100
AcDbAlignedDimension
 13
165.6318105419271
 23
257.5307430524566
 33
0.0
 14
165.6318105419271
 24
225.5307430524566
 34
0.0
 50
90.0
100
AcDbRotatedDimension
1001
ACAD
1000
DSTYLE
1002
{
1070
   174
1070
     1
1070
    40
1040
2.0
1002
}
  0
DIMENSION
  5
271D
330
1A
100
AcDbEntity
  8
AM_5
100
AcDbDimension
  2
*D17
 10
137.9312103894697
 20
110.0307610524567
 30
0.0
 11
131.4312103894697
 21
167.7807520524567
 31
0.0
 70
    32
 71
     5
 42
115.4999819999999
 73
     0
 74
     0
 75
     0
  3
AM_ISO
100
AcDbAlignedDimension
 13
165.6318105419271
 23
225.5307430524566
 33
0.0
 14
175.6326565419271
 24
110.0307610524567
 34
0.0
 50
90.0
100
AcDbRotatedDimension
1001
ACAD
1000
DSTYLE
1002
{
1070
   174
1070
     1
1070
    40
1040
2.0
1002
}
  0
DIMENSION
  5
2745
330
1A
100
AcDbEntity
  8
AM_5
100
AcDbDimension
  2
*D18
 10
121.6318105419271
 20
110.0307610524567
 30
0.0
 11
115.1311215655492
 21
245.0307520524567
 31
0.0
 70
    32
 71
     5
 42
269.9999819999999
 73
     0
 74
     0
 75
     0
  3
AM_ISO
100
AcDbAlignedDimension
 13
175.6326565419271
 23
380.0307430524566
 33
0.0
 14
175.6326565419271
 24
110.0307610524567
 34
0.0
 50
90.00000000000003
100
AcDbRotatedDimension
1001
ACAD
1000
DSTYLE
1002
{
1070
    40
1040
2.0
1002
}
  0
DIMENSION
  5
2784
330
1A
100
AcDbEntity
  8
AM_5
100
AcDbDimension
  2
*D19
 10
165.6327785419271
 20
347.349509865015
 30
0.0
 11
147.4800226364153
 21
347.349509865015
 31
0.0
 70
   160
 71
     5
 42
9.999877999999995
 73
     0
 74
     0
 75
     0
  3
AM_ISO
100
AcDbAlignedDimension
 13
175.6326565419271
 23
326.5318570524566
 33
0.0
 14
165.6327785419271
 24
326.5318410524566
 34
0.0
100
AcDbRotatedDimension
1001
ACAD
1000
DSTYLE
1002
{
1070
    40
1040
2.0
1002
}
  0
DIMENSION
  5
2870
330
1A
100
AcDbEntity
  8
AM_5
100
AcDbDimension
  2
*D20
 10
241.4713273458505
 20
289.0307650524567
 30
0.0
 11
234.9713273458504
 21
259.0307610524567
 31
0.0
 70
    32
 71
     5
 42
60.00000800000006
 73
     0
 74
     0
 75
     0
  3
AM_ISO
100
AcDbAlignedDimension
 13
228.8317625419271
 23
229.0307570524566
 33
0.0
 14
215.6503625419271
 24
289.0307650524567
 34
0.0
 50
90.00000000000003
100
AcDbRotatedDimension
1001
ACAD
1000
DSTYLE
1002
{
1070
    40
1040
2.0
1002
}
  0
DIMENSION
  5
28AF
330
1A
100
AcDbEntity
  8
AM_5
100
AcDbDimension
  2
*D21
 10
205.6326625419271
 20
88.11669809591235
 30
0.0
 11
190.6326595419271
 21
94.66537864969643
 31
0.0
 70
    32
  1
D=<>
 71
     5
 42
30.00000600000004
 73
     0
 74
     0
 75
     0
  3
AM_ISO
100
AcDbAlignedDimension
 13
175.6326565419271
 23
110.0307610524566
 33
0.0
 14
205.6326625419271
 24
144.8076630524566
 34
0.0
 50
0.0000000000001132
100
AcDbRotatedDimension
1001
ACAD
1000
DSTYLE
1002
{
1070
    40
1040
2.0
1070
   174
1070
     1
1002
}
  0
DIMENSION
  5
2943
330
1A
100
AcDbEntity
  8
AM_5
100
AcDbDimension
  2
*D22
 10
225.6326665419271
 20
88.11669809591228
 30
0.0
 11
215.6326645419271
 21
94.61738707229024
 31
0.0
 70
    32
 71
     5
 42
20.00000399999999
 73
     0
 74
     0
 75
     0
  3
AM_ISO
100
AcDbAlignedDimension
 13
205.6326625419271
 23
144.8076630524566
 33
0.0
 14
225.6326665419271
 24
160.0307770524566
 34
0.0
100
AcDbRotatedDimension
1001
ACAD
1000
DSTYLE
1002
{
1070
   174
1070
     1
1070
    40
1040
2.0
1002
}
  0
DIMENSION
  5
297A
330
1A
100
AcDbEntity
  8
AM_5
100
AcDbDimension
  2
*D23
 10
257.4955090210164
 20
181.0307470524566
 30
0.0
 11
250.9955090210163
 21
165.5307470524566
 31
0.0
 70
    32
 71
     5
 42
31.0
 73
     0
 74
     0
 75
     0
  3
AM_ISO
100
AcDbAlignedDimension
 13
215.6326645419271
 23
150.0307470524566
 33
0.0
 14
228.8317625419271
 24
181.0307470524566
 34
0.0
 50
90.00000000000003
100
AcDbRotatedDimension
1001
ACAD
1000
DSTYLE
1002
{
1070
    40
1040
2.0
1070
   174
1070
     1
1002
}
  0
DIMENSION
  5
2A0E
330
1A
100
AcDbEntity
  8
AM_5
100
AcDbDimension
  2
*D24
 10
257.4955090210164
 20
289.0307650524567
 30
0.0
 11
257.4955090210163
 21
234.5665785165376
 31
0.0
 70
   160
 71
     5
 42
108.0000180000001
 73
     0
 74
     0
 75
     0
  3
AM_ISO
100
AcDbAlignedDimension
 13
228.8317625419271
 23
181.0307470524566
 33
0.0
 14
215.6503625419272
 24
289.0307650524567
 34
0.0
 50
90.0
100
AcDbRotatedDimension
1001
ACAD
1000
DSTYLE
1002
{
1070
   174
1070
     1
1070
    40
1040
2.0
1002
}
  0
DIMENSION
  5
2A2A
330
1A
100
AcDbEntity
  8
AM_5
100
AcDbDimension
  2
*D25
 10
257.4955090210164
 20
340.0307730524567
 30
0.0
 11
250.9955090210164
 21
314.5307690524567
 31
0.0
 70
    32
 71
     5
 42
51.00000799999998
 73
     0
 74
     0
 75
     0
  3
AM_ISO
100
AcDbAlignedDimension
 13
215.6503625419272
 23
289.0307650524567
 33
0.0
 14
215.6326645419272
 24
340.0307730524567
 34
0.0
 50
90.0
100
AcDbRotatedDimension
1001
ACAD
1000
DSTYLE
1002
{
1070
   174
1070
     1
1070
    40
1040
2.0
1002
}
  0
DIMENSION
  5
2A52
330
1A
100
AcDbEntity
  8
AM_5
100
AcDbDimension
  2
*D26
 10
275.6168877663997
 20
150.0307470524566
 30
0.0
 11
269.1168877663996
 21
130.0307540524566
 31
0.0
 70
    32
 71
     5
 42
39.99998599999994
 73
     0
 74
     0
 75
     0
  3
AM_ISO
100
AcDbAlignedDimension
 13
178.6326565419271
 23
110.0307610524566
 33
0.0
 14
215.6326645419271
 24
150.0307470524566
 34
0.0
 50
90.00000000000003
100
AcDbRotatedDimension
1001
ACAD
1000
DSTYLE
1002
{
1070
    40
1040
2.0
1070
   174
1070
     1
1002
}
  0
DIMENSION
  5
2AE6
330
1A
100
AcDbEntity
  8
AM_5
100
AcDbDimension
  2
*D27
 10
275.6168877663997
 20
340.0307730524567
 30
0.0
 11
275.6168877663996
 21
244.8217218776885
 31
0.0
 70
   160
 71
     5
 42
190.000026
 73
     0
 74
     0
 75
     0
  3
AM_ISO
100
AcDbAlignedDimension
 13
215.6326645419271
 23
150.0307470524566
 33
0.0
 14
215.6326665419272
 24
340.0307730524567
 34
0.0
 50
90.0
100
AcDbRotatedDimension
1001
ACAD
1000
DSTYLE
1002
{
1070
   174
1070
     1
1070
    40
1040
2.0
1002
}
  0
DIMENSION
  5
2B02
330
1A
100
AcDbEntity
  8
AM_5
100
AcDbDimension
  2
*D28
 10
275.6168877663997
 20
380.0307430524566
 30
0.0
 11
269.1168877663996
 21
360.0307580524567
 31
0.0
 70
    32
 71
     5
 42
39.99996999999996
 73
     0
 74
     0
 75
     0
  3
AM_ISO
100
AcDbAlignedDimension
 13
215.6326665419272
 23
340.0307730524567
 33
0.0
 14
178.6326565419271
 24
380.0307430524566
 34
0.0
 50
90.0
100
AcDbRotatedDimension
1001
ACAD
1000
DSTYLE
1002
{
1070
   174
1070
     1
1070
    40
1040
2.0
1002
}
  0
DIMENSION
  5
2B2A
330
1A
100
AcDbEntity
  8
AM_5
100
AcDbDimension
  2
*D29
 10
327.3928067199641
 20
126.0307650524566
 30
0.0
 11
320.8921177435862
 21
245.0307840524567
 31
0.0
 70
    32
 71
     5
 42
238.000038
 73
     0
 74
     0
 75
     0
  3
AM_ISO
100
AcDbAlignedDimension
 13
368.5076425419271
 23
364.0308030524567
 33
0.0
 14
368.5076425419271
 24
126.0307650524566
 34
0.0
 50
90.00000000000003
100
AcDbRotatedDimension
1001
ACAD
1000
DSTYLE
1002
{
1070
    40
1040
2.0
1070
   174
1070
     1
1002
}
  0
DIMENSION
  5
2BBE
330
1A
100
AcDbEntity
  8
AM_5
100
AcDbDimension
  2
*D30
 10
327.3928067199641
 20
110.0307650524566
 30
0.0
 11
320.8928067199641
 21
118.0307650524567
 31
0.0
 70
    32
 71
     5
 42
16.0
 73
     0
 74
     0
 75
     0
  3
AM_ISO
100
AcDbAlignedDimension
 13
368.5076425419271
 23
126.0307650524566
 33
0.0
 14
366.6326425419271
 24
110.0307650524566
 34
0.0
 50
90.0
100
AcDbRotatedDimension
1001
ACAD
1000
DSTYLE
1002
{
1070
   174
1070
     1
1070
    40
1040
2.0
1002
}
  0
DIMENSION
  5
2BE2
330
1A
100
AcDbEntity
  8
AM_5
100
AcDbDimension
  2
*D31
 10
366.6326425419271
 20
86.03076405245664
 30
0.0
 11
375.6326345419271
 21
92.53076405245662
 31
0.0
 70
    32
 71
     5
 42
17.99998400000004
 73
     0
 74
     0
 75
     0
  3
AM_ISO
100
AcDbAlignedDimension
 13
384.6326265419272
 23
110.0307650524566
 33
0.0
 14
366.6326425419271
 24
110.0307650524566
 34
0.0
 50
0.0000000000001132
100
AcDbRotatedDimension
1001
ACAD
1000
DSTYLE
1002
{
1070
    40
1040
2.0
1002
}
  0
DIMENSION
  5
2C2F
330
1A
100
AcDbEntity
  8
AM_5
100
AcDbDimension
  2
*D32
 10
378.1326425419271
 20
150.0307650524566
 30
0.0
 11
394.6776172887577
 21
156.5307650524566
 31
0.0
 70
    32
 71
     5
 42
5.0
 73
     0
 74
     0
 75
     0
  3
AM_ISO
100
AcDbAlignedDimension
 13
373.1326425419271
 23
126.0307650524566
 33
0.0
 14
378.1326425419271
 24
126.0307650524566
 34
0.0
 50
0.0000000000000114
100
AcDbRotatedDimension
1001
ACAD
1000
DSTYLE
1002
{
1070
    40
1040
2.0
1002
}
  0
DIMENSION
  5
2C78
330
1A
100
AcDbEntity
  8
AM_5
100
AcDbDimension
  2
*D33
 10
380.3826425419271
 20
170.0307650524566
 30
0.0
 11
400.5725920355883
 21
176.5307650524566
 31
0.0
 70
    32
 71
     5
 42
9.5
 73
     0
 74
     0
 75
     0
  3
AM_ISO
100
AcDbAlignedDimension
 13
370.8826425419271
 23
126.0307650524566
 33
0.0
 14
380.3826425419271
 24
126.0307650524566
 34
0.0
 50
0.0000000000000114
100
AcDbRotatedDimension
1001
ACAD
1000
DSTYLE
1002
{
1070
    40
1040
2.0
1002
}
  0
DIMENSION
  5
2CC5
330
1A
100
AcDbEntity
  8
AM_5
100
AcDbDimension
  2
*D34
 10
378.0326365419271
 20
265.5654687020536
 30
0.0
 11
398.2826365419271
 21
272.0654687020537
 31
0.0
 70
    32
 71
     5
 42
8.400026000000025
 73
     0
 74
     0
 75
     0
  3
AM_ISO
100
AcDbAlignedDimension
 13
369.6326105419271
 23
257.6307630524566
 33
0.0
 14
378.0326365419271
 24
257.6307630524566
 34
0.0
 50
0.0000000000000114
100
AcDbRotatedDimension
1001
ACAD
1000
DSTYLE
1002
{
1070
    40
1040
2.0
1002
}
  0
DIMENSION
  5
2D0E
330
1A
100
AcDbEntity
  8
AM_5
100
AcDbDimension
  2
*D35
 10
380.6326425419271
 20
282.1094874246486
 30
0.0
 11
375.1326265419271
 21
288.6094874246486
 31
0.0
 70
    32
 71
     5
 42
11.00003200000003
 73
     0
 74
     0
 75
     0
  3
AM_ISO
100
AcDbAlignedDimension
 13
369.6326105419271
 23
296.4307670524566
 33
0.0
 14
380.6326425419271
 24
298.9307670524567
 34
0.0
 50
0.0000000000001132
100
AcDbRotatedDimension
1001
ACAD
1000
DSTYLE
1002
{
1070
    40
1040
2.0
1002
}
  0
DIMENSION
  5
2D57
330
1A
100
AcDbEntity
  8
AM_5
100
AcDbDimension
  2
*D36
 10
366.6326425419271
 20
305.238988975964
 30
0.0
 11
349.8833534002937
 21
305.238988975964
 31
0.0
 70
   160
 71
     5
 42
2.999967999999967
 73
     0
 74
     0
 75
     0
  3
AM_ISO
100
AcDbAlignedDimension
 13
369.6326105419271
 23
326.6307790524566
 33
0.0
 14
366.6326425419271
 24
326.6307790524566
 34
0.0
 50
0.0000000000001132
100
AcDbRotatedDimension
1001
ACAD
1000
DSTYLE
1002
{
1070
    40
1040
2.0
1002
}
  0
DIMENSION
  5
2DA0
330
1A
100
AcDbEntity
  8
AM_5
100
AcDbDimension
  2
*D37
 10
366.6326425419271
 20
231.1924591827478
 30
0.0
 11
350.0876677950965
 21
231.1924591827478
 31
0.0
 70
   160
 71
     5
 42
3.0
 73
     0
 74
     0
 75
     0
  3
AM_ISO
100
AcDbAlignedDimension
 13
369.6326425419271
 23
257.6307630524566
 33
0.0
 14
366.6326425419271
 24
257.6307630524566
 34
0.0
 50
0.0000000000001132
100
AcDbRotatedDimension
1001
ACAD
1000
DSTYLE
1002
{
1070
    40
1040
2.0
1002
}
  0
DIMENSION
  5
2E7A
330
1A
100
AcDbEntity
  8
AM_5
100
AcDbDimension
  2
*D38
 10
161.9447398922672
 20
37.43073705245662
 30
0.0
 11
155.4447398922672
 21
17.38300640011424
 31
0.0
 70
    32
 71
     5
 42
0.4999840000000049
 73
     0
 74
     0
 75
     0
  3
AM_ISO
100
AcDbAlignedDimension
 13
175.6327185419271
 23
37.93072105245662
 33
0.0
 14
178.6326565419271
 24
37.43073705245661
 34
0.0
 50
90.00000000000003
100
AcDbRotatedDimension
1001
ACAD
1000
DSTYLE
1002
{
1070
    40
1040
2.0
1002
}
  0
DIMENSION
  5
2EC3
330
1A
100
AcDbEntity
  8
AM_5
100
AcDbDimension
  2
*D39
 10
178.6326425419271
 20
6.130695067573356
 30
0.0
 11
195.1776172887576
 21
12.63069506757335
 31
0.0
 70
    32
 71
     5
 42
2.999923999999964
 73
     0
 74
     0
 75
     0
  3
AM_ISO
100
AcDbAlignedDimension
 13
175.6327185419271
 23
19.93076705245661
 33
0.0
 14
178.6326425419271
 24
19.93076705245661
 34
0.0
 50
0.0000000000001132
100
AcDbRotatedDimension
1001
ACAD
1000
DSTYLE
1002
{
1070
    40
1040
2.0
1002
}
  0
DIMENSION
  5
2F08
330
1A
100
AcDbEntity
  8
AM_5
100
AcDbDimension
  2
*D40
 10
238.9005415143589
 20
37.43073705245661
 30
0.0
 11
232.4005415143589
 21
30.63076405245665
 31
0.0
 70
    32
  1
14
 71
     5
 42
13.59994599999999
 73
     0
 74
     0
 75
     0
  3
AM_ISO
100
AcDbAlignedDimension
 13
225.6326685419271
 23
23.83079105245662
 33
0.0
 14
225.6326685419271
 24
37.43073705245661
 34
0.0
 50
90.0
100
AcDbRotatedDimension
1001
ACAD
1000
DSTYLE
1002
{
1070
    40
1040
2.0
1002
}
  0
TEXT
  5
3007
330
1A
100
AcDbEntity
  8
AM_6
100
AcDbText
 10
343.9167135241108
 20
396.6102174960606
 30
0.0
 40
7.0
  1
1204-7-7-30
100
AcDbText
1001
GENIUS_AMGTXT_16
1040
3.5
1040
0.12
  0
DIMENSION
  5
302C
330
1A
100
AcDbEntity
  8
AM_5
100
AcDbDimension
  2
*D41
 10
209.6326625419271
 20
310.7023708154054
 30
0.0
 11
205.6326545419271
 21
310.7023708154054
 31
0.0
 70
   160
  1
<>
 71
     5
 42
8.000016000000016
 73
     0
 74
     0
 75
     0
  3
AM_ISO
100
AcDbAlignedDimension
 13
201.6326465419271
 23
293.0307730524567
 33
0.0
 14
209.6326625419271
 24
293.0307730524567
 34
0.0
 50
0.0000000000000114
100
AcDbRotatedDimension
1001
ACAD
1000
DSTYLE
1002
{
1070
    40
1040
2.0
1002
}
  0
DIMENSION
  5
309B
330
1A
100
AcDbEntity
  8
AM_5
100
AcDbDimension
  2
*D42
 10
175.6318145419271
 20
202.9049841685744
 30
0.0
 11
147.4790546364153
 21
202.9049841685744
 31
0.0
 70
   160
 71
     5
 42
10.00000400000002
 73
     0
 74
     0
 75
     0
  3
AM_ISO
100
AcDbAlignedDimension
 13
165.6318105419271
 23
225.5307430524566
 33
0.0
 14
175.6318145419271
 24
225.5307430524566
 34
0.0
 50
0.0000000000001132
100
AcDbRotatedDimension
1001
ACAD
1000
DSTYLE
1002
{
1070
    40
1040
2.0
1002
}
  0
VIEWPORT
  5
22
330
17
100
AcDbEntity
 67
     1
  8
0
100
AcDbViewport
 10
112.2893422104056
 20
152.9962003562143
 30
0.0
 40
408.1687337183674
 41
318.4351405079092
 68
     1
 69
     1
 12
112.2893422104056
 22
152.9962003562143
 13
0.0
 23
0.0
 14
10.0
 24
10.0
 15
10.0
 25
10.0
 16
0.0
 26
0.0
 36
1.0
 17
0.0
 27
0.0
 37
0.0
 42
50.0
 43
0.0
 44
0.0
 45
318.4351405079092
 50
0.0
 51
0.0
 72
   100
331
1969
 90
    32800
  1

281
     0
 71
     1
 74
     0
110
0.0
120
0.0
130
0.0
111
1.0
121
0.0
131
0.0
112
0.0
122
1.0
132
0.0
 79
     0
146
0.0
170
     0
 61
     5
348
328F
292
     1
282
     1
141
0.0
142
0.0
 63
   250
421
  3355443
1001
GENIUS_GENSCREG_15
1000
PF
1040
1.0
1000
DF
1040
1.0
1000
MIN
1011
11.7063398794879
1021
69.23822698240406
1031
0.0
1000
MAX
1011
146.8807982645257
1021
174.6953433489414
1031
0.0
1000
FLAGS
1070
     4
1001
GENIUS_GENOREF_13
1005
1677
  0
POINT
  5
1895
330
17
100
AcDbEntity
 67
     1
  8
AM_0
 60
     1
100
AcDbPoint
 10
0.0
 20
0.0
 30
0.0
  0
POINT
  5
189D
330
17
100
AcDbEntity
 67
     1
  8
AM_0
 60
     1
100
AcDbPoint
 10
0.0
 20
0.0
 30
0.0
  0
POINT
  5
1900
330
17
100
AcDbEntity
 67
     1
  8
AM_0
 60
     1
100
AcDbPoint
 10
0.0
 20
0.0
 30
0.0
  0
POINT
  5
1908
330
17
100
AcDbEntity
 67
     1
  8
AM_0
 60
     1
100
AcDbPoint
 10
0.0
 20
0.0
 30
0.0
  0
ENDSEC
  0
SECTION
  2
OBJECTS
  0
DICTIONARY
  5
C
330
0
100
AcDbDictionary
281
     1
  3
ACAD_COLOR
350
30EC
  3
ACAD_GROUP
350
D
  3
ACAD_LAYOUT
350
167
  3
ACAD_MATERIAL
350
30EB
  3
ACAD_MLEADERSTYLE
350
32BE
  3
ACAD_MLINESTYLE
350
E
  3
ACAD_PLOTSETTINGS
350
168
  3
ACAD_PLOTSTYLENAME
350
165
  3
ACAD_SCALELIST
350
329C
  3
ACAD_TABLESTYLE
350
329A
  3
ACAD_VISUALSTYLE
350
3289
  3
ACDB_RECOMPOSE_DATA
350
3320
  3
ACDBVARIABLEDICTIONARY
350
5D
  3
ACMDICTIONARY
350
142
  3
AMG
350
171
  3
AMG_3D2D_DICT
350
18A8
  3
AMGSNAPSETTINGS
350
1F2
  3
MAPISURF_MODULE
350
17FD
  0
DICTIONARY
  5
32EC
330
F
100
AcDbDictionary
280
     1
281
     1
  3
ADSK_XREC_LAYER_RECONCILED
360
32ED
  0
DICTIONARY
  5
32EE
330
35A
100
AcDbDictionary
280
     1
281
     1
  3
ADSK_XREC_LAYER_RECONCILED
360
32EF
  0
DICTIONARY
  5
32F0
330
35B
100
AcDbDictionary
280
     1
281
     1
  3
ADSK_XREC_LAYER_RECONCILED
360
32F1
  0
DICTIONARY
  5
32F2
330
35C
100
AcDbDictionary
280
     1
281
     1
  3
ADSK_XREC_LAYER_RECONCILED
360
32F3
  0
DICTIONARY
  5
32F4
330
35D
100
AcDbDictionary
280
     1
281
     1
  3
ADSK_XREC_LAYER_RECONCILED
360
32F5
  0
DICTIONARY
  5
32F6
330
35E
100
AcDbDictionary
280
     1
281
     1
  3
ADSK_XREC_LAYER_RECONCILED
360
32F7
  0
DICTIONARY
  5
32F8
330
35F
100
AcDbDictionary
280
     1
281
     1
  3
ADSK_XREC_LAYER_RECONCILED
360
32F9
  0
DICTIONARY
  5
32FA
330
360
100
AcDbDictionary
280
     1
281
     1
  3
ADSK_XREC_LAYER_RECONCILED
360
32FB
  0
DICTIONARY
  5
32FC
330
361
100
AcDbDictionary
280
     1
281
     1
  3
ADSK_XREC_LAYER_RECONCILED
360
32FD
  0
DICTIONARY
  5
32FE
330
362
100
AcDbDictionary
280
     1
281
     1
  3
ADSK_XREC_LAYER_RECONCILED
360
32FF
  0
DICTIONARY
  5
3300
330
38E
100
AcDbDictionary
280
     1
281
     1
  3
ADSK_XREC_LAYER_RECONCILED
360
3301
  0
DICTIONARY
  5
3302
330
3F7
100
AcDbDictionary
280
     1
281
     1
  3
ADSK_XREC_LAYER_RECONCILED
360
3303
  0
DICTIONARY
  5
3304
330
5FC
100
AcDbDictionary
280
     1
281
     1
  3
ADSK_XREC_LAYER_RECONCILED
360
3305
  0
DICTIONARY
  5
3306
330
614
100
AcDbDictionary
280
     1
281
     1
  3
ADSK_XREC_LAYER_RECONCILED
360
3307
  0
DICTIONARY
  5
3308
330
79B
100
AcDbDictionary
280
     1
281
     1
  3
ADSK_XREC_LAYER_RECONCILED
360
3309
  0
DICTIONARY
  5
330A
330
1054
100
AcDbDictionary
280
     1
281
     1
  3
ADSK_XREC_LAYER_RECONCILED
360
330B
  0
DICTIONARY
  5
330C
330
106E
100
AcDbDictionary
280
     1
281
     1
  3
ADSK_XREC_LAYER_RECONCILED
360
330D
  0
DICTIONARY
  5
330E
330
106F
100
AcDbDictionary
280
     1
281
     1
  3
ADSK_XREC_LAYER_RECONCILED
360
330F
  0
DICTIONARY
  5
3310
330
108B
100
AcDbDictionary
280
     1
281
     1
  3
ADSK_XREC_LAYER_RECONCILED
360
3311
  0
DICTIONARY
  5
3312
330
1969
100
AcDbDictionary
280
     1
281
     1
  3
ADSK_XREC_LAYER_RECONCILED
360
3313
  0
DICTIONARY
  5
3314
330
1B88
100
AcDbDictionary
280
     1
281
     1
  3
ADSK_XREC_LAYER_RECONCILED
360
3315
  0
DICTIONARY
  5
3316
330
1B89
100
AcDbDictionary
280
     1
281
     1
  3
ADSK_XREC_LAYER_RECONCILED
360
3317
  0
DICTIONARY
  5
3318
330
1B8A
100
AcDbDictionary
280
     1
281
     1
  3
ADSK_XREC_LAYER_RECONCILED
360
3319
  0
DICTIONARY
  5
331A
330
1B8B
100
AcDbDictionary
280
     1
281
     1
  3
ADSK_XREC_LAYER_RECONCILED
360
331B
  0
DICTIONARY
  5
331C
330
1B8C
100
AcDbDictionary
280
     1
281
     1
  3
ADSK_XREC_LAYER_RECONCILED
360
331D
  0
DICTIONARY
  5
12A
330
1A
100
AcDbDictionary
280
     1
281
     1
  3
ACAD_INDEX
360
17BE
  0
DICTIONARY
  5
30EC
102
{ACAD_REACTORS
330
C
102
}
330
C
100
AcDbDictionary
281
     1
  0
DICTIONARY
  5
D
102
{ACAD_REACTORS
330
C
102
}
330
C
100
AcDbDictionary
281
     1
  0
DICTIONARY
  5
167
102
{ACAD_REACTORS
330
C
102
}
330
C
100
AcDbDictionary
281
     1
  3
A0
350
351
  3
A1
350
314
  3
A2
350
349
  3
A3
350
2E1
  3
A4
350
16A
  3
Model
350
169
  0
DICTIONARY
  5
30EB
102
{ACAD_REACTORS
330
C
102
}
330
C
100
AcDbDictionary
281
     1
  3
ByBlock
350
3279
  3
ByLayer
350
3271
  3
Global
350
3281
  0
DICTIONARY
  5
32BE
102
{ACAD_REACTORS
330
C
102
}
330
C
100
AcDbDictionary
281
     1
  3
Standard
350
32BF
  0
DICTIONARY
  5
E
102
{ACAD_REACTORS
330
C
102
}
330
C
100
AcDbDictionary
281
     1
  3
STANDARD
350
13
  0
DICTIONARY
  5
168
102
{ACAD_REACTORS
330
C
102
}
330
C
100
AcDbDictionary
281
     1
  3
A0
350
2EE
  3
A0-A3
350
2F2
  3
A0-A4
350
2F3
  3
A1
350
2ED
  3
A2
350
2EA
  3
A3
350
31E
  3
A4
350
319
  0
ACDBDICTIONARYWDFLT
  5
165
102
{ACAD_REACTORS
330
C
102
}
330
C
100
AcDbDictionary
281
     1
  3
Normal
350
166
100
AcDbDictionaryWithDefault
340
166
  0
DICTIONARY
  5
329C
102
{ACAD_REACTORS
330
C
102
}
330
C
100
AcDbDictionary
281
     1
  3
A0
350
329D
  3
A1
350
329E
  3
A2
350
329F
  3
A3
350
32A0
  3
A4
350
32A1
  3
A5
350
32A2
  3
A6
350
32A3
  3
A7
350
32A4
  3
A8
350
32A5
  3
A9
350
32A6
  3
B0
350
32A7
  3
B1
350
32A8
  3
B2
350
32A9
  3
B3
350
32AA
  3
B4
350
32AB
  3
B5
350
32AC
  3
B6
350
32AD
  3
B7
350
32AE
  3
B8
350
32AF
  3
B9
350
32B0
  3
C0
350
32B1
  3
C1
350
32B2
  3
C2
350
32B3
  3
C3
350
32B4
  3
C4
350
32B5
  3
C5
350
32B6
  3
C6
350
32B7
  3
C7
350
32B8
  3
C8
350
32B9
  3
C9
350
32BA
  3
D0
350
32BB
  3
D1
350
32BC
  3
D2
350
32BD
  0
DICTIONARY
  5
329A
102
{ACAD_REACTORS
330
C
102
}
330
C
100
AcDbDictionary
281
     1
  3
Standard
350
329B
  0
DICTIONARY
  5
3289
102
{ACAD_REACTORS
330
C
102
}
330
C
100
AcDbDictionary
281
     1
  3
2dWireframe
350
328F
  3
3D Hidden
350
3291
  3
3dWireframe
350
3290
  3
Basic
350
328E
  3
Brighten
350
3295
  3
ColorChange
350
3299
  3
Conceptual
350
3292
  3
Dim
350
3294
  3
Facepattern
350
3298
  3
Flat
350
328A
  3
FlatWithEdges
350
328B
  3
Gouraud
350
328C
  3
GouraudWithEdges
350
328D
  3
Linepattern
350
3297
  3
Realistic
350
3293
  3
Thicken
350
3296
  0
XRECORD
  5
3320
102
{ACAD_REACTORS
330
C
102
}
330
C
100
AcDbXrecord
280
     1
 90
        1
330
329B
  0
DICTIONARY
  5
5D
102
{ACAD_REACTORS
330
C
102
}
330
C
100
AcDbDictionary
281
     1
  3
CANNOSCALE
350
3324
  3
CMLEADERSTYLE
350
3322
  3
CTABLESTYLE
350
3321
  3
DIMADEC
350
5E
  3
INDEXCTL
350
128
  3
LAYEREVAL
350
3349
  3
LAYERNOTIFY
350
334A
  3
LIGHTINGUNITS
350
3325
  3
MSLTSCALE
350
3323
  3
SORTENTS
350
1044
  0
DICTIONARY
  5
142
102
{ACAD_REACTORS
330
C
102
}
330
C
100
AcDbDictionary
281
     1
  3
ACMSTDDICTIONARY
350
143
  3
AMDTSECTSYM_ARROWCOLOR
350
32E5
  0
DICTIONARY
  5
171
102
{ACAD_REACTORS
330
C
102
}
330
C
100
AcDbDictionary
281
     1
  3
AcMgSettings
350
172
  3
AMGLAYCFG
350
174
  0
DICTIONARY
  5
18A8
102
{ACAD_REACTORS
330
C
102
}
330
C
100
AcDbDictionary
281
     1
  3
AMG_SUBLIST_DICT
350
18A9
  0
DICTIONARY
  5
1F2
102
{ACAD_REACTORS
330
C
102
}
330
C
100
AcDbDictionary
281
     1
  3
DIMENSION
350
164B
  3
FEA
350
164C
  3
HATCH
350
164D
  3
SYMBOLS
350
164E
  0
XRECORD
  5
32ED
102
{ACAD_REACTORS
330
32EC
102
}
330
32EC
100
AcDbXrecord
280
     1
290
     1
  0
XRECORD
  5
32EF
102
{ACAD_REACTORS
330
32EE
102
}
330
32EE
100
AcDbXrecord
280
     1
290
     1
  0
XRECORD
  5
32F1
102
{ACAD_REACTORS
330
32F0
102
}
330
32F0
100
AcDbXrecord
280
     1
290
     1
  0
XRECORD
  5
32F3
102
{ACAD_REACTORS
330
32F2
102
}
330
32F2
100
AcDbXrecord
280
     1
290
     1
  0
XRECORD
  5
32F5
102
{ACAD_REACTORS
330
32F4
102
}
330
32F4
100
AcDbXrecord
280
     1
290
     1
  0
XRECORD
  5
32F7
102
{ACAD_REACTORS
330
32F6
102
}
330
32F6
100
AcDbXrecord
280
     1
290
     1
  0
XRECORD
  5
32F9
102
{ACAD_REACTORS
330
32F8
102
}
330
32F8
100
AcDbXrecord
280
     1
290
     1
  0
XRECORD
  5
32FB
102
{ACAD_REACTORS
330
32FA
102
}
330
32FA
100
AcDbXrecord
280
     1
290
     1
  0
XRECORD
  5
32FD
102
{ACAD_REACTORS
330
32FC
102
}
330
32FC
100
AcDbXrecord
280
     1
290
     1
  0
XRECORD
  5
32FF
102
{ACAD_REACTORS
330
32FE
102
}
330
32FE
100
AcDbXrecord
280
     1
290
     1
  0
XRECORD
  5
3301
102
{ACAD_REACTORS
330
3300
102
}
330
3300
100
AcDbXrecord
280
     1
290
     1
  0
XRECORD
  5
3303
102
{ACAD_REACTORS
330
3302
102
}
330
3302
100
AcDbXrecord
280
     1
290
     1
  0
XRECORD
  5
3305
102
{ACAD_REACTORS
330
3304
102
}
330
3304
100
AcDbXrecord
280
     1
290
     1
  0
XRECORD
  5
3307
102
{ACAD_REACTORS
330
3306
102
}
330
3306
100
AcDbXrecord
280
     1
290
     1
  0
XRECORD
  5
3309
102
{ACAD_REACTORS
330
3308
102
}
330
3308
100
AcDbXrecord
280
     1
290
     1
  0
XRECORD
  5
330B
102
{ACAD_REACTORS
330
330A
102
}
330
330A
100
AcDbXrecord
280
     1
290
     1
  0
XRECORD
  5
330D
102
{ACAD_REACTORS
330
330C
102
}
330
330C
100
AcDbXrecord
280
     1
290
     1
  0
XRECORD
  5
330F
102
{ACAD_REACTORS
330
330E
102
}
330
330E
100
AcDbXrecord
280
     1
290
     1
  0
XRECORD
  5
3311
102
{ACAD_REACTORS
330
3310
102
}
330
3310
100
AcDbXrecord
280
     1
290
     1
  0
XRECORD
  5
3313
102
{ACAD_REACTORS
330
3312
102
}
330
3312
100
AcDbXrecord
280
     1
290
     1
  0
XRECORD
  5
3315
102
{ACAD_REACTORS
330
3314
102
}
330
3314
100
AcDbXrecord
280
     1
290
     1
  0
XRECORD
  5
3317
102
{ACAD_REACTORS
330
3316
102
}
330
3316
100
AcDbXrecord
280
     1
290
     1
  0
XRECORD
  5
3319
102
{ACAD_REACTORS
330
3318
102
}
330
3318
100
AcDbXrecord
280
     1
290
     1
  0
XRECORD
  5
331B
102
{ACAD_REACTORS
330
331A
102
}
330
331A
100
AcDbXrecord
280
     1
290
     1
  0
XRECORD
  5
331D
102
{ACAD_REACTORS
330
331C
102
}
330
331C
100
AcDbXrecord
280
     1
290
     1
  0
DICTIONARY
  5
17BE
102
{ACAD_REACTORS
330
12A
102
}
330
12A
100
AcDbDictionary
281
     1
  3
*A1
350
17BF
  0
LAYOUT
  5
351
102
{ACAD_REACTORS
330
167
102
}
330
167
100
AcDbPlotSettings
  1
A0
  2
HPDJ220-A0
  4
User268
  6

 40
4.995333194732666
 41
16.93336677551269
 42
4.99530029296875
 43
16.933349609375
 44
840.9093017578125
 45
1188.8046875
 46
0.0
 47
0.0
 48
0.0
 49
0.0
140
0.0
141
0.0
142
1.0
143
1.0
 70
   752
 72
     1
 73
     1
 74
     5
  7
PLA0.ctb
 75
    16
147
1.0
 76
     0
 77
     2
 78
   300
148
0.0
149
0.0
100
AcDbLayout
  1
A0
 70
     1
 71
     5
 10
-16.933349609375
 20
-4.995333194732666
 11
1171.871337890625
 21
835.9139685630799
 12
0.0
 22
0.0
 32
0.0
 14
1.000000000000000E+20
 24
1.000000000000000E+20
 34
1.000000000000000E+20
 15
-1.000000000000000E+20
 25
-1.000000000000000E+20
 35
-1.000000000000000E+20
146
0.0
 13
0.0
 23
0.0
 33
0.0
 16
1.0
 26
0.0
 36
0.0
 17
0.0
 27
1.0
 37
0.0
 76
     0
330
34D
331
34E
  0
LAYOUT
  5
314
102
{ACAD_REACTORS
330
167
102
}
330
167
100
AcDbPlotSettings
  1
A2
  2
HPDJ220-A0
  4
User266
  6

 40
4.995333194732666
 41
16.93330574035644
 42
4.995330810546875
 43
16.933349609375
 44
419.9466552734374
 45
593.8519897460937
 46
0.0
 47
0.0
 48
0.0
 49
0.0
140
0.0
141
0.0
142
1.0
143
1.0
 70
   752
 72
     1
 73
     1
 74
     5
  7
PLA2.ctb
 75
    16
147
1.0
 76
     0
 77
     2
 78
   300
148
0.0
149
0.0
100
AcDbLayout
  1
A1
 70
     1
 71
     4
 10
-16.933349609375
 20
-4.995333194732666
 11
576.9186401367187
 21
414.9513220787047
 12
0.0
 22
0.0
 32
0.0
 14
1.000000000000000E+20
 24
1.000000000000000E+20
 34
1.000000000000000E+20
 15
-1.000000000000000E+20
 25
-1.000000000000000E+20
 35
-1.000000000000000E+20
146
0.0
 13
0.0
 23
0.0
 33
0.0
 16
1.0
 26
0.0
 36
0.0
 17
0.0
 27
1.0
 37
0.0
 76
     0
330
313
331
344
  0
LAYOUT
  5
349
102
{ACAD_REACTORS
330
167
102
}
330
167
100
AcDbPlotSettings
  1
A2
  2
HPDJ220-A0
  4
User266
  6

 40
4.995333194732666
 41
16.93330574035644
 42
4.995330810546875
 43
16.933349609375
 44
419.9466552734374
 45
593.8519897460937
 46
0.0
 47
0.0
 48
0.0
 49
0.0
140
0.0
141
0.0
142
1.0
143
1.0
 70
   752
 72
     1
 73
     1
 74
     5
  7
PLA2.ctb
 75
    16
147
1.0
 76
     0
 77
     2
 78
   300
148
0.0
149
0.0
100
AcDbLayout
  1
A2
 70
     1
 71
     3
 10
-16.933349609375
 20
-4.995333194732666
 11
576.9186401367187
 21
414.9513220787047
 12
0.0
 22
0.0
 32
0.0
 14
1.000000000000000E+20
 24
1.000000000000000E+20
 34
1.000000000000000E+20
 15
-1.000000000000000E+20
 25
-1.000000000000000E+20
 35
-1.000000000000000E+20
146
0.0
 13
0.0
 23
0.0
 33
0.0
 16
1.0
 26
0.0
 36
0.0
 17
0.0
 27
1.0
 37
0.0
 76
     0
330
345
331
346
  0
LAYOUT
  5
2E1
102
{ACAD_REACTORS
330
167
102
}
330
167
100
AcDbPlotSettings
  1
A3
  2
\\GLUTZCH_PDC\HP LaserJet 5000 N PCL 6
  4
A3
  6

 40
5.027083396911621
 41
5.111741065979003
 42
5.11175537109375
 43
5.027069091796875
 44
297.0106506347656
 45
419.9889831542968
 46
0.0
 47
0.0
 48
0.0
 49
0.0
140
0.0
141
0.0
142
1.0
143
1.0
 70
   752
 72
     1
 73
     1
 74
     5
  7
LAA3.ctb
 75
    16
147
1.0
 76
     0
 77
     2
 78
   300
148
0.0
149
0.0
100
AcDbLayout
  1
A3
 70
     1
 71
     2
 10
-5.027069091796875
 20
-5.027083396911621
 11
414.9619140625
 21
291.983567237854
 12
0.0
 22
0.0
 32
0.0
 14
1.000000000000000E+20
 24
1.000000000000000E+20
 34
1.000000000000000E+20
 15
-1.000000000000000E+20
 25
-1.000000000000000E+20
 35
-1.000000000000000E+20
146
0.0
 13
0.0
 23
0.0
 33
0.0
 16
1.0
 26
0.0
 36
0.0
 17
0.0
 27
1.0
 37
0.0
 76
     0
330
2E0
331
31D
  0
LAYOUT
  5
16A
102
{ACAD_REACTORS
330
167
102
}
330
167
100
AcDbPlotSettings
  1
A4
  2
\\GLUTZCH_PDC\HP LaserJet 5000 N PCL 6
  4
A4
  6

 40
5.027083396911621
 41
5.111741065979003
 42
5.11175537109375
 43
5.027069091796875
 44
210.0156707763672
 45
297.0106506347656
 46
0.0
 47
0.0
 48
0.0
 49
0.0
140
0.0
141
0.0
142
1.0
143
1.0
 70
   752
 72
     1
 73
     0
 74
     5
  7
LAA4.ctb
 75
    16
147
1.0
 76
     0
 77
     2
 78
   300
148
0.0
149
0.0
100
AcDbLayout
  1
A4
 70
     1
 71
     1
 10
-5.027083396911621
 20
-5.111741065979003
 11
204.9885873794556
 21
291.8989095687866
 12
0.0
 22
0.0
 32
0.0
 14
1.000000000000000E+20
 24
1.000000000000000E+20
 34
1.000000000000000E+20
 15
-1.000000000000000E+20
 25
-1.000000000000000E+20
 35
-1.000000000000000E+20
146
0.0
 13
0.0
 23
0.0
 33
0.0
 16
1.0
 26
0.0
 36
0.0
 17
0.0
 27
1.0
 37
0.0
 76
     0
330
17
331
22
  0
LAYOUT
  5
169
102
{ACAD_REACTORS
330
167
102
}
330
167
100
AcDbPlotSettings
  1

  2
Adobe PDF
  4
A4
  6
AMDTVIEW1
 40
3.174999952316284
 41
3.174999952316284
 42
3.17498779296875
 43
3.175003051757812
 44
297.0318298339844
 45
209.9098358154297
 46
35.37
 47
8.169999999999999
 48
0.0
 49
0.0
140
0.0
141
0.0
142
1.0
143
2.0
 70
 11956
 72
     1
 73
     1
 74
     1
  7
LAA4.ctb
 75
    17
147
0.5
 76
     0
 77
     2
 78
   300
148
152.3210301747899
149
181.887234444793
100
AcDbLayout
  1
Model
 70
     1
 71
     0
 10
0.0
 20
0.0
 11
12.0
 21
9.0
 12
0.0
 22
0.0
 32
0.0
 14
0.0
 24
0.0
 34
0.0
 15
0.0
 25
0.0
 35
0.0
146
0.0
 13
0.0
 23
0.0
 33
0.0
 16
1.0
 26
0.0
 36
0.0
 17
0.0
 27
1.0
 37
0.0
 76
     0
330
1A
331
326F
  0
MATERIAL
  5
3279
102
{ACAD_XDICTIONARY
360
327A
102
}
102
{ACAD_REACTORS
330
30EB
102
}
330
30EB
100
AcDbMaterial
  1
ByBlock
 72
     0
 43
0.0208333333333333
 43
0.0
 43
0.0
 43
0.0
 43
0.0
 43
0.0208333333333333
 43
0.0
 43
0.0
 43
0.0
 43
0.0
 43
1.0
 43
0.0
 43
0.0
 43
0.0
 43
0.0
 43
1.0
 77
     0
 47
0.0208333333333333
 47
0.0
 47
0.0
 47
0.0
 47
0.0
 47
0.0208333333333333
 47
0.0
 47
0.0
 47
0.0
 47
0.0
 47
1.0
 47
0.0
 47
0.0
 47
0.0
 47
0.0
 47
1.0
171
     0
 49
0.0208333333333333
 49
0.0
 49
0.0
 49
0.0
 49
0.0
 49
0.0208333333333333
 49
0.0
 49
0.0
 49
0.0
 49
0.0
 49
1.0
 49
0.0
 49
0.0
 49
0.0
 49
0.0
 49
1.0
175
     0
142
0.0208333333333333
142
0.0
142
0.0
142
0.0
142
0.0
142
0.0208333333333333
142
0.0
142
0.0
142
0.0
142
0.0
142
1.0
142
0.0
142
0.0
142
0.0
142
0.0
142
1.0
179
     0
144
0.0208333333333333
144
0.0
144
0.0
144
0.0
144
0.0
144
0.0208333333333333
144
0.0
144
0.0
144
0.0
144
0.0
144
1.0
144
0.0
144
0.0
144
0.0
144
0.0
144
1.0
147
0.0208333333333333
147
0.0
147
0.0
147
0.0
147
0.0
147
0.0208333333333333
147
0.0
147
0.0
147
0.0
147
0.0
147
1.0
147
0.0
147
0.0
147
0.0
147
0.0
147
1.0
  0
MATERIAL
  5
3271
102
{ACAD_XDICTIONARY
360
3272
102
}
102
{ACAD_REACTORS
330
30EB
102
}
330
30EB
100
AcDbMaterial
  1
ByLayer
 72
     0
 43
0.0208333333333333
 43
0.0
 43
0.0
 43
0.0
 43
0.0
 43
0.0208333333333333
 43
0.0
 43
0.0
 43
0.0
 43
0.0
 43
1.0
 43
0.0
 43
0.0
 43
0.0
 43
0.0
 43
1.0
 77
     0
 47
0.0208333333333333
 47
0.0
 47
0.0
 47
0.0
 47
0.0
 47
0.0208333333333333
 47
0.0
 47
0.0
 47
0.0
 47
0.0
 47
1.0
 47
0.0
 47
0.0
 47
0.0
 47
0.0
 47
1.0
171
     0
 49
0.0208333333333333
 49
0.0
 49
0.0
 49
0.0
 49
0.0
 49
0.0208333333333333
 49
0.0
 49
0.0
 49
0.0
 49
0.0
 49
1.0
 49
0.0
 49
0.0
 49
0.0
 49
0.0
 49
1.0
175
     0
142
0.0208333333333333
142
0.0
142
0.0
142
0.0
142
0.0
142
0.0208333333333333
142
0.0
142
0.0
142
0.0
142
0.0
142
1.0
142
0.0
142
0.0
142
0.0
142
0.0
142
1.0
179
     0
144
0.0208333333333333
144
0.0
144
0.0
144
0.0
144
0.0
144
0.0208333333333333
144
0.0
144
0.0
144
0.0
144
0.0
144
1.0
144
0.0
144
0.0
144
0.0
144
0.0
144
1.0
147
0.0208333333333333
147
0.0
147
0.0
147
0.0
147
0.0
147
0.0208333333333333
147
0.0
147
0.0
147
0.0
147
0.0
147
1.0
147
0.0
147
0.0
147
0.0
147
0.0
147
1.0
  0
MATERIAL
  5
3281
102
{ACAD_XDICTIONARY
360
3282
102
}
102
{ACAD_REACTORS
330
30EB
102
}
330
30EB
100
AcDbMaterial
  1
Global
 72
     0
 43
0.0208333333333333
 43
0.0
 43
0.0
 43
0.0
 43
0.0
 43
0.0208333333333333
 43
0.0
 43
0.0
 43
0.0
 43
0.0
 43
1.0
 43
0.0
 43
0.0
 43
0.0
 43
0.0
 43
1.0
 77
     0
 47
0.0208333333333333
 47
0.0
 47
0.0
 47
0.0
 47
0.0
 47
0.0208333333333333
 47
0.0
 47
0.0
 47
0.0
 47
0.0
 47
1.0
 47
0.0
 47
0.0
 47
0.0
 47
0.0
 47
1.0
171
     0
 49
0.0208333333333333
 49
0.0
 49
0.0
 49
0.0
 49
0.0
 49
0.0208333333333333
 49
0.0
 49
0.0
 49
0.0
 49
0.0
 49
1.0
 49
0.0
 49
0.0
 49
0.0
 49
0.0
 49
1.0
175
     0
142
0.0208333333333333
142
0.0
142
0.0
142
0.0
142
0.0
142
0.0208333333333333
142
0.0
142
0.0
142
0.0
142
0.0
142
1.0
142
0.0
142
0.0
142
0.0
142
0.0
142
1.0
179
     0
144
0.0208333333333333
144
0.0
144
0.0
144
0.0
144
0.0
144
0.0208333333333333
144
0.0
144
0.0
144
0.0
144
0.0
144
1.0
144
0.0
144
0.0
144
0.0
144
0.0
144
1.0
147
0.0208333333333333
147
0.0
147
0.0
147
0.0
147
0.0
147
0.0208333333333333
147
0.0
147
0.0
147
0.0
147
0.0
147
1.0
147
0.0
147
0.0
147
0.0
147
0.0
147
1.0
  0
MLEADERSTYLE
  5
32BF
102
{ACAD_REACTORS
330
32BE
102
}
330
32BE
100
AcDbMLeaderStyle
170
     2
171
     1
172
     0
 90
        2
 40
0.0
 41
0.0
173
     1
 91
-1056964608
340
14
 92
       -2
290
     1
 42
2.0
291
     1
 43
0.36
  3
Standard
 44
4.0
300

342
10
174
     1
178
     6
175
     1
176
     0
 93
-1056964608
 45
4.0
292
     0
297
     0
 46
4.0
 94
-1056964608
 47
1.0
 49
1.0
140
1.0
293
     1
141
0.0
294
     1
177
     0
142
1.0
295
     0
296
     0
143
0.125
1001
ACAD_MLEADERVER
1070
     2
  0
MLINESTYLE
  5
13
102
{ACAD_REACTORS
330
E
102
}
330
E
100
AcDbMlineStyle
  2
STANDARD
 70
     0
  3

 62
     0
 51
90.0
 52
90.0
 71
     2
 49
0.5
 62
   256
  6
BYLAYER
 49
-0.5
 62
   256
  6
BYLAYER
  0
PLOTSETTINGS
  5
2EE
102
{ACAD_REACTORS
330
168
102
}
330
168
100
AcDbPlotSettings
  1
A0
  2
HPDJ220-A0
  4
User268
  6

 40
4.995333194732666
 41
16.93336677551269
 42
4.99530029296875
 43
16.933349609375
 44
840.9093017578125
 45
1188.8046875
 46
0.0
 47
0.0
 48
0.0
 49
0.0
140
0.0
141
0.0
142
1.0
143
1.0
 70
   752
 72
     1
 73
     1
 74
     5
  7
PLA0.ctb
 75
    16
147
1.0
 76
     0
 77
     2
 78
   300
148
0.0
149
0.0
  0
PLOTSETTINGS
  5
2F2
102
{ACAD_REACTORS
330
168
102
}
330
168
100
AcDbPlotSettings
  1
A0-A3
  2
\\GLUTZCH_PDC\HP LaserJet 5000 N PCL 6
  4
A3
  6

 40
5.027083396911621
 41
5.111741065979003
 42
5.11175537109375
 43
5.027069091796875
 44
297.0106506347656
 45
419.9889831542968
 46
0.0
 47
0.0
 48
0.0
 49
0.0
140
0.0
141
0.0
142
1.0
143
1.0
 70
   752
 72
     1
 73
     1
 74
     5
  7
LAA0-A3.ctb
 75
     0
147
1.0
 76
     0
 77
     2
 78
   300
148
0.0
149
0.0
  0
PLOTSETTINGS
  5
2F3
102
{ACAD_REACTORS
330
168
102
}
330
168
100
AcDbPlotSettings
  1
A0-A4
  2
\\GLUTZCH_PDC\HP LaserJet 5000 N PCL 6
  4
A4
  6

 40
5.027083396911621
 41
5.111741065979003
 42
5.11175537109375
 43
5.027069091796875
 44
210.0156707763672
 45
297.0106506347656
 46
0.0
 47
0.0
 48
0.0
 49
0.0
140
0.0
141
0.0
142
1.0
143
1.0
 70
   752
 72
     1
 73
     0
 74
     5
  7
LAA0-A4.ctb
 75
     0
147
1.0
 76
     0
 77
     2
 78
   300
148
0.0
149
0.0
  0
PLOTSETTINGS
  5
2ED
102
{ACAD_REACTORS
330
168
102
}
330
168
100
AcDbPlotSettings
  1
A1
  2
HPDJ220-A0
  4
User267
  6

 40
4.995333194732666
 41
16.93330574035644
 42
4.99530029296875
 43
16.933349609375
 44
593.9366455078125
 45
840.8246459960937
 46
0.0
 47
0.0
 48
0.0
 49
0.0
140
0.0
141
0.0
142
1.0
143
1.0
 70
   752
 72
     1
 73
     1
 74
     5
  7
PLA1.ctb
 75
    16
147
1.0
 76
     0
 77
     2
 78
   300
148
0.0
149
0.0
  0
PLOTSETTINGS
  5
2EA
102
{ACAD_REACTORS
330
168
102
}
330
168
100
AcDbPlotSettings
  1
A2
  2
HPDJ220-A0
  4
User266
  6

 40
4.995333194732666
 41
16.93330574035644
 42
4.995330810546875
 43
16.933349609375
 44
419.9466552734374
 45
593.8519897460937
 46
0.0
 47
0.0
 48
0.0
 49
0.0
140
0.0
141
0.0
142
1.0
143
1.0
 70
   752
 72
     1
 73
     1
 74
     5
  7
PLA2.ctb
 75
    16
147
1.0
 76
     0
 77
     2
 78
   300
148
0.0
149
0.0
  0
PLOTSETTINGS
  5
31E
102
{ACAD_REACTORS
330
168
102
}
330
168
100
AcDbPlotSettings
  1
A3
  2
\\GLUTZCH_PDC\HP LaserJet 5000 N PCL 6
  4
A3
  6

 40
5.027083396911621
 41
5.111741065979003
 42
5.11175537109375
 43
5.027069091796875
 44
297.0106506347656
 45
419.9889831542968
 46
0.0
 47
0.0
 48
0.0
 49
0.0
140
0.0
141
0.0
142
1.0
143
1.0
 70
   752
 72
     1
 73
     1
 74
     5
  7
LAA3.ctb
 75
    16
147
1.0
 76
     0
 77
     2
 78
   300
148
0.0
149
0.0
  0
PLOTSETTINGS
  5
319
102
{ACAD_REACTORS
330
168
102
}
330
168
100
AcDbPlotSettings
  1
A4
  2
\\GLUTZCH_PDC\HP LaserJet 5000 N PCL 6
  4
A4
  6

 40
5.027083396911621
 41
5.111741065979003
 42
5.11175537109375
 43
5.027069091796875
 44
210.0156707763672
 45
297.0106506347656
 46
0.0
 47
0.0
 48
0.0
 49
0.0
140
0.0
141
0.0
142
1.0
143
1.0
 70
   752
 72
     1
 73
     0
 74
     5
  7
LAA4.ctb
 75
    16
147
1.0
 76
     0
 77
     2
 78
   300
148
0.0
149
0.0
  0
ACDBPLACEHOLDER
  5
166
102
{ACAD_REACTORS
330
165
102
}
330
165
  0
SCALE
  5
329D
102
{ACAD_REACTORS
330
329C
102
}
330
329C
100
AcDbScale
 70
     0
300
1:1
140
1.0
141
1.0
290
     1
  0
SCALE
  5
329E
102
{ACAD_REACTORS
330
329C
102
}
330
329C
100
AcDbScale
 70
     0
300
1:2
140
1.0
141
2.0
290
     0
  0
SCALE
  5
329F
102
{ACAD_REACTORS
330
329C
102
}
330
329C
100
AcDbScale
 70
     0
300
1:4
140
1.0
141
4.0
290
     0
  0
SCALE
  5
32A0
102
{ACAD_REACTORS
330
329C
102
}
330
329C
100
AcDbScale
 70
     0
300
1:5
140
1.0
141
5.0
290
     0
  0
SCALE
  5
32A1
102
{ACAD_REACTORS
330
329C
102
}
330
329C
100
AcDbScale
 70
     0
300
1:8
140
1.0
141
8.0
290
     0
  0
SCALE
  5
32A2
102
{ACAD_REACTORS
330
329C
102
}
330
329C
100
AcDbScale
 70
     0
300
1:10
140
1.0
141
10.0
290
     0
  0
SCALE
  5
32A3
102
{ACAD_REACTORS
330
329C
102
}
330
329C
100
AcDbScale
 70
     0
300
1:16
140
1.0
141
16.0
290
     0
  0
SCALE
  5
32A4
102
{ACAD_REACTORS
330
329C
102
}
330
329C
100
AcDbScale
 70
     0
300
1:20
140
1.0
141
20.0
290
     0
  0
SCALE
  5
32A5
102
{ACAD_REACTORS
330
329C
102
}
330
329C
100
AcDbScale
 70
     0
300
1:30
140
1.0
141
30.0
290
     0
  0
SCALE
  5
32A6
102
{ACAD_REACTORS
330
329C
102
}
330
329C
100
AcDbScale
 70
     0
300
1:40
140
1.0
141
40.0
290
     0
  0
SCALE
  5
32A7
102
{ACAD_REACTORS
330
329C
102
}
330
329C
100
AcDbScale
 70
     0
300
1:50
140
1.0
141
50.0
290
     0
  0
SCALE
  5
32A8
102
{ACAD_REACTORS
330
329C
102
}
330
329C
100
AcDbScale
 70
     0
300
1:100
140
1.0
141
100.0
290
     0
  0
SCALE
  5
32A9
102
{ACAD_REACTORS
330
329C
102
}
330
329C
100
AcDbScale
 70
     0
300
2:1
140
2.0
141
1.0
290
     0
  0
SCALE
  5
32AA
102
{ACAD_REACTORS
330
329C
102
}
330
329C
100
AcDbScale
 70
     0
300
4:1
140
4.0
141
1.0
290
     0
  0
SCALE
  5
32AB
102
{ACAD_REACTORS
330
329C
102
}
330
329C
100
AcDbScale
 70
     0
300
8:1
140
8.0
141
1.0
290
     0
  0
SCALE
  5
32AC
102
{ACAD_REACTORS
330
329C
102
}
330
329C
100
AcDbScale
 70
     0
300
10:1
140
10.0
141
1.0
290
     0
  0
SCALE
  5
32AD
102
{ACAD_REACTORS
330
329C
102
}
330
329C
100
AcDbScale
 70
     0
300
100:1
140
100.0
141
1.0
290
     0
  0
SCALE
  5
32AE
102
{ACAD_REACTORS
330
329C
102
}
330
329C
100
AcDbScale
 70
     0
300
1/128" = 1'-0"
140
0.0078125
141
12.0
290
     0
  0
SCALE
  5
32AF
102
{ACAD_REACTORS
330
329C
102
}
330
329C
100
AcDbScale
 70
     0
300
1/64" = 1'-0"
140
0.015625
141
12.0
290
     0
  0
SCALE
  5
32B0
102
{ACAD_REACTORS
330
329C
102
}
330
329C
100
AcDbScale
 70
     0
300
1/32" = 1'-0"
140
0.03125
141
12.0
290
     0
  0
SCALE
  5
32B1
102
{ACAD_REACTORS
330
329C
102
}
330
329C
100
AcDbScale
 70
     0
300
1/16" = 1'-0"
140
0.0625
141
12.0
290
     0
  0
SCALE
  5
32B2
102
{ACAD_REACTORS
330
329C
102
}
330
329C
100
AcDbScale
 70
     0
300
3/32" = 1'-0"
140
0.09375
141
12.0
290
     0
  0
SCALE
  5
32B3
102
{ACAD_REACTORS
330
329C
102
}
330
329C
100
AcDbScale
 70
     0
300
1/8" = 1'-0"
140
0.125
141
12.0
290
     0
  0
SCALE
  5
32B4
102
{ACAD_REACTORS
330
329C
102
}
330
329C
100
AcDbScale
 70
     0
300
3/16" = 1'-0"
140
0.1875
141
12.0
290
     0
  0
SCALE
  5
32B5
102
{ACAD_REACTORS
330
329C
102
}
330
329C
100
AcDbScale
 70
     0
300
1/4" = 1'-0"
140
0.25
141
12.0
290
     0
  0
SCALE
  5
32B6
102
{ACAD_REACTORS
330
329C
102
}
330
329C
100
AcDbScale
 70
     0
300
3/8" = 1'-0"
140
0.375
141
12.0
290
     0
  0
SCALE
  5
32B7
102
{ACAD_REACTORS
330
329C
102
}
330
329C
100
AcDbScale
 70
     0
300
1/2" = 1'-0"
140
0.5
141
12.0
290
     0
  0
SCALE
  5
32B8
102
{ACAD_REACTORS
330
329C
102
}
330
329C
100
AcDbScale
 70
     0
300
3/4" = 1'-0"
140
0.75
141
12.0
290
     0
  0
SCALE
  5
32B9
102
{ACAD_REACTORS
330
329C
102
}
330
329C
100
AcDbScale
 70
     0
300
1" = 1'-0"
140
1.0
141
12.0
290
     0
  0
SCALE
  5
32BA
102
{ACAD_REACTORS
330
329C
102
}
330
329C
100
AcDbScale
 70
     0
300
1-1/2" = 1'-0"
140
1.5
141
12.0
290
     0
  0
SCALE
  5
32BB
102
{ACAD_REACTORS
330
329C
102
}
330
329C
100
AcDbScale
 70
     0
300
3" = 1'-0"
140
3.0
141
12.0
290
     0
  0
SCALE
  5
32BC
102
{ACAD_REACTORS
330
329C
102
}
330
329C
100
AcDbScale
 70
     0
300
6" = 1'-0"
140
6.0
141
12.0
290
     0
  0
SCALE
  5
32BD
102
{ACAD_REACTORS
330
329C
102
}
330
329C
100
AcDbScale
 70
     0
300
1'-0" = 1'-0"
140
12.0
141
12.0
290
     0
  0
TABLESTYLE
  5
329B
102
{ACAD_XDICTIONARY
360
331E
102
}
102
{ACAD_REACTORS
330
329A
102
}
330
329A
100
AcDbTableStyle
  3
Standard
 70
     0
 71
     0
 40
1.5
 41
1.5
280
     0
281
     0
  7
STANDARD
140
4.5
170
     2
 62
     0
 63
     7
283
     0
 90
      512
 91
        0
  1

274
    -2
284
     1
 64
     0
275
    -2
285
     1
 65
     0
276
    -2
286
     1
 66
     0
277
    -2
287
     1
 67
     0
278
    -2
288
     1
 68
     0
279
    -2
289
     1
 69
     0
  7
STANDARD
140
6.0
170
     5
 62
     0
 63
     7
283
     0
 90
      512
 91
        0
  1

274
    -2
284
     1
 64
     0
275
    -2
285
     1
 65
     0
276
    -2
286
     1
 66
     0
277
    -2
287
     1
 67
     0
278
    -2
288
     1
 68
     0
279
    -2
289
     1
 69
     0
  7
STANDARD
140
4.5
170
     5
 62
     0
 63
     7
283
     0
 90
      512
 91
        0
  1

274
    -2
284
     1
 64
     0
275
    -2
285
     1
 65
     0
276
    -2
286
     1
 66
     0
277
    -2
287
     1
 67
     0
278
    -2
288
     1
 68
     0
279
    -2
289
     1
 69
     0
  0
VISUALSTYLE
  5
328F
102
{ACAD_REACTORS
330
3289
102
}
330
3289
100
AcDbVisualStyle
  2
2dWireframe
 70
     4
 71
     0
 72
     2
 73
     0
 90
        0
 40
-0.6
 41
-30.0
 62
     5
 63
     7
421
 16777215
 74
     1
 91
        4
 64
     7
 65
   257
 75
     1
175
     1
 42
1.0
 92
        0
 66
   257
 43
1.0
 76
     1
 77
     6
 78
     2
 67
     7
 79
     5
170
     0
171
     0
290
     0
174
     0
 93
        1
 44
0.0
173
     0
291
     0
 45
0.0
  0
VISUALSTYLE
  5
3291
102
{ACAD_REACTORS
330
3289
102
}
330
3289
100
AcDbVisualStyle
  2
3D Hidden
 70
     6
 71
     1
 72
     2
 73
     2
 90
        0
 40
-0.6
 41
-30.0
 62
     5
 63
     7
421
 16777215
 74
     2
 91
        2
 64
     7
 65
   257
 75
     2
175
     1
 42
40.0
 92
        0
 66
   257
 43
1.0
 76
     1
 77
     6
 78
     2
 67
     7
 79
     3
170
     0
171
     0
290
     0
174
     0
 93
        1
 44
0.0
173
     0
291
     0
 45
0.0
  0
VISUALSTYLE
  5
3290
102
{ACAD_REACTORS
330
3289
102
}
330
3289
100
AcDbVisualStyle
  2
3dWireframe
 70
     5
 71
     0
 72
     2
 73
     0
 90
        0
 40
-0.6
 41
-30.0
 62
     5
 63
     7
421
 16777215
 74
     1
 91
        4
 64
     7
 65
   257
 75
     1
175
     1
 42
1.0
 92
        0
 66
   257
 43
1.0
 76
     1
 77
     6
 78
     2
 67
     7
 79
     5
170
     0
171
     0
290
     0
174
     0
 93
        1
 44
0.0
173
     0
291
     0
 45
0.0
  0
VISUALSTYLE
  5
328E
102
{ACAD_REACTORS
330
3289
102
}
330
3289
100
AcDbVisualStyle
  2
Basic
 70
     7
 71
     1
 72
     0
 73
     1
 90
        0
 40
-0.6
 41
-30.0
 62
     5
 63
     7
421
 16777215
 74
     0
 91
        4
 64
     7
 65
   257
 75
     1
175
     1
 42
1.0
 92
        8
 66
     7
 43
1.0
 76
     1
 77
     6
 78
     2
 67
     7
 79
     5
170
     0
171
     0
290
     0
174
     0
 93
        1
 44
0.0
173
     0
291
     1
 45
0.0
  0
VISUALSTYLE
  5
3295
102
{ACAD_REACTORS
330
3289
102
}
330
3289
100
AcDbVisualStyle
  2
Brighten
 70
    12
 71
     2
 72
     2
 73
     0
 90
        0
 40
-0.6
 41
-30.0
 62
     5
 63
     7
421
 16777215
 74
     1
 91
        4
 64
     7
 65
   257
 75
     1
175
     1
 42
1.0
 92
        8
 66
     7
 43
1.0
 76
     1
 77
     6
 78
     2
 67
     7
 79
     5
170
     0
171
     0
290
     0
174
     0
 93
        1
 44
50.0
173
     0
291
     1
 45
0.0
  0
VISUALSTYLE
  5
3299
102
{ACAD_REACTORS
330
3289
102
}
330
3289
100
AcDbVisualStyle
  2
ColorChange
 70
    16
 71
     2
 72
     2
 73
     3
 90
        0
 40
-0.6
 41
-30.0
 62
     5
 63
     8
421
  8421504
 74
     1
 91
        4
 64
     7
 65
   257
 75
     1
175
     1
 42
1.0
 92
        8
 66
     8
424
  8421504
 43
1.0
 76
     1
 77
     6
 78
     2
 67
     7
 79
     5
170
     0
171
     0
290
     0
174
     0
 93
        1
 44
0.0
173
     0
291
     1
 45
0.0
  0
VISUALSTYLE
  5
3292
102
{ACAD_REACTORS
330
3289
102
}
330
3289
100
AcDbVisualStyle
  2
Conceptual
 70
     9
 71
     3
 72
     2
 73
     0
 90
        0
 40
-0.6
 41
-30.0
 62
     5
 63
     7
421
 16777215
 74
     2
 91
        2
 64
     7
 65
   257
 75
     1
175
     1
 42
40.0
 92
        8
 66
     7
 43
1.0
 76
     1
 77
     6
 78
     2
 67
     7
 79
     3
170
     0
171
     0
290
     0
174
     0
 93
        1
 44
0.0
173
     0
291
     0
 45
0.0
  0
VISUALSTYLE
  5
3294
102
{ACAD_REACTORS
330
3289
102
}
330
3289
100
AcDbVisualStyle
  2
Dim
 70
    11
 71
     2
 72
     2
 73
     0
 90
        0
 40
-0.6
 41
-30.0
 62
     5
 63
     7
421
 16777215
 74
     1
 91
        4
 64
     7
 65
   257
 75
     1
175
     1
 42
1.0
 92
        8
 66
     7
 43
1.0
 76
     1
 77
     6
 78
     2
 67
     7
 79
     5
170
     0
171
     0
290
     0
174
     0
 93
        1
 44
-50.0
173
     0
291
     1
 45
0.0
  0
VISUALSTYLE
  5
3298
102
{ACAD_REACTORS
330
3289
102
}
330
3289
100
AcDbVisualStyle
  2
Facepattern
 70
    15
 71
     2
 72
     2
 73
     0
 90
        0
 40
-0.6
 41
-30.0
 62
     5
 63
     7
421
 16777215
 74
     1
 91
        4
 64
     7
 65
   257
 75
     1
175
     1
 42
1.0
 92
        8
 66
     7
 43
1.0
 76
     1
 77
     6
 78
     2
 67
     7
 79
     5
170
     0
171
     0
290
     0
174
     0
 93
        1
 44
0.0
173
     0
291
     1
 45
0.0
  0
VISUALSTYLE
  5
328A
102
{ACAD_REACTORS
330
3289
102
}
330
3289
100
AcDbVisualStyle
  2
Flat
 70
     0
 71
     2
 72
     1
 73
     1
 90
        2
 40
-0.6
 41
30.0
 62
     5
 63
     7
421
 16777215
 74
     0
 91
        4
 64
     7
 65
   257
 75
     1
175
     1
 42
1.0
 92
        8
 66
     7
 43
1.0
 76
     1
 77
     6
 78
     2
 67
     7
 79
     5
170
     0
171
     0
290
     0
174
     0
 93
       13
 44
0.0
173
     0
291
     1
 45
0.0
  0
VISUALSTYLE
  5
328B
102
{ACAD_REACTORS
330
3289
102
}
330
3289
100
AcDbVisualStyle
  2
FlatWithEdges
 70
     1
 71
     2
 72
     1
 73
     1
 90
        2
 40
-0.6
 41
30.0
 62
     5
 63
     7
421
 16777215
 74
     1
 91
        4
 64
     7
 65
   257
 75
     1
175
     1
 42
1.0
 92
        0
 66
   257
 43
1.0
 76
     1
 77
     6
 78
     2
 67
     7
 79
     5
170
     0
171
     0
290
     0
174
     0
 93
       13
 44
0.0
173
     0
291
     1
 45
0.0
  0
VISUALSTYLE
  5
328C
102
{ACAD_REACTORS
330
3289
102
}
330
3289
100
AcDbVisualStyle
  2
Gouraud
 70
     2
 71
     2
 72
     2
 73
     1
 90
        2
 40
-0.6
 41
30.0
 62
     5
 63
     7
421
 16777215
 74
     0
 91
        4
 64
     7
 65
   257
 75
     1
175
     1
 42
1.0
 92
        0
 66
     7
 43
1.0
 76
     1
 77
     6
 78
     2
 67
     7
 79
     5
170
     0
171
     0
290
     0
174
     0
 93
       13
 44
0.0
173
     0
291
     1
 45
0.0
  0
VISUALSTYLE
  5
328D
102
{ACAD_REACTORS
330
3289
102
}
330
3289
100
AcDbVisualStyle
  2
GouraudWithEdges
 70
     3
 71
     2
 72
     2
 73
     1
 90
        2
 40
-0.6
 41
30.0
 62
     5
 63
     7
421
 16777215
 74
     1
 91
        4
 64
     7
 65
   257
 75
     1
175
     1
 42
1.0
 92
        0
 66
   257
 43
1.0
 76
     1
 77
     6
 78
     2
 67
     7
 79
     5
170
     0
171
     0
290
     0
174
     0
 93
       13
 44
0.0
173
     0
291
     1
 45
0.0
  0
VISUALSTYLE
  5
3297
102
{ACAD_REACTORS
330
3289
102
}
330
3289
100
AcDbVisualStyle
  2
Linepattern
 70
    14
 71
     2
 72
     2
 73
     0
 90
        0
 40
-0.6
 41
-30.0
 62
     5
 63
     7
421
 16777215
 74
     1
 91
        4
 64
     7
 65
   257
 75
     7
175
     7
 42
1.0
 92
        8
 66
     7
 43
1.0
 76
     1
 77
     6
 78
     2
 67
     7
 79
     5
170
     0
171
     0
290
     0
174
     0
 93
        1
 44
0.0
173
     0
291
     1
 45
0.0
  0
VISUALSTYLE
  5
3293
102
{ACAD_REACTORS
330
3289
102
}
330
3289
100
AcDbVisualStyle
  2
Realistic
 70
     8
 71
     2
 72
     2
 73
     0
 90
        0
 40
-0.6
 41
-30.0
 62
     5
 63
     7
421
 16777215
 74
     1
 91
        0
 64
     7
 65
   257
 75
     1
175
     1
 42
1.0
 92
        8
 66
     8
424
  7895160
 43
1.0
 76
     1
 77
     6
 78
     2
 67
     7
 79
     5
170
     0
171
     0
290
     0
174
     0
 93
       13
 44
0.0
173
     0
291
     0
 45
0.0
  0
VISUALSTYLE
  5
3296
102
{ACAD_REACTORS
330
3289
102
}
330
3289
100
AcDbVisualStyle
  2
Thicken
 70
    13
 71
     2
 72
     2
 73
     0
 90
        0
 40
-0.6
 41
-30.0
 62
     5
 63
     7
421
 16777215
 74
     1
 91
        4
 64
     7
 65
   257
 75
     1
175
     1
 42
1.0
 92
       12
 66
     7
 43
1.0
 76
     1
 77
     6
 78
     2
 67
     7
 79
     5
170
     0
171
     0
290
     0
174
     0
 93
        1
 44
0.0
173
     0
291
     1
 45
0.0
  0
DICTIONARYVAR
  5
3324
102
{ACAD_REACTORS
330
5D
102
}
330
5D
100
DictionaryVariables
280
     0
  1
1:1
  0
DICTIONARYVAR
  5
3322
102
{ACAD_REACTORS
330
5D
102
}
330
5D
100
DictionaryVariables
280
     0
  1
STANDARD
  0
DICTIONARYVAR
  5
3321
102
{ACAD_REACTORS
330
5D
102
}
330
5D
100
DictionaryVariables
280
     0
  1
STANDARD
  0
DICTIONARYVAR
  5
5E
102
{ACAD_REACTORS
330
5D
102
}
330
5D
100
DictionaryVariables
280
     0
  1
0
  0
DICTIONARYVAR
  5
128
102
{ACAD_REACTORS
330
5D
102
}
330
5D
100
DictionaryVariables
280
     0
  1
1
  0
DICTIONARYVAR
  5
3349
102
{ACAD_REACTORS
330
5D
102
}
330
5D
100
DictionaryVariables
280
     0
  1
1
  0
DICTIONARYVAR
  5
334A
102
{ACAD_REACTORS
330
5D
102
}
330
5D
100
DictionaryVariables
280
     0
  1
15
  0
DICTIONARYVAR
  5
3325
102
{ACAD_REACTORS
330
5D
102
}
330
5D
100
DictionaryVariables
280
     0
  1
0
  0
DICTIONARYVAR
  5
3323
102
{ACAD_REACTORS
330
5D
102
}
330
5D
100
DictionaryVariables
280
     0
  1
0
  0
DICTIONARYVAR
  5
1044
102
{ACAD_REACTORS
330
5D
102
}
330
5D
100
DictionaryVariables
280
     0
  1
96
  0
DICTIONARY
  5
143
102
{ACAD_REACTORS
330
142
102
}
330
142
100
AcDbDictionary
281
     1
  0
XRECORD
  5
32E5
102
{ACAD_REACTORS
330
142
102
}
330
142
100
AcDbXrecord
280
     1
 90
-1023410169
  0
DICTIONARY
  5
172
102
{ACAD_REACTORS
330
171
102
}
330
171
100
AcDbDictionary
281
     1
  3
DWGSETTINGS
350
173
  3
FEM
350
3A0
  3
Shaft
350
393
  3
TRANSSETTINGS
350
17D
  0
DICTIONARY
  5
18A9
102
{ACAD_REACTORS
330
18A8
102
}
330
18A8
100
AcDbDictionary
281
     1
  0
ACAMGFILTERDAT
  5
164B
102
{ACAD_REACTORS
330
1F2
102
}
330
1F2
100
AcAmgFilterDat
 70
    15
  1
DIMENSION,AMDT_*_DIM
  2
*
  3
*
  4
*
  5
*
290
     1
  0
ACAMGFILTERDAT
  5
164C
102
{ACAD_REACTORS
330
1F2
102
}
330
1F2
100
AcAmgFilterDat
 70
    15
  1
*
  2
AM_FEA-AM_*
  3
*
  4
*
  5
*
290
     1
  0
ACAMGFILTERDAT
  5
164D
102
{ACAD_REACTORS
330
1F2
102
}
330
1F2
100
AcAmgFilterDat
 70
    15
  1
HATCH
  2
*
  3
*
  4
*
  5
*
290
     1
  0
ACAMGFILTERDAT
  5
164E
102
{ACAD_REACTORS
330
1F2
102
}
330
1F2
100
AcAmgFilterDat
 70
    15
  1
ACMFCFRAME,ACMDATUMTARGET,ACMDATUMID,ACMWELDSYM,ACMSURFSYM,ACMFEATID,ACMPARTREF,ACMBALLOON
  2
*
  3
*
  4
*
  5
*
290
     1
  0
LAYER_INDEX
  5
17BF
102
{ACAD_REACTORS
330
17BE
102
}
330
17BE
100
AcDbIndex
 40
2454517.634574699
100
AcDbLayerIndex
  8
0
360
17C0
 90
        0
  8
AM_0
360
17C1
 90
        0
  8
AM_1
360
17C2
 90
        0
  8
AM_2
360
17C3
 90
        0
  8
AM_3
360
17C4
 90
        0
  8
AM_4
360
17C5
 90
        0
  8
AM_5
360
17C6
 90
       30
  8
AM_6
360
17C7
 90
        1
  8
AM_7
360
17C8
 90
        0
  8
AM_8
360
17C9
 90
        0
  8
AM_FR
360
17CA
 90
        0
  8
ASHADE
360
17CB
 90
        9
  8
AM_WORK
360
17CC
 90
        0
  8
AM_CL
360
17CD
 90
        0
  8
Defpoints
360
17CE
 90
        0
  8
ASRF_TMP
360
17CF
 90
        0
  8
AM_VIEWS
360
17D0
 90
        1
  8
AM_VIS
360
17D1
 90
        0
  8
AM_HID
360
17D2
 90
        0
  8
AM_PARDIM
360
17D3
 90
        0
  8
AmdtBRLock
360
196B
 90
        0
  8
5
360
30E4
 90
        2
  8
1
360
30E5
 90
       64
  8
3A
360
30E6
 90
        0
  8
7
360
30E7
 90
       11
  8
7A
360
30E8
 90
        0
  0
DICTIONARY
  5
327A
330
3279
100
AcDbDictionary
280
     1
281
     1
  3
BUMPTILE
360
327C
  3
DIFFUSETILE
360
327B
  3
OPACITYTILE
360
327F
  3
REFLECTIONTILE
360
327E
  3
REFRACTIONTILE
360
3280
  3
SPECULARTILE
360
327D
  0
DICTIONARY
  5
3272
330
3271
100
AcDbDictionary
280
     1
281
     1
  3
BUMPTILE
360
3274
  3
DIFFUSETILE
360
3273
  3
OPACITYTILE
360
3277
  3
REFLECTIONTILE
360
3276
  3
REFRACTIONTILE
360
3278
  3
SPECULARTILE
360
3275
  0
DICTIONARY
  5
3282
330
3281
100
AcDbDictionary
280
     1
281
     1
  3
BUMPTILE
360
3284
  3
DIFFUSETILE
360
3283
  3
OPACITYTILE
360
3287
  3
REFLECTIONTILE
360
3286
  3
REFRACTIONTILE
360
3288
  3
SPECULARTILE
360
3285
  0
DICTIONARY
  5
331E
330
329B
100
AcDbDictionary
280
     1
281
     1
  3
ACAD_ROUNDTRIP_2008_TABLESTYLE_CELLSTYLEMAP
360
334B
  0
IDBUFFER
  5
17C0
330
0
100
AcDbIdBuffer
  0
IDBUFFER
  5
17C1
330
0
100
AcDbIdBuffer
  0
IDBUFFER
  5
17C2
330
0
100
AcDbIdBuffer
  0
IDBUFFER
  5
17C3
330
0
100
AcDbIdBuffer
  0
IDBUFFER
  5
17C4
330
0
100
AcDbIdBuffer
  0
IDBUFFER
  5
17C5
330
0
100
AcDbIdBuffer
  0
IDBUFFER
  5
17C6
330
0
100
AcDbIdBuffer
330
2635
330
26C9
330
26E5
330
2701
330
271D
330
2745
330
2784
330
2870
330
28AF
330
2943
330
297A
330
2A0E
330
2A2A
330
2A52
330
2AE6
330
2B02
330
2B2A
330
2BBE
330
2BE2
330
2C2F
330
2C78
330
2CC5
330
2D0E
330
2D57
330
2DA0
330
2E7A
330
2EC3
330
2F08
330
302C
330
309B
  0
IDBUFFER
  5
17C7
330
0
100
AcDbIdBuffer
330
3007
  0
IDBUFFER
  5
17C8
330
0
100
AcDbIdBuffer
  0
IDBUFFER
  5
17C9
330
0
100
AcDbIdBuffer
  0
IDBUFFER
  5
17CA
330
0
100
AcDbIdBuffer
  0
IDBUFFER
  5
17CB
330
0
100
AcDbIdBuffer
330
3FB
330
3FC
330
3FD
330
3FE
330
3FF
330
400
330
401
330
402
330
409
  0
IDBUFFER
  5
17CC
330
0
100
AcDbIdBuffer
  0
IDBUFFER
  5
17CD
330
0
100
AcDbIdBuffer
  0
IDBUFFER
  5
17CE
330
0
100
AcDbIdBuffer
  0
IDBUFFER
  5
17CF
330
0
100
AcDbIdBuffer
  0
IDBUFFER
  5
17D0
330
0
100
AcDbIdBuffer
330
2239
  0
IDBUFFER
  5
17D1
330
0
100
AcDbIdBuffer
  0
IDBUFFER
  5
17D2
330
0
100
AcDbIdBuffer
  0
IDBUFFER
  5
17D3
330
0
100
AcDbIdBuffer
  0
IDBUFFER
  5
196B
330
0
100
AcDbIdBuffer
  0
IDBUFFER
  5
30E4
330
0
100
AcDbIdBuffer
330
1C53
330
1C61
  0
IDBUFFER
  5
30E5
330
0
100
AcDbIdBuffer
330
1C22
330
1C2A
330
1C2D
330
1C2E
330
1C2F
330
1C30
330
1C31
330
1C33
330
1C34
330
1C35
330
1C36
330
1C37
330
1C39
330
1C3A
330
1C3B
330
1C3C
330
1C3D
330
1C3E
330
1C3F
330
1C40
330
1C47
330
1C48
330
1C49
330
1C4B
330
1C4D
330
1C4E
330
1C4F
330
1C50
330
1C52
330
1C54
330
1C56
330
1C57
330
1C58
330
1C5A
330
1C5B
330
1C5C
330
1C5E
330
1C60
330
1C62
330
1C63
330
1C67
330
1C6A
330
1C6C
330
1C70
330
1C71
330
1C75
330
1C77
330
1C78
330
1C7B
330
1C7C
330
1C7D
330
1C7E
330
1C83
330
1C84
330
1C85
330
1C86
330
1C88
330
1C89
330
1C8A
330
1C8B
330
1C92
330
1C98
330
1C99
330
1C9A
  0
IDBUFFER
  5
30E6
330
0
100
AcDbIdBuffer
  0
IDBUFFER
  5
30E7
330
0
100
AcDbIdBuffer
330
1C28
330
1C2C
330
1C4A
330
1C4C
330
1C5F
330
1C73
330
1C76
330
1C7F
330
1C87
330
1C97
330
1C9B
  0
IDBUFFER
  5
30E8
330
0
100
AcDbIdBuffer
  0
XRECORD
  5
327C
102
{ACAD_REACTORS
330
327A
102
}
330
327A
100
AcDbXrecord
280
     1
270
     1
271
     1
  0
XRECORD
  5
327B
102
{ACAD_REACTORS
330
327A
102
}
330
327A
100
AcDbXrecord
280
     1
270
     1
271
     1
  0
XRECORD
  5
327F
102
{ACAD_REACTORS
330
327A
102
}
330
327A
100
AcDbXrecord
280
     1
270
     1
271
     1
  0
XRECORD
  5
327E
102
{ACAD_REACTORS
330
327A
102
}
330
327A
100
AcDbXrecord
280
     1
270
     1
271
     1
  0
XRECORD
  5
3280
102
{ACAD_REACTORS
330
327A
102
}
330
327A
100
AcDbXrecord
280
     1
270
     1
271
     1
  0
XRECORD
  5
327D
102
{ACAD_REACTORS
330
327A
102
}
330
327A
100
AcDbXrecord
280
     1
270
     1
271
     1
  0
XRECORD
  5
3274
102
{ACAD_REACTORS
330
3272
102
}
330
3272
100
AcDbXrecord
280
     1
270
     1
271
     1
  0
XRECORD
  5
3273
102
{ACAD_REACTORS
330
3272
102
}
330
3272
100
AcDbXrecord
280
     1
270
     1
271
     1
  0
XRECORD
  5
3277
102
{ACAD_REACTORS
330
3272
102
}
330
3272
100
AcDbXrecord
280
     1
270
     1
271
     1
  0
XRECORD
  5
3276
102
{ACAD_REACTORS
330
3272
102
}
330
3272
100
AcDbXrecord
280
     1
270
     1
271
     1
  0
XRECORD
  5
3278
102
{ACAD_REACTORS
330
3272
102
}
330
3272
100
AcDbXrecord
280
     1
270
     1
271
     1
  0
XRECORD
  5
3275
102
{ACAD_REACTORS
330
3272
102
}
330
3272
100
AcDbXrecord
280
     1
270
     1
271
     1
  0
XRECORD
  5
3284
102
{ACAD_REACTORS
330
3282
102
}
330
3282
100
AcDbXrecord
280
     1
270
     1
271
     1
  0
XRECORD
  5
3283
102
{ACAD_REACTORS
330
3282
102
}
330
3282
100
AcDbXrecord
280
     1
270
     1
271
     1
  0
XRECORD
  5
3287
102
{ACAD_REACTORS
330
3282
102
}
330
3282
100
AcDbXrecord
280
     1
270
     1
271
     1
  0
XRECORD
  5
3286
102
{ACAD_REACTORS
330
3282
102
}
330
3282
100
AcDbXrecord
280
     1
270
     1
271
     1
  0
XRECORD
  5
3288
102
{ACAD_REACTORS
330
3282
102
}
330
3282
100
AcDbXrecord
280
     1
270
     1
271
     1
  0
XRECORD
  5
3285
102
{ACAD_REACTORS
330
3282
102
}
330
3282
100
AcDbXrecord
280
     1
270
     1
271
     1
  0
CELLSTYLEMAP
  5
334B
102
{ACAD_REACTORS
330
331E
102
}
330
331E
100
AcDbCellStyleMap
 90
        3
300
CELLSTYLE
  1
TABLEFORMAT_BEGIN
 90
        5
170
     1
 91
        0
 92
    32768
 62
   257
 93
        1
300
CONTENTFORMAT
  1
CONTENTFORMAT_BEGIN
 90
        0
 91
        0
 92
      512
 93
        0
300

 40
0.0
140
1.0
 94
        5
 62
     0
340
10
144
6.0
309
CONTENTFORMAT_END
171
     1
301
MARGIN
  1
CELLMARGIN_BEGIN
 40
1.5
 40
1.5
 40
1.5
 40
1.5
 40
4.5
 40
4.5
309
CELLMARGIN_END
 94
        6
 95
        1
302
GRIDFORMAT
  1
GRIDFORMAT_BEGIN
 90
        0
 91
        1
 62
     0
 92
       -2
340
0
 93
        0
 40
1.125
309
GRIDFORMAT_END
 95
        2
302
GRIDFORMAT
  1
GRIDFORMAT_BEGIN
 90
        0
 91
        1
 62
     0
 92
       -2
340
0
 93
        0
 40
1.125
309
GRIDFORMAT_END
 95
        4
302
GRIDFORMAT
  1
GRIDFORMAT_BEGIN
 90
        0
 91
        1
 62
     0
 92
       -2
340
0
 93
        0
 40
1.125
309
GRIDFORMAT_END
 95
        8
302
GRIDFORMAT
  1
GRIDFORMAT_BEGIN
 90
        0
 91
        1
 62
     0
 92
       -2
340
0
 93
        0
 40
1.125
309
GRIDFORMAT_END
 95
       16
302
GRIDFORMAT
  1
GRIDFORMAT_BEGIN
 90
        0
 91
        1
 62
     0
 92
       -2
340
0
 93
        0
 40
1.125
309
GRIDFORMAT_END
 95
       32
302
GRIDFORMAT
  1
GRIDFORMAT_BEGIN
 90
        0
 91
        1
 62
     0
 92
       -2
340
0
 93
        0
 40
1.125
309
GRIDFORMAT_END
309
TABLEFORMAT_END
  1
CELLSTYLE_BEGIN
 90
        1
 91
        1
300
_TITLE
309
CELLSTYLE_END
300
CELLSTYLE
  1
TABLEFORMAT_BEGIN
 90
        5
170
     1
 91
        0
 92
        0
 62
   257
 93
        1
300
CONTENTFORMAT
  1
CONTENTFORMAT_BEGIN
 90
        0
 91
        0
 92
      512
 93
        0
300

 40
0.0
140
1.0
 94
        5
 62
     0
340
10
144
4.5
309
CONTENTFORMAT_END
171
     1
301
MARGIN
  1
CELLMARGIN_BEGIN
 40
1.5
 40
1.5
 40
1.5
 40
1.5
 40
4.5
 40
4.5
309
CELLMARGIN_END
 94
        6
 95
        1
302
GRIDFORMAT
  1
GRIDFORMAT_BEGIN
 90
        0
 91
        1
 62
     0
 92
       -2
340
0
 93
        0
 40
1.125
309
GRIDFORMAT_END
 95
        2
302
GRIDFORMAT
  1
GRIDFORMAT_BEGIN
 90
        0
 91
        1
 62
     0
 92
       -2
340
0
 93
        0
 40
1.125
309
GRIDFORMAT_END
 95
        4
302
GRIDFORMAT
  1
GRIDFORMAT_BEGIN
 90
        0
 91
        1
 62
     0
 92
       -2
340
0
 93
        0
 40
1.125
309
GRIDFORMAT_END
 95
        8
302
GRIDFORMAT
  1
GRIDFORMAT_BEGIN
 90
        0
 91
        1
 62
     0
 92
       -2
340
0
 93
        0
 40
1.125
309
GRIDFORMAT_END
 95
       16
302
GRIDFORMAT
  1
GRIDFORMAT_BEGIN
 90
        0
 91
        1
 62
     0
 92
       -2
340
0
 93
        0
 40
1.125
309
GRIDFORMAT_END
 95
       32
302
GRIDFORMAT
  1
GRIDFORMAT_BEGIN
 90
        0
 91
        1
 62
     0
 92
       -2
340
0
 93
        0
 40
1.125
309
GRIDFORMAT_END
309
TABLEFORMAT_END
  1
CELLSTYLE_BEGIN
 90
        2
 91
        1
300
_HEADER
309
CELLSTYLE_END
300
CELLSTYLE
  1
TABLEFORMAT_BEGIN
 90
        5
170
     1
 91
        0
 92
        0
 62
   257
 93
        1
300
CONTENTFORMAT
  1
CONTENTFORMAT_BEGIN
 90
        0
 91
        0
 92
      512
 93
        0
300

 40
0.0
140
1.0
 94
        2
 62
     0
340
10
144
4.5
309
CONTENTFORMAT_END
171
     1
301
MARGIN
  1
CELLMARGIN_BEGIN
 40
1.5
 40
1.5
 40
1.5
 40
1.5
 40
4.5
 40
4.5
309
CELLMARGIN_END
 94
        6
 95
        1
302
GRIDFORMAT
  1
GRIDFORMAT_BEGIN
 90
        0
 91
        1
 62
     0
 92
       -2
340
0
 93
        0
 40
1.125
309
GRIDFORMAT_END
 95
        2
302
GRIDFORMAT
  1
GRIDFORMAT_BEGIN
 90
        0
 91
        1
 62
     0
 92
       -2
340
0
 93
        0
 40
1.125
309
GRIDFORMAT_END
 95
        4
302
GRIDFORMAT
  1
GRIDFORMAT_BEGIN
 90
        0
 91
        1
 62
     0
 92
       -2
340
0
 93
        0
 40
1.125
309
GRIDFORMAT_END
 95
        8
302
GRIDFORMAT
  1
GRIDFORMAT_BEGIN
 90
        0
 91
        1
 62
     0
 92
       -2
340
0
 93
        0
 40
1.125
309
GRIDFORMAT_END
 95
       16
302
GRIDFORMAT
  1
GRIDFORMAT_BEGIN
 90
        0
 91
        1
 62
     0
 92
       -2
340
0
 93
        0
 40
1.125
309
GRIDFORMAT_END
 95
       32
302
GRIDFORMAT
  1
GRIDFORMAT_BEGIN
 90
        0
 91
        1
 62
     0
 92
       -2
340
0
 93
        0
 40
1.125
309
GRIDFORMAT_END
309
TABLEFORMAT_END
  1
CELLSTYLE_BEGIN
 90
        3
 91
        2
300
_DATA
309
CELLSTYLE_END
  0
ENDSEC
  0
EOF
