  0
SECTION
  2
HEADER
  9
$ACADVER
  1
AC1027
  9
$ACADMAINTVER
 70
    57
  9
$DWGCODEPAGE
  3
ANSI_1252
  9
$LASTSAVEDBY
  1
op
  9
$REQUIREDVERSIONS
160
                 0
  9
$INSBASE
 10
0.0
 20
0.0
 30
0.0
  9
$EXTMIN
 10
46.37498528588912
 20
76.62419205091919
 30
-0.0015258207003583
  9
$EXTMAX
 10
162.5049366588995
 20
263.4449469368496
 30
0.0000000349246037
  9
$LIMMIN
 10
-10.5
 20
-4.0
  9
$LIMMAX
 10
195.0
 20
285.0
  9
$ORTHOMODE
 70
     1
  9
$REGENMODE
 70
     1
  9
$FILLMODE
 70
     1
  9
$QTEXTMODE
 70
     0
  9
$MIRRTEXT
 70
     1
  9
$LTSCALE
 40
6.0
  9
$ATTMODE
 70
     1
  9
$TEXTSIZE
 40
3.5
  9
$TRACEWID
 40
1.0
  9
$TEXTSTYLE
  7
STANDARD
  9
$CLAYER
  8
BEMASSUNG
  9
$CELTYPE
  6
BYLAYER
  9
$CECOLOR
 62
   256
  9
$CELTSCALE
 40
1.0
  9
$DISPSILH
 70
     0
  9
$DIMSCALE
 40
1.0
  9
$DIMASZ
 40
3.5
  9
$DIMEXO
 40
0.5
  9
$DIMDLI
 40
0.0
  9
$DIMRND
 40
0.0
  9
$DIMDLE
 40
0.0
  9
$DIMEXE
 40
1.8
  9
$DIMTP
 40
0.0
  9
$DIMTM
 40
0.0
  9
$DIMTXT
 40
3.5
  9
$DIMCEN
 40
1.5
  9
$DIMTSZ
 40
0.0
  9
$DIMTOL
 70
     0
  9
$DIMLIM
 70
     0
  9
$DIMTIH
 70
     0
  9
$DIMTOH
 70
     0
  9
$DIMSE1
 70
     0
  9
$DIMSE2
 70
     0
  9
$DIMTAD
 70
     1
  9
$DIMZIN
 70
     8
  9
$DIMBLK
  1

  9
$DIMASO
 70
     1
  9
$DIMSHO
 70
     1
  9
$DIMPOST
  1

  9
$DIMAPOST
  1

  9
$DIMALT
 70
     0
  9
$DIMALTD
 70
     2
  9
$DIMALTF
 40
25.4
  9
$DIMLFAC
 40
1.0
  9
$DIMTOFL
 70
     0
  9
$DIMTVP
 40
0.0
  9
$DIMTIX
 70
     1
  9
$DIMSOXD
 70
     0
  9
$DIMSAH
 70
     0
  9
$DIMBLK1
  1

  9
$DIMBLK2
  1

  9
$DIMSTYLE
  2
CADIMENU
  9
$DIMCLRD
 70
     2
  9
$DIMCLRE
 70
     2
  9
$DIMCLRT
 70
     3
  9
$DIMTFAC
 40
0.5
  9
$DIMGAP
 40
1.0
  9
$DIMJUST
 70
     0
  9
$DIMSD1
 70
     0
  9
$DIMSD2
 70
     0
  9
$DIMTOLJ
 70
     1
  9
$DIMTZIN
 70
     8
  9
$DIMALTZ
 70
     8
  9
$DIMALTTZ
 70
     8
  9
$DIMUPT
 70
     0
  9
$DIMDEC
 70
     2
  9
$DIMTDEC
 70
     2
  9
$DIMALTU
 70
     2
  9
$DIMALTTD
 70
     2
  9
$DIMTXSTY
  7
NORM
  9
$DIMAUNIT
 70
     0
  9
$DIMADEC
 70
     0
  9
$DIMALTRND
 40
0.0
  9
$DIMAZIN
 70
     0
  9
$DIMDSEP
 70
    46
  9
$DIMATFIT
 70
     3
  9
$DIMFRAC
 70
     0
  9
$DIMLDRBLK
  1

  9
$DIMLUNIT
 70
     2
  9
$DIMLWD
 70
    -2
  9
$DIMLWE
 70
    -2
  9
$DIMTMOVE
 70
     2
  9
$DIMFXL
 40
1.0
  9
$DIMFXLON
 70
     0
  9
$DIMJOGANG
 40
0.7853981633974483
  9
$DIMTFILL
 70
     0
  9
$DIMTFILLCLR
 70
     0
  9
$DIMARCSYM
 70
     1
  9
$DIMLTYPE
  6

  9
$DIMLTEX1
  6

  9
$DIMLTEX2
  6

  9
$DIMTXTDIRECTION
 70
     0
  9
$LUNITS
 70
     2
  9
$LUPREC
 70
     2
  9
$SKETCHINC
 40
1.0
  9
$FILLETRAD
 40
0.0
  9
$AUNITS
 70
     0
  9
$AUPREC
 70
     0
  9
$MENU
  1
CADIM
  9
$ELEVATION
 40
0.0
  9
$PELEVATION
 40
0.0
  9
$THICKNESS
 40
0.0
  9
$LIMCHECK
 70
     0
  9
$CHAMFERA
 40
0.0
  9
$CHAMFERB
 40
0.0
  9
$CHAMFERC
 40
0.0
  9
$CHAMFERD
 40
0.0
  9
$SKPOLY
 70
     0
  9
$TDCREATE
 40
2450017.404540625
  9
$TDUCREATE
 40
2450017.362873959
  9
$TDUPDATE
 40
2457731.673972257
  9
$TDUUPDATE
 40
2457731.632305590
  9
$TDINDWG
 40
0.2597246528
  9
$TDUSRTIMER
 40
0.2597236574
  9
$USRTIMER
 70
     1
  9
$ANGBASE
 50
0.0
  9
$ANGDIR
 70
     0
  9
$PDMODE
 70
     0
  9
$PDSIZE
 40
-1.0
  9
$PLINEWID
 40
0.0
  9
$SPLFRAME
 70
     0
  9
$SPLINETYPE
 70
     6
  9
$SPLINESEGS
 70
     8
  9
$HANDSEED
  5
63E
  9
$SURFTAB1
 70
    16
  9
$SURFTAB2
 70
    16
  9
$SURFTYPE
 70
     6
  9
$SURFU
 70
    12
  9
$SURFV
 70
    12
  9
$UCSBASE
  2

  9
$UCSNAME
  2

  9
$UCSORG
 10
0.0
 20
0.0
 30
0.0
  9
$UCSXDIR
 10
1.0
 20
0.0
 30
0.0
  9
$UCSYDIR
 10
0.0
 20
1.0
 30
0.0
  9
$UCSORTHOREF
  2

  9
$UCSORTHOVIEW
 70
     0
  9
$UCSORGTOP
 10
0.0
 20
0.0
 30
0.0
  9
$UCSORGBOTTOM
 10
0.0
 20
0.0
 30
0.0
  9
$UCSORGLEFT
 10
0.0
 20
0.0
 30
0.0
  9
$UCSORGRIGHT
 10
0.0
 20
0.0
 30
0.0
  9
$UCSORGFRONT
 10
0.0
 20
0.0
 30
0.0
  9
$UCSORGBACK
 10
0.0
 20
0.0
 30
0.0
  9
$PUCSBASE
  2

  9
$PUCSNAME
  2

  9
$PUCSORG
 10
0.0
 20
0.0
 30
0.0
  9
$PUCSXDIR
 10
1.0
 20
0.0
 30
0.0
  9
$PUCSYDIR
 10
0.0
 20
1.0
 30
0.0
  9
$PUCSORTHOREF
  2

  9
$PUCSORTHOVIEW
 70
     0
  9
$PUCSORGTOP
 10
0.0
 20
0.0
 30
0.0
  9
$PUCSORGBOTTOM
 10
0.0
 20
0.0
 30
0.0
  9
$PUCSORGLEFT
 10
0.0
 20
0.0
 30
0.0
  9
$PUCSORGRIGHT
 10
0.0
 20
0.0
 30
0.0
  9
$PUCSORGFRONT
 10
0.0
 20
0.0
 30
0.0
  9
$PUCSORGBACK
 10
0.0
 20
0.0
 30
0.0
  9
$USERI1
 70
     0
  9
$USERI2
 70
   100
  9
$USERI3
 70
     0
  9
$USERI4
 70
     0
  9
$USERI5
 70
     0
  9
$USERR1
 40
0.0
  9
$USERR2
 40
0.0
  9
$USERR3
 40
0.0
  9
$USERR4
 40
0.0
  9
$USERR5
 40
0.0
  9
$WORLDVIEW
 70
     1
  9
$SHADEDGE
 70
     3
  9
$SHADEDIF
 70
    70
  9
$TILEMODE
 70
     1
  9
$MAXACTVP
 70
    16
  9
$PINSBASE
 10
0.0
 20
0.0
 30
0.0
  9
$PLIMCHECK
 70
     0
  9
$PEXTMIN
 10
5.0
 20
5.0
 30
0.0
  9
$PEXTMAX
 10
415.0
 20
300.0
 30
0.0
  9
$PLIMMIN
 10
0.0
 20
0.0
  9
$PLIMMAX
 10
420.0
 20
297.0
  9
$UNITMODE
 70
     0
  9
$VISRETAIN
 70
     0
  9
$PLINEGEN
 70
     0
  9
$PSLTSCALE
 70
     0
  9
$TREEDEPTH
 70
  3020
  9
$CMLSTYLE
  2
STANDARD
  9
$CMLJUST
 70
     0
  9
$CMLSCALE
 40
1.0
  9
$PROXYGRAPHICS
 70
     1
  9
$MEASUREMENT
 70
     0
  9
$CELWEIGHT
370
    -1
  9
$ENDCAPS
280
     0
  9
$JOINSTYLE
280
     0
  9
$LWDISPLAY
290
     0
  9
$INSUNITS
 70
     0
  9
$HYPERLINKBASE
  1

  9
$STYLESHEET
  1

  9
$XEDIT
290
     1
  9
$CEPSNTYPE
380
     0
  9
$PSTYLEMODE
290
     1
  9
$FINGERPRINTGUID
  2
{7EC08172-18E9-4516-8769-887C84E0DA23}
  9
$VERSIONGUID
  2
{45C34EE5-DC96-4270-ADE4-F908BA905967}
  9
$EXTNAMES
290
     1
  9
$PSVPSCALE
 40
0.0
  9
$OLESTARTUP
290
     0
  9
$SORTENTS
280
   127
  9
$INDEXCTL
280
     0
  9
$HIDETEXT
280
     1
  9
$XCLIPFRAME
280
     2
  9
$HALOGAP
280
     0
  9
$OBSCOLOR
 70
   257
  9
$OBSLTYPE
280
     0
  9
$INTERSECTIONDISPLAY
280
     0
  9
$INTERSECTIONCOLOR
 70
   257
  9
$DIMASSOC
280
     1
  9
$PROJECTNAME
  1

  9
$CAMERADISPLAY
290
     0
  9
$LENSLENGTH
 40
50.0
  9
$CAMERAHEIGHT
 40
0.0
  9
$STEPSPERSEC
 40
2.0
  9
$STEPSIZE
 40
6.0
  9
$3DDWFPREC
 40
2.0
  9
$PSOLWIDTH
 40
0.25
  9
$PSOLHEIGHT
 40
4.0
  9
$LOFTANG1
 40
1.570796326794896
  9
$LOFTANG2
 40
1.570796326794896
  9
$LOFTMAG1
 40
0.0
  9
$LOFTMAG2
 40
0.0
  9
$LOFTPARAM
 70
     7
  9
$LOFTNORMALS
280
     1
  9
$LATITUDE
 40
37.795
  9
$LONGITUDE
 40
-122.394
  9
$NORTHDIRECTION
 40
0.0
  9
$TIMEZONE
 70
 -8000
  9
$LIGHTGLYPHDISPLAY
280
     1
  9
$TILEMODELIGHTSYNCH
280
     1
  9
$CMATERIAL
347
281
  9
$SOLIDHIST
280
     0
  9
$SHOWHIST
280
     1
  9
$DWFFRAME
280
     2
  9
$DGNFRAME
280
     0
  9
$REALWORLDSCALE
290
     1
  9
$INTERFERECOLOR
 62
     1
  9
$INTERFEREOBJVS
345
2A3
  9
$INTERFEREVPVS
346
2A0
  9
$CSHADOW
280
     0
  9
$SHADOWPLANELOCATION
 40
0.0
  0
ENDSEC
  0
SECTION
  2
CLASSES
  0
CLASS
  1
DICTIONARYVAR
  2
AcDbDictionaryVar
  3
ObjectDBX Classes
 90
        0
 91
       18
280
     0
281
     0
  0
CLASS
  1
ACDBDICTIONARYWDFLT
  2
AcDbDictionaryWithDefault
  3
ObjectDBX Classes
 90
        0
 91
        1
280
     0
281
     0
  0
CLASS
  1
TABLESTYLE
  2
AcDbTableStyle
  3
ObjectDBX Classes
 90
     4095
 91
        1
280
     0
281
     0
  0
CLASS
  1
VLO-VL
  2
vlo_VL
  3
VL|AutoLISP based application
 90
      129
 91
        0
280
     0
281
     0
  0
CLASS
  1
ACME_DOCUMENT
  2
AcMeDbDoc
  3
AcMeServices
 90
     1024
 91
        1
280
     0
281
     0
  0
CLASS
  1
AMGSETTINGSOBJ
  2
AmgSettingsObj
  3
"AcadM|Product Description: AutoCAD Mechanical|Company: Autodesk, Inc."
 90
     1024
 91
        2
280
     0
281
     0
  0
CLASS
  1
ACMESCOPE
  2
AcMeScope
  3
AcMeServices
 90
     1024
 91
        1
280
     0
281
     0
  0
CLASS
  1
ACMECOMMANDHISTORY
  2
AcMeCommandHistory
  3
AcMeServices
 90
     1024
 91
        1
280
     0
281
     0
  0
CLASS
  1
ACIMSYSVARMAN
  2
AcImSysVarManager
  3
AcMeServices
 90
     1024
 91
        3
280
     0
281
     0
  0
CLASS
  1
ACIMINTSYSVAR
  2
AcImIntSysVar
  3
AcMeServices
 90
     1024
 91
        2
280
     0
281
     0
  0
CLASS
  1
ACMEDRAWINGMAN
  2
AcMeDrawingMan
  3
AcMeServices
 90
     1024
 91
        0
280
     0
281
     0
  0
CLASS
  1
ACMEVIEW
  2
AcMeView
  3
AcMeServices
 90
     1024
 91
        0
280
     0
281
     0
  0
CLASS
  1
ACDBENTITYCACHE
  2
AcMeEntityCache
  3
AcMeServices
 90
     1024
 91
        1
280
     0
281
     0
  0
CLASS
  1
GSMANAGER
  2
AcMeGSManager
  3
AcMeServices
 90
        0
 91
        0
280
     0
281
     0
  0
CLASS
  1
AMDTINTERNALREACTOR
  2
AmdtInternalReactor
  3
AcMeServices
 90
     1024
 91
        0
280
     0
281
     0
  0
CLASS
  1
ACMESTATEMGR
  2
AcMeStateMgr
  3
AcMeServices
 90
     1024
 91
        1
280
     0
281
     0
  0
CLASS
  1
ACGREFMASTER
  2
AcGrefMaster
  3
AcAttribServices
 90
     1024
 91
        1
280
     0
281
     0
  0
CLASS
  1
AM_DRAWING_MGR
  2
AcDmDwgMgr
  3
AcMechDwgViewMgmt
 90
     1024
 91
        0
280
     0
281
     0
  0
CLASS
  1
AM_DWG_DOCUMENT
  2
AcDmDwgDocument
  3
AcMechDwgViewMgmt
 90
     1024
 91
        0
280
     0
281
     0
  0
CLASS
  1
AM_DWG_SHEET
  2
AcDmSheet
  3
AcMechDwgViewMgmt
 90
     1024
 91
        0
280
     0
281
     0
  0
CLASS
  1
AM_VIEWDIMPARMAP
  2
AcDmViewDimParMap
  3
AcMechDwgViewMgmt
 90
     1024
 91
        0
280
     0
281
     0
  0
CLASS
  1
ACIMREALSYSVAR
  2
AcImRealSysVar
  3
AcMeServices
 90
     1024
 91
        0
280
     0
281
     0
  0
CLASS
  1
AM_DWGMGR_NAME
  2
AcDmDwgMgrName
  3
AcMechDwgViewMgmt
 90
     1024
 91
        0
280
     0
281
     0
  0
CLASS
  1
ACME_DATABASE
  2
AcMeDbDatabase
  3
AcMeServices
 90
     1024
 91
        1
280
     0
281
     0
  0
CLASS
  1
ACRFINSADJUSTERMGR
  2
AcRfInsAdjusterMgr
  3
AcMeServices
 90
     1024
 91
        1
280
     0
281
     0
  0
CLASS
  1
ACGREFACADMASTER
  2
AcGrefacadMaster
  3
AcGrefServices
 90
     1024
 91
        1
280
     0
281
     0
  0
CLASS
  1
AMDTMENUSTATEMGR
  2
AmdtMenuStateMgr
  3
McadcomServices
 90
     1024
 91
        1
280
     0
281
     0
  0
CLASS
  1
AMDTMCOMMENUSTATE
  2
AmdtMcomMenuState
  3
McadcomServices
 90
     1024
 91
        1
280
     0
281
     0
  0
CLASS
  1
AMIMASTER
  2
AmiMaster
  3
AmiServices
 90
     1024
 91
        1
280
     0
281
     0
  0
CLASS
  1
MAPIAMMOUDLE
  2
MApiAmModule
  3
MApiAmServices
 90
     1024
 91
        1
280
     0
281
     0
  0
CLASS
  1
ACIMSTRSYSVAR
  2
AcImStrSysVar
  3
AcMeServices
 90
     1024
 91
        5
280
     0
281
     0
  0
CLASS
  1
AMDTADMENUSTATE
  2
AmdtAdMenuState
  3
DesignerServices
 90
        0
 91
        0
280
     0
281
     0
  0
CLASS
  1
ADAPPL
  2
AcAdAppl
  3
DesignerAssemblies
 90
     1024
 91
        0
280
     0
281
     0
  0
CLASS
  1
DEPMGR
  2
AcAdDepMgr
  3
DesignerAssemblies
 90
     1024
 91
        0
280
     0
281
     0
  0
CLASS
  1
PARAMMGR
  2
AcAdParamMgr
  3
DesignerAssemblies
 90
     1024
 91
        0
280
     0
281
     0
  0
CLASS
  1
PARAMSCOPE
  2
AcAdParamScope
  3
DesignerAssemblies
 90
     1024
 91
        0
280
     0
281
     0
  0
CLASS
  1
NAMEDAPPL
  2
AcAdNamedAppl
  3
DesignerAssemblies
 90
     1024
 91
        0
280
     0
281
     0
  0
CLASS
  1
AMDTDMMENUSTATE
  2
AmdtDmMenuState
  3
AcMechDwgViewMgmt
 90
        0
 91
        0
280
     0
281
     0
  0
CLASS
  1
AMDTAMMENUSTATE
  2
AmdtAmMenuState
  3
DesignerAssemblies
 90
     1024
 91
        1
280
     0
281
     0
  0
CLASS
  1
ACAMPROJECT
  2
AcAmProject
  3
DesignerAssemblies
 90
     1024
 91
        1
280
     0
281
     0
  0
CLASS
  1
ACAMGRCOMPDEF
  2
AcAmGrCompDef
  3
DesignerAssemblies
 90
     1024
 91
        1
280
     0
281
     0
  0
CLASS
  1
ACCMCONTEXT
  2
AcCmContext
  3
DesignerAssemblies
 90
     1024
 91
        0
280
     0
281
     0
  0
CLASS
  1
ACAMCOMPDEF
  2
AcAmCompDef
  3
DesignerAssemblies
 90
     1024
 91
        1
280
     0
281
     0
  0
CLASS
  1
ACAMCOMPDEFMGR
  2
AcAmCompDefMgr
  3
DesignerAssemblies
 90
     1024
 91
        1
280
     0
281
     0
  0
CLASS
  1
AMCONTEXTMGR
  2
AcAmContextMgr
  3
DesignerAssemblies
 90
     1024
 91
        1
280
     0
281
     0
  0
CLASS
  1
ACAMCONTEXTMODELER
  2
AcAmContextModeler
  3
DesignerAssemblies
 90
     1024
 91
        1
280
     0
281
     0
  0
CLASS
  1
ACMDATADICTIONARY
  2
AcmDataDictionary
  3
"AcmSymBB|Product Description: AutoCAD Mechanical|Company: Autodesk, Inc."
 90
     1024
 91
        1
280
     0
281
     0
  0
CLASS
  1
CATALOGSTATE
  2
AcAmCatalogState
  3
DesignerAssemblies
 90
     1024
 91
        0
280
     0
281
     0
  0
CLASS
  1
ACAMGRCOMPDEFSET
  2
AcAmGrCompDefSet
  3
DesignerAssemblies
 90
     1024
 91
        1
280
     0
281
     0
  0
CLASS
  1
AMDTBROWSERDBTAB
  2
AmdtBrowserDbTab
  3
McadcomServices
 90
     1024
 91
        1
280
     0
281
     0
  0
CLASS
  1
CBROWSERAPPOBJECT
  2
CBrowserAppObject
  3
McadcomServices
 90
     1024
 91
        2
280
     0
281
     0
  0
CLASS
  1
DM_PLACEHOLDER
  2
AcDmSelsetPlaceholder
  3
McadcomServices
 90
     1024
 91
        1
280
     0
281
     0
  0
CLASS
  1
ACMSTANDARDANSI
  2
AcmStandardANSI
  3
"Amdt_StdImp|Product Description: AutoCAD Mechanical|Company: Autodesk, Inc."
 90
     1024
 91
        1
280
     0
281
     0
  0
CLASS
  1
AMGOBJPROPCFG
  2
AmgObjPropCfg
  3
"AmgLay|Product Description: AutoCAD Mechanical|Company: Autodesk, Inc."
 90
     1024
 91
        1
280
     0
281
     0
  0
CLASS
  1
ACMSURFSTANDARDANSI
  2
AcmSurfTextStdANSI
  3
"Amdt_StdImp|Product Description: AutoCAD Mechanical|Company: Autodesk, Inc."
 90
     1024
 91
        1
280
     0
281
     0
  0
CLASS
  1
ACMFCFSTANDARDANSI
  2
AcmFCFStdANSI
  3
"Amdt_StdImp|Product Description: AutoCAD Mechanical|Company: Autodesk, Inc."
 90
     1024
 91
        1
280
     0
281
     0
  0
CLASS
  1
ACMWELDSTANDARDANSI
  2
AcmWeldingStdANSI
  3
"Amdt_StdImp|Product Description: AutoCAD Mechanical|Company: Autodesk, Inc."
 90
     1024
 91
        1
280
     0
281
     0
  0
CLASS
  1
ACMIDSTANDARDANSI
  2
AcmIdStdANSI
  3
"Amdt_StdImp|Product Description: AutoCAD Mechanical|Company: Autodesk, Inc."
 90
     1024
 91
        1
280
     0
281
     0
  0
CLASS
  1
ACMDATUMSTANDARDANSI
  2
AcmDatumStdANSI
  3
"Amdt_StdImp|Product Description: AutoCAD Mechanical|Company: Autodesk, Inc."
 90
     1024
 91
        1
280
     0
281
     0
  0
CLASS
  1
ACMBOMSTANDARDANSI
  2
AcmBOMStdANSI
  3
"Amdt_StdImp|Product Description: AutoCAD Mechanical|Company: Autodesk, Inc."
 90
     1024
 91
        1
280
     0
281
     0
  0
CLASS
  1
ACMDETAILSTANDARDANSI
  2
AmdtDetailSymStdANSI
  3
"Amdt_StdImp|Product Description: AutoCAD Mechanical|Company: Autodesk, Inc."
 90
     1024
 91
        1
280
     0
281
     0
  0
CLASS
  1
ACMSECTIONSTANDARDANSI
  2
AmdtSectionSymStdANSI
  3
"Amdt_StdImp|Product Description: AutoCAD Mechanical|Company: Autodesk, Inc."
 90
     1024
 91
        1
280
     0
281
     0
  0
CLASS
  1
ACMCENTERLINESTANDARDANSI
  2
AmdtCenterLineStdANSI
  3
"Amdt_StdImp|Product Description: AutoCAD Mechanical|Company: Autodesk, Inc."
 90
     1024
 91
        1
280
     0
281
     0
  0
CLASS
  1
ACMTHREADLINESTANDARDANSI
  2
AmdtThreadLineStdANSI
  3
"Amdt_StdImp|Product Description: AutoCAD Mechanical|Company: Autodesk, Inc."
 90
     1024
 91
        1
280
     0
281
     0
  0
CLASS
  1
ACMNOTESTANDARDANSI
  2
AmdtNoteStdANSI
  3
"Amdt_StdImp|Product Description: AutoCAD Mechanical|Company: Autodesk, Inc."
 90
     1024
 91
        1
280
     0
281
     0
  0
CLASS
  1
AMDTNOTETEMPLATEDB
  2
AmdtNoteTemplateDB
  3
AcmSymBB|Product Description: AutoCAD Mechanical|Company: Autodesk, Inc.
 90
     1024
 91
        7
280
     0
281
     0
  0
CLASS
  1
ACAMGLAYSTD
  2
AcAmgLayStd
  3
"AmgLay|Product Description: AutoCAD Mechanical|Company: Autodesk, Inc."
 90
     1024
 91
        1
280
     0
281
     0
  0
CLASS
  1
ACAMGDIMSTD
  2
AcAmgDimStd
  3
"AmgDim|Product Description: AutoCAD Mechanical|Company: Autodesk, Inc."
 90
     1024
 91
        1
280
     0
281
     0
  0
CLASS
  1
ACAMGHOLECHARTSTDANSI
  2
AcAmgHoleChartStdANSI
  3
AmgDim|Product Description: AutoCAD Mechanical|Company: Autodesk, Inc.
 90
     1024
 91
        1
280
     0
281
     0
  0
CLASS
  1
ACAMGTITLESTD
  2
AcAmgTitleStd
  3
"AmgTitle|Product Description: AutoCAD Mechanical|Company: Autodesk, Inc."
 90
     1024
 91
        1
280
     0
281
     0
  0
CLASS
  1
ACAMGFILTERDAT
  2
AcAmgFilterDat
  3
"AcadM|Product Description: AutoCAD Mechanical|Company: Autodesk, Inc."
 90
     1024
 91
        0
280
     0
281
     0
  0
CLASS
  1
SORTENTSTABLE
  2
AcDbSortentsTable
  3
ObjectDBX Classes
 90
        0
 91
        1
280
     0
281
     0
  0
CLASS
  1
MATERIAL
  2
AcDbMaterial
  3
ObjectDBX Classes
 90
     1153
 91
        3
280
     0
281
     0
  0
CLASS
  1
VISUALSTYLE
  2
AcDbVisualStyle
  3
ObjectDBX Classes
 90
     4095
 91
       24
280
     0
281
     0
  0
CLASS
  1
SCALE
  2
AcDbScale
  3
ObjectDBX Classes
 90
     1153
 91
       17
280
     0
281
     0
  0
CLASS
  1
MLEADERSTYLE
  2
AcDbMLeaderStyle
  3
ACDB_MLEADERSTYLE_CLASS
 90
     4095
 91
        1
280
     0
281
     0
  0
CLASS
  1
ACDBSECTIONVIEWSTYLE
  2
AcDbSectionViewStyle
  3
ObjectDBX Classes
 90
     1025
 91
        2
280
     0
281
     0
  0
CLASS
  1
ACDBDETAILVIEWSTYLE
  2
AcDbDetailViewStyle
  3
ObjectDBX Classes
 90
     1025
 91
        2
280
     0
281
     0
  0
CLASS
  1
ACMTAPERSTANDARDANSI
  2
AcmTaperStdANSI
  3
"Amdt_StdImp|Product Description: AutoCAD Mechanical|Company: Autodesk, Inc."
 90
     1024
 91
        1
280
     0
281
     0
  0
CLASS
  1
ACMANOOTATIONVIEWSTANDARDANSI
  2
AmdtAnViewStdANSI
  3
"Amdt_StdImp|Product Description: AutoCAD Mechanical|Company: Autodesk, Inc."
 90
     1024
 91
        1
280
     0
281
     0
  0
CLASS
  1
ACMSECTIONSTANDARDCUSTOM
  2
AmdtSectionSymStdCustom
  3
"Amdt_StdImp|Product Description: AutoCAD Mechanical|Company: Autodesk, Inc."
 90
     1024
 91
        1
280
     0
281
     0
  0
CLASS
  1
ACMDETAILTANDARDCUSTOM
  2
AmdtDetailSymStdCustom
  3
"Amdt_StdImp|Product Description: AutoCAD Mechanical|Company: Autodesk, Inc."
 90
     1024
 91
        1
280
     0
281
     0
  0
CLASS
  1
FIELD
  2
AcDbField
  3
ObjectDBX Classes
 90
     1152
 91
        8
280
     0
281
     0
  0
CLASS
  1
FIELDLIST
  2
AcDbFieldList
  3
ObjectDBX Classes
 90
     1152
 91
        1
280
     0
281
     0
  0
CLASS
  1
CAMSSTRUCTBTNSTATE
  2
StructBtnState
  3
DesignerAssemblies
 90
     1024
 91
        1
280
     0
281
     0
  0
CLASS
  1
CELLSTYLEMAP
  2
AcDbCellStyleMap
  3
ObjectDBX Classes
 90
     1152
 91
        2
280
     0
281
     0
  0
ENDSEC
  0
SECTION
  2
TABLES
  0
TABLE
  2
VPORT
  5
1C
330
0
100
AcDbSymbolTable
 70
     1
  0
VPORT
  5
27D
330
1C
100
AcDbSymbolTableRecord
100
AcDbViewportTableRecord
  2
*Active
 70
     0
 10
0.0
 20
0.0
 11
1.0
 21
1.0
 12
98.07632352050791
 22
156.4184395686539
 13
0.0
 23
0.0
 14
1.0
 24
1.0
 15
10.0
 25
10.0
 16
0.0
 26
0.0
 36
1.0
 17
0.0
 27
0.0
 37
0.0
 40
300.3836117453904
 41
2.033022861981371
 42
50.0
 43
-210.0
 44
-210.0
 50
0.0
 51
0.0
 71
     0
 72
  5000
 73
     1
 74
     2
 75
     0
 76
     0
 77
     0
 78
     0
281
     0
 65
     0
110
0.0
120
0.0
130
0.0
111
1.0
121
0.0
131
0.0
112
0.0
122
1.0
132
0.0
 79
     0
146
0.0
348
29F
 60
     3
 61
     5
292
     1
282
     1
141
0.0
142
0.0
 63
   250
421
  3355443
1001
ACAD_NAV_VCDISPLAY
1070
     3
  0
ENDTAB
  0
TABLE
  2
LTYPE
  5
17
330
0
100
AcDbSymbolTable
 70
    20
  0
LTYPE
  5
18
330
17
100
AcDbSymbolTableRecord
100
AcDbLinetypeTableRecord
  2
BYBLOCK
 70
     0
  3

 72
    65
 73
     0
 40
0.0
  0
LTYPE
  5
19
330
17
100
AcDbSymbolTableRecord
100
AcDbLinetypeTableRecord
  2
BYLAYER
 70
     0
  3

 72
    65
 73
     0
 40
0.0
  0
LTYPE
  5
A
330
17
100
AcDbSymbolTableRecord
100
AcDbLinetypeTableRecord
  2
CONTINUOUS
 70
     0
  3
Solid line
 72
    65
 73
     0
 40
0.0
  0
LTYPE
  5
17A
330
17
100
AcDbSymbolTableRecord
100
AcDbLinetypeTableRecord
  2
HIDDEN
 70
     0
  3
_ _ _ _ _ _ _ _ _ _ _ _ _ _ _ _ _ _ _ _ _ _ _
 72
    65
 73
     2
 40
0.375
 49
0.25
 74
     0
 49
-0.125
 74
     0
  0
LTYPE
  5
4F
330
17
100
AcDbSymbolTableRecord
100
AcDbLinetypeTableRecord
  2
STRICHPUNKT
 70
     0
  3
__ . __ . __ . __ . __ . __ . __ . __ . __ . __
 72
    65
 73
     4
 40
1.0
 49
0.5
 74
     0
 49
-0.25
 74
     0
 49
0.0
 74
     0
 49
-0.25
 74
     0
  0
LTYPE
  5
54
330
17
100
AcDbSymbolTableRecord
100
AcDbLinetypeTableRecord
  2
VERDECKT
 70
     0
  3
_ _ _ _ _ _ _ _ _ _ _ _ _ _ _ _ _ _ _ _ _ _ _
 72
    65
 73
     2
 40
0.375
 49
0.25
 74
     0
 49
-0.125
 74
     0
  0
LTYPE
  5
17C
330
17
100
AcDbSymbolTableRecord
100
AcDbLinetypeTableRecord
  2
PHANTOM2
 70
     0
  3
Phantom (.5x) ___ _ _ ___ _ _ ___ _ _ ___ _ _
 72
    65
 73
     6
 40
1.25
 49
0.625
 74
     0
 49
-0.125
 74
     0
 49
0.125
 74
     0
 49
-0.125
 74
     0
 49
0.125
 74
     0
 49
-0.125
 74
     0
  0
LTYPE
  5
17B
330
17
100
AcDbSymbolTableRecord
100
AcDbLinetypeTableRecord
  2
CENTER
 70
     0
  3
Mitte ____ _ ____ _ ____ _ ____ _ ____ _ ____
 72
    65
 73
     4
 40
2.0
 49
1.25
 74
     0
 49
-0.25
 74
     0
 49
0.25
 74
     0
 49
-0.25
 74
     0
  0
LTYPE
  5
17D
330
17
100
AcDbSymbolTableRecord
100
AcDbLinetypeTableRecord
  2
Amconstr
 70
     0
  3
_______________________
 72
    65
 73
     2
 40
9999.0
 49
9999.0
 74
     0
 49
0.0
 74
     0
  0
LTYPE
  5
17E
330
17
100
AcDbSymbolTableRecord
100
AcDbLinetypeTableRecord
  2
CENTER2
 70
     0
  3
Center (.5x) ___ _ ___ _ ___ _ ___ _ ___ _ ___
 72
    65
 73
     4
 40
1.125
 49
0.75
 74
     0
 49
-0.125
 74
     0
 49
0.125
 74
     0
 49
-0.125
 74
     0
  0
LTYPE
  5
17F
330
17
100
AcDbSymbolTableRecord
100
AcDbLinetypeTableRecord
  2
HIDDEN2
 70
     0
  3
Hidden (.5x) _ _ _ _ _ _ _ _ _ _ _ _ _ _ _ _ _
 72
    65
 73
     2
 40
0.1875
 49
0.125
 74
     0
 49
-0.0625
 74
     0
  0
LTYPE
  5
180
330
17
100
AcDbSymbolTableRecord
100
AcDbLinetypeTableRecord
  2
Amzigzag2
 70
     0
  3
/\/-/\/-/\/-/\/-/\/-/\/
 72
    65
 73
     2
 40
0.4401
 49
0.0001
 74
     4
 75
   136
340
181
 46
0.0016
 50
0.0
 44
0.0
 45
0.0
 49
-0.4400000000000003
 74
     0
  0
LTYPE
  5
192
330
17
100
AcDbSymbolTableRecord
100
AcDbLinetypeTableRecord
  2
ACANSTGB
 70
     0
  3
__ . . __ . .
 72
    65
 73
     6
 40
0.35433070866
 49
0.15748031496
 74
     0
 49
-0.03937007874
 74
     0
 49
0.03937007874
 74
     0
 49
-0.03937007874
 74
     0
 49
0.03937007874
 74
     0
 49
-0.03937007874
 74
     0
  0
LTYPE
  5
193
330
17
100
AcDbSymbolTableRecord
100
AcDbLinetypeTableRecord
  2
ACANSTGL
 70
     0
  3
_ _ _ _ _
 72
    65
 73
     2
 40
0.11811023622
 49
0.07874015748
 74
     0
 49
-0.03937007874
 74
     0
  0
LTYPE
  5
244
330
17
100
AcDbSymbolTableRecord
100
AcDbLinetypeTableRecord
  2
AM_ISO02W050
 70
     0
  3
__ __ __ __ __ __ __ __ __ __ __ __ __ __ __
 72
    65
 73
     2
 40
7.5
 49
6.0
 74
     0
 49
-1.5
 74
     0
  0
LTYPE
  5
245
330
17
100
AcDbSymbolTableRecord
100
AcDbLinetypeTableRecord
  2
AM_ISO08W050
 70
     0
  3
____ . ____ . ____ . ____ . ____ . ____ . ____
 72
    65
 73
     4
 40
18.0
 49
12.0
 74
     0
 49
-1.5
 74
     0
 49
3.0
 74
     0
 49
-1.5
 74
     0
  0
LTYPE
  5
246
330
17
100
AcDbSymbolTableRecord
100
AcDbLinetypeTableRecord
  2
AM_ISO09W050
 70
     0
  3
_____ . . _____ . . _____ . . ____ .. ____
 72
    65
 73
     6
 40
22.5
 49
12.0
 74
     0
 49
-1.5
 74
     0
 49
3.0
 74
     0
 49
-1.5
 74
     0
 49
3.0
 74
     0
 49
-1.5
 74
     0
  0
LTYPE
  5
247
330
17
100
AcDbSymbolTableRecord
100
AcDbLinetypeTableRecord
  2
AM_ISO08W050x2
 70
     0
  3
__ . __ . __ . __ . __ . __
 72
    65
 73
     4
 40
9.0
 49
6.0
 74
     0
 49
-0.75
 74
     0
 49
1.5
 74
     0
 49
-0.75
 74
     0
  0
LTYPE
  5
248
330
17
100
AcDbSymbolTableRecord
100
AcDbLinetypeTableRecord
  2
AM_ISO02W050x2
 70
     0
  3
 _ _ _ _ _ _ _ _ _ _ _ _
 72
    65
 73
     2
 40
3.75
 49
3.0
 74
     0
 49
-0.75
 74
     0
  0
LTYPE
  5
249
330
17
100
AcDbSymbolTableRecord
100
AcDbLinetypeTableRecord
  2
Amzigzag
 70
     0
  3
/\/-/\/-/\/-/\/-/\/-/\/
 72
    65
 73
     2
 40
11.0001
 49
0.0001
 74
     4
 75
   136
340
181
 46
0.04
 50
0.0
 44
0.0
 45
0.0
 49
-11.0
 74
     0
  0
ENDTAB
  0
TABLE
  2
LAYER
  5
13
330
0
100
AcDbSymbolTable
 70
     8
  0
LAYER
  5
6
102
{ACAD_XDICTIONARY
360
33D
102
}
330
13
100
AcDbSymbolTableRecord
100
AcDbLayerTableRecord
  2
0
 70
     0
 62
     7
  6
CONTINUOUS
370
    -3
390
7
347
291
348
0
  0
LAYER
  5
4C
102
{ACAD_XDICTIONARY
360
33F
102
}
330
13
100
AcDbSymbolTableRecord
100
AcDbLayerTableRecord
  2
UMRISS05
 70
     0
 62
     4
  6
CONTINUOUS
370
    -3
390
7
347
291
348
0
  0
LAYER
  5
2A
102
{ACAD_XDICTIONARY
360
341
102
}
330
13
100
AcDbSymbolTableRecord
100
AcDbLayerTableRecord
  2
BEMASSUNG
 70
     0
 62
     2
  6
CONTINUOUS
370
    -3
390
7
347
291
348
0
  0
LAYER
  5
4E
102
{ACAD_XDICTIONARY
360
343
102
}
330
13
100
AcDbSymbolTableRecord
100
AcDbLayerTableRecord
  2
ACHSEN
 70
     0
 62
    12
  6
STRICHPUNKT
370
    -3
390
7
347
291
348
0
  0
LAYER
  5
53
102
{ACAD_XDICTIONARY
360
345
102
}
330
13
100
AcDbSymbolTableRecord
100
AcDbLayerTableRecord
  2
AVERDECKTE
 70
     0
 62
     9
  6
VERDECKT
370
    -3
390
7
347
291
348
0
  0
LAYER
  5
39
330
13
100
AcDbSymbolTableRecord
100
AcDbLayerTableRecord
  2
DEFPOINTS
 70
     0
 62
     7
  6
CONTINUOUS
290
     0
370
    -3
390
7
347
291
348
0
  0
LAYER
  5
60B
330
13
100
AcDbSymbolTableRecord
100
AcDbLayerTableRecord
  2
AM_6
 70
     0
 62
     2
  6
CONTINUOUS
370
    30
390
7
347
291
348
0
1001
AcAecLayerStandard
1000

1000

  0
LAYER
  5
61C
330
13
100
AcDbSymbolTableRecord
100
AcDbLayerTableRecord
  2
AM_CL
 70
     0
 62
     1
  6
Amconstr
370
    15
390
7
347
291
348
0
1001
AcAecLayerStandard
1000

1000

  0
ENDTAB
  0
TABLE
  2
STYLE
  5
14
330
0
100
AcDbSymbolTable
 70
     6
  0
STYLE
  5
15
330
14
100
AcDbSymbolTableRecord
100
AcDbTextStyleTableRecord
  2
STANDARD
 70
     0
 40
0.0
 41
1.0
 50
0.0
 71
     0
 42
3.5
  3
txt
  4

  0
STYLE
  5
22
330
14
100
AcDbSymbolTableRecord
100
AcDbTextStyleTableRecord
  2
NORM
 70
     0
 40
0.0
 41
1.0
 50
0.0
 71
     0
 42
6.0
  3
SIMPLEX
  4

  0
STYLE
  5
2B
330
14
100
AcDbSymbolTableRecord
100
AcDbTextStyleTableRecord
  2
PASSDIN
 70
     0
 40
0.0
 41
1.0
 50
0.0
 71
     0
 42
6.0
  3
isocp.shx
  4

  0
STYLE
  5
181
330
14
100
AcDbSymbolTableRecord
100
AcDbTextStyleTableRecord
  2

 70
     1
 40
0.0
 41
1.0
 50
0.0
 71
     0
 42
6.0
  3
genltshp.shx
  4

  0
STYLE
  5
18B
330
14
100
AcDbSymbolTableRecord
100
AcDbTextStyleTableRecord
  2
ACANSTS
 70
     0
 40
1.0
 41
1.0
 50
0.0
 71
     0
 42
6.0
  3
romans.shx
  4

  0
STYLE
  5
18E
330
14
100
AcDbSymbolTableRecord
100
AcDbTextStyleTableRecord
  2
ACANSGDT
 70
     0
 40
0.0
 41
1.0
 50
0.0
 71
     0
 42
6.0
  3
amgdt.shx
  4

  0
ENDTAB
  0
TABLE
  2
VIEW
  5
1A
330
0
100
AcDbSymbolTable
 70
     0
  0
ENDTAB
  0
TABLE
  2
UCS
  5
1B
330
0
100
AcDbSymbolTable
 70
     0
  0
ENDTAB
  0
TABLE
  2
APPID
  5
1E
330
0
100
AcDbSymbolTable
 70
    17
  0
APPID
  5
1F
330
1E
100
AcDbSymbolTableRecord
100
AcDbRegAppTableRecord
  2
ACAD
 70
     0
  0
APPID
  5
E
330
1E
100
AcDbSymbolTableRecord
100
AcDbRegAppTableRecord
  2
ACAD_PSEXT
 70
     0
  0
APPID
  5
1A3
330
1E
100
AcDbSymbolTableRecord
100
AcDbRegAppTableRecord
  2
ACAD_DSTYLE_DIMARC_LENGTH_SYMBOL
 70
     0
  0
APPID
  5
1A4
330
1E
100
AcDbSymbolTableRecord
100
AcDbRegAppTableRecord
  2
ACAD_DSTYLE_DIMJOGGED_JOGANGLE_SYMBOL
 70
     0
  0
APPID
  5
1E6
330
1E
100
AcDbSymbolTableRecord
100
AcDbRegAppTableRecord
  2
MCAD_NO_VIS
 70
     0
  0
APPID
  5
1E7
330
1E
100
AcDbSymbolTableRecord
100
AcDbRegAppTableRecord
  2
ACAD_TEMP_GRAPHIC
 70
     0
  0
APPID
  5
214
330
1E
100
AcDbSymbolTableRecord
100
AcDbRegAppTableRecord
  2
AD_DRAW
 70
     0
  0
APPID
  5
217
330
1E
100
AcDbSymbolTableRecord
100
AcDbRegAppTableRecord
  2
ACATTRIBSERVICES
 70
     0
  0
APPID
  5
237
330
1E
100
AcDbSymbolTableRecord
100
AcDbRegAppTableRecord
  2
DESIGNERASSEMBLIES
 70
     0
  0
APPID
  5
23C
330
1E
100
AcDbSymbolTableRecord
100
AcDbRegAppTableRecord
  2
ACADM_DIM_EDIT
 70
     0
  0
APPID
  5
23D
330
1E
100
AcDbSymbolTableRecord
100
AcDbRegAppTableRecord
  2
AMDT_DM_ADJ
 70
     0
  0
APPID
  5
30A
330
1E
100
AcDbSymbolTableRecord
100
AcDbRegAppTableRecord
  2
ACAD_DSTYLE_DIMBREAK
 70
     0
  0
APPID
  5
30B
330
1E
100
AcDbSymbolTableRecord
100
AcDbRegAppTableRecord
  2
ACAD_DSTYLE_DIMJAG
 70
     0
  0
APPID
  5
32C
330
1E
100
AcDbSymbolTableRecord
100
AcDbRegAppTableRecord
  2
ACAD_NAV_VCDISPLAY
 70
     0
  0
APPID
  5
38E
330
1E
100
AcDbSymbolTableRecord
100
AcDbRegAppTableRecord
  2
ACAD_MLEADERVER
 70
     0
  0
APPID
  5
60C
330
1E
100
AcDbSymbolTableRecord
100
AcDbRegAppTableRecord
  2
AcAecLayerStandard
 70
     0
  0
APPID
  5
60D
330
1E
100
AcDbSymbolTableRecord
100
AcDbRegAppTableRecord
  2
ACAD_EXEMPT_FROM_CAD_STANDARDS
 70
     0
  0
ENDTAB
  0
TABLE
  2
DIMSTYLE
  5
20
330
0
100
AcDbSymbolTable
 70
     8
100
AcDbDimStyleTable
 71
     2
340
21
340
21
  0
DIMSTYLE
105
21
102
{ACAD_REACTORS
330
117
330
144
330
15B
330
7D
330
8B
330
98
330
B3
330
56
330
63
330
A5
330
105
330
2E
330
3D
330
C0
330
CD
330
DA
330
E7
330
F4
330
70
330
270
330
5EA
102
}
330
20
100
AcDbSymbolTableRecord
100
AcDbDimStyleTableRecord
  2
CADIMENU
 70
     0
 41
3.5
 42
0.1
 43
7.0
 44
1.8
 73
     0
 74
     0
 77
     1
 78
     8
140
3.5
141
1.5
143
25.39999999999999
146
0.5
147
1.0
174
     1
271
     2
272
     2
279
     2
284
     8
285
     8
286
     8
340
22
  0
DIMSTYLE
105
1A2
102
{ACAD_REACTORS
330
553
102
}
330
20
100
AcDbSymbolTableRecord
100
AcDbDimStyleTableRecord
  2
AM_ANSI
 70
     0
  4
mm
 41
0.1
 42
0.05
 43
0.5
 44
0.1
 47
0.1
 48
0.1
 78
     7
 79
     2
 90
     1
140
0.12
141
0.0
146
0.71
147
0.06
176
   256
177
   256
178
     2
274
     4
284
     7
340
15
371
    -1
372
    -1
1001
ACAD_DSTYLE_DIMJOGGED_JOGANGLE_SYMBOL
1070
   384
1040
0.7853981633974483
  0
DIMSTYLE
105
1A5
330
20
100
AcDbSymbolTableRecord
100
AcDbDimStyleTableRecord
  2
AM_ANSI$3
 70
     0
  4
mm
 41
0.1
 42
0.05
 43
0.5
 44
0.1
 47
0.1
 48
0.1
 78
     7
 79
     2
 90
     1
140
0.12
141
0.0
146
0.71
147
0.06
176
   256
177
   256
178
     2
274
     4
284
     7
288
     1
289
     0
340
15
371
    -1
372
    -1
1001
ACAD_DSTYLE_DIMJOGGED_JOGANGLE_SYMBOL
1070
   384
1040
0.7853981633974483
  0
DIMSTYLE
105
1A6
330
20
100
AcDbSymbolTableRecord
100
AcDbDimStyleTableRecord
  2
AM_ANSI$4
 70
     0
  4
mm
 41
0.1
 42
0.05
 43
0.5
 44
0.1
 47
0.1
 48
0.1
 78
     7
 79
     2
 90
     1
140
0.12
141
0.0
146
0.71
147
0.06
176
   256
177
   256
178
     2
274
     4
284
     7
288
     1
289
     0
340
15
371
    -1
372
    -1
1001
ACAD_DSTYLE_DIMJOGGED_JOGANGLE_SYMBOL
1070
   384
1040
0.7853981633974483
  0
DIMSTYLE
105
1A7
330
20
100
AcDbSymbolTableRecord
100
AcDbDimStyleTableRecord
  2
AM_ANSI$7
 70
     0
  4
mm
 41
0.1
 42
0.05
 43
0.5
 44
0.1
 47
0.1
 48
0.1
 78
     7
 79
     2
 90
     1
140
0.24
141
0.0
146
0.71
147
0.06
176
   256
177
   256
178
     2
274
     4
284
     7
340
15
371
    -1
372
    -1
1001
ACAD_DSTYLE_DIMJOGGED_JOGANGLE_SYMBOL
1070
   384
1040
0.7853981633974483
  0
DIMSTYLE
105
1A8
330
20
100
AcDbSymbolTableRecord
100
AcDbDimStyleTableRecord
  2
AM_ANSI$SF
 70
     0
  4
mm
 41
0.1
 42
0.05
 43
0.5
 44
0.1
 47
0.1
 48
0.1
 75
     1
 76
     1
 78
     7
 79
     2
 90
     1
140
0.12
141
0.0
146
0.71
147
0.06
176
   256
177
   256
178
     2
274
     4
284
     7
340
15
371
    -1
372
    -1
1001
ACAD_DSTYLE_DIMJOGGED_JOGANGLE_SYMBOL
1070
   384
1040
0.7853981633974483
  0
DIMSTYLE
105
1A9
330
20
100
AcDbSymbolTableRecord
100
AcDbDimStyleTableRecord
  2
AM_ANSI$SH
 70
     0
  4
mm
 41
0.1
 42
0.05
 43
0.5
 44
0.1
 47
0.1
 48
0.1
 75
     1
 76
     1
 78
     7
 79
     2
 90
     1
140
0.12
141
0.0
146
0.71
147
0.06
173
     1
176
   256
177
   256
178
     2
274
     4
284
     7
340
15
343
1AA
371
    -1
372
    -1
1001
ACAD_DSTYLE_DIMJOGGED_JOGANGLE_SYMBOL
1070
   384
1040
0.7853981633974483
  0
ENDTAB
  0
TABLE
  2
BLOCK_RECORD
  5
1
330
0
100
AcDbSymbolTable
 70
    44
  0
BLOCK_RECORD
  5
2
102
{ACAD_XDICTIONARY
360
3
102
}
330
1
100
AcDbSymbolTableRecord
100
AcDbBlockTableRecord
  2
*MODEL_SPACE
340
C
 70
     0
280
     1
281
     0
  0
BLOCK_RECORD
  5
F
330
1
100
AcDbSymbolTableRecord
100
AcDbBlockTableRecord
  2
*PAPER_SPACE
340
12
 70
     0
280
     1
281
     0
  0
BLOCK_RECORD
  5
1AA
330
1
100
AcDbSymbolTableRecord
100
AcDbBlockTableRecord
  2
GENAXEH
340
0
 70
     0
280
     1
281
     0
  0
BLOCK_RECORD
  5
DB
330
1
100
AcDbSymbolTableRecord
100
AcDbBlockTableRecord
  2
*D1
340
0
 70
     0
280
     1
281
     0
  0
BLOCK_RECORD
  5
E8
330
1
100
AcDbSymbolTableRecord
100
AcDbBlockTableRecord
  2
*D2
340
0
 70
     0
280
     1
281
     0
  0
BLOCK_RECORD
  5
15C
330
1
100
AcDbSymbolTableRecord
100
AcDbBlockTableRecord
  2
*D3
340
0
 70
     0
280
     1
281
     0
  0
BLOCK_RECORD
  5
C1
330
1
100
AcDbSymbolTableRecord
100
AcDbBlockTableRecord
  2
*D4
340
0
 70
     0
280
     1
281
     0
  0
BLOCK_RECORD
  5
CE
330
1
100
AcDbSymbolTableRecord
100
AcDbBlockTableRecord
  2
*D5
340
0
 70
     0
280
     1
281
     0
  0
BLOCK_RECORD
  5
145
330
1
100
AcDbSymbolTableRecord
100
AcDbBlockTableRecord
  2
*D6
340
0
 70
     0
280
     1
281
     0
  0
BLOCK_RECORD
  5
57
330
1
100
AcDbSymbolTableRecord
100
AcDbBlockTableRecord
  2
*D7
340
0
 70
     0
280
     1
281
     0
  0
BLOCK_RECORD
  5
64
330
1
100
AcDbSymbolTableRecord
100
AcDbBlockTableRecord
  2
*D8
340
0
 70
     0
280
     1
281
     0
  0
BLOCK_RECORD
  5
99
330
1
100
AcDbSymbolTableRecord
100
AcDbBlockTableRecord
  2
*D9
340
0
 70
     0
280
     1
281
     0
  0
BLOCK_RECORD
  5
A6
330
1
100
AcDbSymbolTableRecord
100
AcDbBlockTableRecord
  2
*D10
340
0
 70
     0
280
     1
281
     0
  0
BLOCK_RECORD
  5
B4
330
1
100
AcDbSymbolTableRecord
100
AcDbBlockTableRecord
  2
*D11
340
0
 70
     0
280
     1
281
     0
  0
BLOCK_RECORD
  5
F5
330
1
100
AcDbSymbolTableRecord
100
AcDbBlockTableRecord
  2
*D12
340
0
 70
     0
280
     1
281
     0
  0
BLOCK_RECORD
  5
118
330
1
100
AcDbSymbolTableRecord
100
AcDbBlockTableRecord
  2
*D13
340
0
 70
     0
280
     1
281
     0
  0
BLOCK_RECORD
  5
71
330
1
100
AcDbSymbolTableRecord
100
AcDbBlockTableRecord
  2
*D14
340
0
 70
     0
280
     1
281
     0
  0
BLOCK_RECORD
  5
7E
330
1
100
AcDbSymbolTableRecord
100
AcDbBlockTableRecord
  2
*D15
340
0
 70
     0
280
     1
281
     0
  0
BLOCK_RECORD
  5
8C
330
1
100
AcDbSymbolTableRecord
100
AcDbBlockTableRecord
  2
*D16
340
0
 70
     0
280
     1
281
     0
  0
BLOCK_RECORD
  5
106
330
1
100
AcDbSymbolTableRecord
100
AcDbBlockTableRecord
  2
*D17
340
0
 70
     0
280
     1
281
     0
  0
BLOCK_RECORD
  5
3E
330
1
100
AcDbSymbolTableRecord
100
AcDbBlockTableRecord
  2
*D18
340
0
 70
     0
280
     1
281
     0
  0
BLOCK_RECORD
  5
2F
330
1
100
AcDbSymbolTableRecord
100
AcDbBlockTableRecord
  2
*D19
340
0
 70
     0
280
     1
281
     0
  0
BLOCK_RECORD
  5
271
330
1
100
AcDbSymbolTableRecord
100
AcDbBlockTableRecord
  2
*D20
340
0
 70
     0
280
     1
281
     0
  0
BLOCK_RECORD
  5
312
330
1
100
AcDbSymbolTableRecord
100
AcDbBlockTableRecord
  2
_ACMFILLEDHALF
340
0
 70
     0
280
     1
281
     0
  0
BLOCK_RECORD
  5
3EF
330
1
100
AcDbSymbolTableRecord
100
AcDbBlockTableRecord
  2
*D22
340
0
 70
     0
280
     1
281
     0
  0
BLOCK_RECORD
  5
3FB
330
1
100
AcDbSymbolTableRecord
100
AcDbBlockTableRecord
  2
*D23
340
0
 70
     0
280
     1
281
     0
  0
BLOCK_RECORD
  5
407
330
1
100
AcDbSymbolTableRecord
100
AcDbBlockTableRecord
  2
*D24
340
0
 70
     0
280
     1
281
     0
  0
BLOCK_RECORD
  5
414
330
1
100
AcDbSymbolTableRecord
100
AcDbBlockTableRecord
  2
*D25
340
0
 70
     0
280
     1
281
     0
  0
BLOCK_RECORD
  5
421
330
1
100
AcDbSymbolTableRecord
100
AcDbBlockTableRecord
  2
*D26
340
0
 70
     0
280
     1
281
     0
  0
BLOCK_RECORD
  5
42D
330
1
100
AcDbSymbolTableRecord
100
AcDbBlockTableRecord
  2
*D27
340
0
 70
     0
280
     1
281
     0
  0
BLOCK_RECORD
  5
439
330
1
100
AcDbSymbolTableRecord
100
AcDbBlockTableRecord
  2
*D28
340
0
 70
     0
280
     1
281
     0
  0
BLOCK_RECORD
  5
445
330
1
100
AcDbSymbolTableRecord
100
AcDbBlockTableRecord
  2
*D29
340
0
 70
     0
280
     1
281
     0
  0
BLOCK_RECORD
  5
451
330
1
100
AcDbSymbolTableRecord
100
AcDbBlockTableRecord
  2
*D30
340
0
 70
     0
280
     1
281
     0
  0
BLOCK_RECORD
  5
45D
330
1
100
AcDbSymbolTableRecord
100
AcDbBlockTableRecord
  2
*D31
340
0
 70
     0
280
     1
281
     0
  0
BLOCK_RECORD
  5
469
330
1
100
AcDbSymbolTableRecord
100
AcDbBlockTableRecord
  2
*D32
340
0
 70
     0
280
     1
281
     0
  0
BLOCK_RECORD
  5
476
330
1
100
AcDbSymbolTableRecord
100
AcDbBlockTableRecord
  2
*D33
340
0
 70
     0
280
     1
281
     0
  0
BLOCK_RECORD
  5
482
330
1
100
AcDbSymbolTableRecord
100
AcDbBlockTableRecord
  2
*D34
340
0
 70
     0
280
     1
281
     0
  0
BLOCK_RECORD
  5
48E
330
1
100
AcDbSymbolTableRecord
100
AcDbBlockTableRecord
  2
*D35
340
0
 70
     0
280
     1
281
     0
  0
BLOCK_RECORD
  5
49B
330
1
100
AcDbSymbolTableRecord
100
AcDbBlockTableRecord
  2
*D36
340
0
 70
     0
280
     1
281
     0
  0
BLOCK_RECORD
  5
4A7
330
1
100
AcDbSymbolTableRecord
100
AcDbBlockTableRecord
  2
*D37
340
0
 70
     0
280
     1
281
     0
  0
BLOCK_RECORD
  5
4B3
330
1
100
AcDbSymbolTableRecord
100
AcDbBlockTableRecord
  2
*D38
340
0
 70
     0
280
     1
281
     0
  0
BLOCK_RECORD
  5
4BF
330
1
100
AcDbSymbolTableRecord
100
AcDbBlockTableRecord
  2
*D39
340
0
 70
     0
280
     1
281
     0
  0
BLOCK_RECORD
  5
4CC
330
1
100
AcDbSymbolTableRecord
100
AcDbBlockTableRecord
  2
*D40
340
0
 70
     0
280
     1
281
     0
  0
BLOCK_RECORD
  5
5EB
330
1
100
AcDbSymbolTableRecord
100
AcDbBlockTableRecord
  2
*D43
340
0
 70
     0
280
     1
281
     0
  0
ENDTAB
  0
ENDSEC
  0
SECTION
  2
BLOCKS
  0
BLOCK
  5
5
330
2
100
AcDbEntity
  8
0
100
AcDbBlockBegin
  2
*MODEL_SPACE
 70
     0
 10
0.0
 20
0.0
 30
0.0
  3
*MODEL_SPACE
  1

  0
ENDBLK
  5
B
330
2
100
AcDbEntity
  8
0
100
AcDbBlockEnd
  0
BLOCK
  5
10
330
F
100
AcDbEntity
 67
     1
  8
0
100
AcDbBlockBegin
  2
*PAPER_SPACE
 70
     0
 10
0.0
 20
0.0
 30
0.0
  3
*PAPER_SPACE
  1

  0
ENDBLK
  5
11
330
F
100
AcDbEntity
 67
     1
  8
0
100
AcDbBlockEnd
  0
BLOCK
  5
1AB
330
1AA
100
AcDbEntity
  8
0
100
AcDbBlockBegin
  2
GENAXEH
 70
     0
 10
0.0
 20
0.0
 30
0.0
  3
GENAXEH
  1

  0
LINE
  5
1AC
330
1AA
100
AcDbEntity
  8
0
100
AcDbLine
 10
-1.0
 20
0.0
 30
0.0
 11
1.0
 21
0.0
 31
0.0
  0
ENDBLK
  5
1AD
330
1AA
100
AcDbEntity
  8
0
100
AcDbBlockEnd
  0
BLOCK
  5
DC
330
DB
100
AcDbEntity
  8
0
100
AcDbBlockBegin
  2
*D1
 70
     1
 10
0.0
 20
0.0
 30
0.0
  3
*D1
  1

  0
LINE
  5
DD
330
DB
100
AcDbEntity
  8
BEMASSUNG
 62
     2
370
    -2
100
AcDbLine
 10
79.06520280791297
 20
143.9231205455859
 30
0.0
 11
96.25960355310377
 21
143.9231205455859
 31
0.0
  0
LINE
  5
DE
330
DB
100
AcDbEntity
  8
BEMASSUNG
 62
     2
370
    -2
100
AcDbLine
 10
80.06520280791297
 20
194.9231205455859
 30
0.0
 11
96.25960355310379
 21
194.9231205455859
 31
0.0
  0
LINE
  5
DF
330
DB
100
AcDbEntity
  8
BEMASSUNG
 62
     2
370
    -2
100
AcDbLine
 10
94.45960355310377
 20
147.4231205455859
 30
0.0
 11
94.45960355310379
 21
191.4231205455859
 31
0.0
  0
MTEXT
  5
E0
330
DB
100
AcDbEntity
  8
BEMASSUNG
 62
     3
100
AcDbMText
 10
91.70960355310377
 20
170.4231205455859
 30
0.0
 40
3.5
 41
0.0
 46
0.0
 71
     5
 72
     1
  1
\A1;51
  7
NORM
 11
0.0000000000000001
 21
1.0
 31
0.0
 73
     1
 44
1.0
1001
ACAD
1000
MTEXTBEGIN
1070
    73
1070
     1
1070
    44
1040
1.0
1070
    74
1070
     0
1000
MTEXTEND
  0
SOLID
  5
E1
330
DB
100
AcDbEntity
  8
BEMASSUNG
 62
     2
100
AcDbTrace
 10
93.87627021977044
 20
147.4231205455859
 30
0.0
 11
95.04293688643713
 21
147.4231205455859
 31
0.0
 12
94.45960355310377
 22
143.9231205455859
 32
0.0
 13
94.45960355310377
 23
143.9231205455859
 33
0.0
  0
SOLID
  5
E2
330
DB
100
AcDbEntity
  8
BEMASSUNG
 62
     2
100
AcDbTrace
 10
93.87627021977044
 20
191.4231205455859
 30
0.0
 11
95.04293688643713
 21
191.4231205455859
 31
0.0
 12
94.45960355310379
 22
194.9231205455859
 32
0.0
 13
94.45960355310379
 23
194.9231205455859
 33
0.0
  0
POINT
  5
E3
330
DB
100
AcDbEntity
  8
DEFPOINTS
 62
     0
100
AcDbPoint
 10
78.56520280791297
 20
143.9231205455859
 30
0.0
  0
POINT
  5
E4
330
DB
100
AcDbEntity
  8
DEFPOINTS
 62
     0
100
AcDbPoint
 10
79.56520280791298
 20
194.9231205455859
 30
0.0
  0
POINT
  5
E5
330
DB
100
AcDbEntity
  8
DEFPOINTS
 62
     0
100
AcDbPoint
 10
94.45960355310379
 20
194.9231205455859
 30
0.0
  0
ENDBLK
  5
E6
330
DB
100
AcDbEntity
  8
0
100
AcDbBlockEnd
  0
BLOCK
  5
E9
330
E8
100
AcDbEntity
  8
0
100
AcDbBlockBegin
  2
*D2
 70
     1
 10
0.0
 20
0.0
 30
0.0
  3
*D2
  1

  0
LINE
  5
EA
330
E8
100
AcDbEntity
  8
BEMASSUNG
 62
     2
370
    -2
100
AcDbLine
 10
80.06520280791297
 20
194.9231205455859
 30
0.0
 11
96.25960355310377
 21
194.9231205455859
 31
0.0
  0
LINE
  5
EB
330
E8
100
AcDbEntity
  8
BEMASSUNG
 62
     2
370
    -2
100
AcDbLine
 10
80.06520280791297
 20
230.9231205455859
 30
0.0
 11
96.25960355310379
 21
230.9231205455859
 31
0.0
  0
LINE
  5
EC
330
E8
100
AcDbEntity
  8
BEMASSUNG
 62
     2
370
    -2
100
AcDbLine
 10
94.45960355310377
 20
198.4231205455859
 30
0.0
 11
94.45960355310379
 21
227.4231205455859
 31
0.0
  0
MTEXT
  5
ED
330
E8
100
AcDbEntity
  8
BEMASSUNG
 62
     3
100
AcDbMText
 10
91.70960355310377
 20
219.8090047057347
 30
0.0
 40
3.5
 41
0.0
 46
0.0
 71
     5
 72
     1
  1
\A1;36
  7
NORM
 11
0.0000000000000001
 21
1.0
 31
0.0
 73
     1
 44
1.0
1001
ACAD
1000
MTEXTBEGIN
1070
    73
1070
     1
1070
    44
1040
1.0
1070
    74
1070
     0
1000
MTEXTEND
  0
SOLID
  5
EE
330
E8
100
AcDbEntity
  8
BEMASSUNG
 62
     2
100
AcDbTrace
 10
93.87627021977044
 20
198.4231205455859
 30
0.0
 11
95.04293688643713
 21
198.4231205455859
 31
0.0
 12
94.45960355310377
 22
194.9231205455859
 32
0.0
 13
94.45960355310377
 23
194.9231205455859
 33
0.0
  0
SOLID
  5
EF
330
E8
100
AcDbEntity
  8
BEMASSUNG
 62
     2
100
AcDbTrace
 10
93.87627021977044
 20
227.4231205455859
 30
0.0
 11
95.04293688643713
 21
227.4231205455859
 31
0.0
 12
94.45960355310379
 22
230.9231205455859
 32
0.0
 13
94.45960355310379
 23
230.9231205455859
 33
0.0
  0
POINT
  5
F0
330
E8
100
AcDbEntity
  8
DEFPOINTS
 62
     0
100
AcDbPoint
 10
79.56520280791298
 20
194.9231205455859
 30
0.0
  0
POINT
  5
F1
330
E8
100
AcDbEntity
  8
DEFPOINTS
 62
     0
100
AcDbPoint
 10
79.56520280791298
 20
230.9231205455859
 30
0.0
  0
POINT
  5
F2
330
E8
100
AcDbEntity
  8
DEFPOINTS
 62
     0
100
AcDbPoint
 10
94.45960355310379
 20
230.9231205455859
 30
0.0
  0
ENDBLK
  5
F3
330
E8
100
AcDbEntity
  8
0
100
AcDbBlockEnd
  0
BLOCK
  5
15D
330
15C
100
AcDbEntity
  8
0
100
AcDbBlockBegin
  2
*D3
 70
     1
 10
0.0
 20
0.0
 30
0.0
  3
*D3
  1

  0
LINE
  5
15E
330
15C
100
AcDbEntity
  8
BEMASSUNG
 62
     2
370
    -2
100
AcDbLine
 10
66.56520280791298
 20
195.4231205455858
 30
0.0
 11
66.56520280791298
 21
207.2540240186425
 31
0.0
  0
LINE
  5
15F
330
15C
100
AcDbEntity
  8
BEMASSUNG
 62
     2
370
    -2
100
AcDbLine
 10
79.56520280791298
 20
195.4231205455859
 30
0.0
 11
79.56520280791298
 21
207.2540240186425
 31
0.0
  0
LINE
  5
160
330
15C
100
AcDbEntity
  8
BEMASSUNG
 62
     2
370
    -2
100
AcDbLine
 10
70.06520280791298
 20
205.4540240186425
 30
0.0
 11
76.06520280791298
 21
205.4540240186425
 31
0.0
  0
MTEXT
  5
161
330
15C
100
AcDbEntity
  8
BEMASSUNG
 62
     3
100
AcDbMText
 10
73.58254973586713
 20
209.477325685608
 30
0.0
 40
3.5
 41
0.0
 46
0.0
 71
     5
 72
     1
  1
\A1;13
  7
NORM
 73
     1
 44
1.0
1001
ACAD
1000
MTEXTBEGIN
1070
    73
1070
     1
1070
    44
1040
1.0
1070
    74
1070
     0
1000
MTEXTEND
  0
SOLID
  5
162
330
15C
100
AcDbEntity
  8
BEMASSUNG
 62
     2
100
AcDbTrace
 10
70.06520280791298
 20
206.0373573519759
 30
0.0
 11
70.06520280791298
 21
204.8706906853092
 31
0.0
 12
66.56520280791298
 22
205.4540240186425
 32
0.0
 13
66.56520280791298
 23
205.4540240186425
 33
0.0
  0
SOLID
  5
163
330
15C
100
AcDbEntity
  8
BEMASSUNG
 62
     2
100
AcDbTrace
 10
76.06520280791298
 20
206.0373573519759
 30
0.0
 11
76.06520280791298
 21
204.8706906853092
 31
0.0
 12
79.56520280791298
 22
205.4540240186425
 32
0.0
 13
79.56520280791298
 23
205.4540240186425
 33
0.0
  0
POINT
  5
164
330
15C
100
AcDbEntity
  8
DEFPOINTS
 62
     0
100
AcDbPoint
 10
66.56520280791298
 20
194.9231205455858
 30
0.0
  0
POINT
  5
165
330
15C
100
AcDbEntity
  8
DEFPOINTS
 62
     0
100
AcDbPoint
 10
79.56520280791298
 20
194.9231205455859
 30
0.0
  0
POINT
  5
166
330
15C
100
AcDbEntity
  8
DEFPOINTS
 62
     0
100
AcDbPoint
 10
79.56520280791298
 20
205.4540240186425
 30
0.0
  0
ENDBLK
  5
167
330
15C
100
AcDbEntity
  8
0
100
AcDbBlockEnd
  0
BLOCK
  5
C2
330
C1
100
AcDbEntity
  8
0
100
AcDbBlockBegin
  2
*D4
 70
     1
 10
0.0
 20
0.0
 30
0.0
  3
*D4
  1

  0
LINE
  5
C3
330
C1
100
AcDbEntity
  8
BEMASSUNG
 62
     2
370
    -2
100
AcDbLine
 10
84.56520280791297
 20
88.4231205455859
 30
0.0
 11
96.25960355310377
 21
88.42312054558588
 31
0.0
  0
LINE
  5
C4
330
C1
100
AcDbEntity
  8
BEMASSUNG
 62
     2
370
    -2
100
AcDbLine
 10
79.06520280791298
 20
105.9231205455859
 30
0.0
 11
96.25960355310379
 21
105.9231205455859
 31
0.0
  0
LINE
  5
C5
330
C1
100
AcDbEntity
  8
BEMASSUNG
 62
     2
370
    -2
100
AcDbLine
 10
94.45960355310377
 20
91.92312054558588
 30
0.0
 11
94.45960355310379
 21
102.4231205455859
 31
0.0
  0
MTEXT
  5
C6
330
C1
100
AcDbEntity
  8
BEMASSUNG
 62
     3
100
AcDbMText
 10
91.70960355310377
 20
95.17312054558592
 30
0.0
 40
3.5
 41
0.0
 46
0.0
 71
     5
 72
     1
  1
\A1;17.5
  7
NORM
 11
0.0000000000000001
 21
1.0
 31
0.0
 73
     1
 44
1.0
1001
ACAD
1000
MTEXTBEGIN
1070
    73
1070
     1
1070
    44
1040
1.0
1070
    74
1070
     0
1000
MTEXTEND
  0
SOLID
  5
C7
330
C1
100
AcDbEntity
  8
BEMASSUNG
 62
     2
100
AcDbTrace
 10
93.87627021977044
 20
91.92312054558588
 30
0.0
 11
95.04293688643713
 21
91.92312054558588
 31
0.0
 12
94.45960355310377
 22
88.4231205455859
 32
0.0
 13
94.45960355310377
 23
88.4231205455859
 33
0.0
  0
SOLID
  5
C8
330
C1
100
AcDbEntity
  8
BEMASSUNG
 62
     2
100
AcDbTrace
 10
93.87627021977044
 20
102.4231205455859
 30
0.0
 11
95.04293688643713
 21
102.4231205455859
 31
0.0
 12
94.45960355310379
 22
105.9231205455859
 32
0.0
 13
94.45960355310379
 23
105.9231205455859
 33
0.0
  0
POINT
  5
C9
330
C1
100
AcDbEntity
  8
DEFPOINTS
 62
     0
100
AcDbPoint
 10
84.06520280791296
 20
88.4231205455859
 30
0.0
  0
POINT
  5
CA
330
C1
100
AcDbEntity
  8
DEFPOINTS
 62
     0
100
AcDbPoint
 10
78.56520280791298
 20
105.9231205455859
 30
0.0
  0
POINT
  5
CB
330
C1
100
AcDbEntity
  8
DEFPOINTS
 62
     0
100
AcDbPoint
 10
94.45960355310379
 20
105.9231205455859
 30
0.0
  0
ENDBLK
  5
CC
330
C1
100
AcDbEntity
  8
0
100
AcDbBlockEnd
  0
BLOCK
  5
CF
330
CE
100
AcDbEntity
  8
0
100
AcDbBlockBegin
  2
*D5
 70
     1
 10
0.0
 20
0.0
 30
0.0
  3
*D5
  1

  0
LINE
  5
D0
330
CE
100
AcDbEntity
  8
BEMASSUNG
 62
     2
370
    -2
100
AcDbLine
 10
79.06520280791298
 20
105.9231205455859
 30
0.0
 11
96.25960355310379
 21
105.9231205455859
 31
0.0
  0
LINE
  5
D1
330
CE
100
AcDbEntity
  8
BEMASSUNG
 62
     2
370
    -2
100
AcDbLine
 10
79.06520280791297
 20
143.9231205455859
 30
0.0
 11
96.25960355310379
 21
143.9231205455859
 31
0.0
  0
LINE
  5
D2
330
CE
100
AcDbEntity
  8
BEMASSUNG
 62
     2
370
    -2
100
AcDbLine
 10
94.45960355310379
 20
109.4231205455859
 30
0.0
 11
94.45960355310379
 21
140.4231205455859
 31
0.0
  0
MTEXT
  5
D3
330
CE
100
AcDbEntity
  8
BEMASSUNG
 62
     3
100
AcDbMText
 10
91.70960355310377
 20
130.9848017506409
 30
0.0
 40
3.5
 41
0.0
 46
0.0
 71
     5
 72
     1
  1
\A1;38
  7
NORM
 11
0.0000000000000001
 21
1.0
 31
0.0
 73
     1
 44
1.0
1001
ACAD
1000
MTEXTBEGIN
1070
    73
1070
     1
1070
    44
1040
1.0
1070
    74
1070
     0
1000
MTEXTEND
  0
SOLID
  5
D4
330
CE
100
AcDbEntity
  8
BEMASSUNG
 62
     2
100
AcDbTrace
 10
93.87627021977044
 20
109.4231205455859
 30
0.0
 11
95.04293688643713
 21
109.4231205455859
 31
0.0
 12
94.45960355310379
 22
105.9231205455859
 32
0.0
 13
94.45960355310379
 23
105.9231205455859
 33
0.0
  0
SOLID
  5
D5
330
CE
100
AcDbEntity
  8
BEMASSUNG
 62
     2
100
AcDbTrace
 10
93.87627021977044
 20
140.4231205455859
 30
0.0
 11
95.04293688643713
 21
140.4231205455859
 31
0.0
 12
94.45960355310379
 22
143.9231205455859
 32
0.0
 13
94.45960355310379
 23
143.9231205455859
 33
0.0
  0
POINT
  5
D6
330
CE
100
AcDbEntity
  8
DEFPOINTS
 62
     0
100
AcDbPoint
 10
78.56520280791298
 20
105.9231205455859
 30
0.0
  0
POINT
  5
D7
330
CE
100
AcDbEntity
  8
DEFPOINTS
 62
     0
100
AcDbPoint
 10
78.56520280791297
 20
143.9231205455859
 30
0.0
  0
POINT
  5
D8
330
CE
100
AcDbEntity
  8
DEFPOINTS
 62
     0
100
AcDbPoint
 10
94.45960355310379
 20
143.9231205455859
 30
0.0
  0
ENDBLK
  5
D9
330
CE
100
AcDbEntity
  8
0
100
AcDbBlockEnd
  0
BLOCK
  5
146
330
145
100
AcDbEntity
  8
0
100
AcDbBlockBegin
  2
*D6
 70
     1
 10
0.0
 20
0.0
 30
0.0
  3
*D6
  1

  0
LINE
  5
147
330
145
100
AcDbEntity
  8
BEMASSUNG
 62
     2
370
    -2
100
AcDbLine
 10
67.56520280791298
 20
106.4231205455859
 30
0.0
 11
67.56520280791298
 21
120.3631833661942
 31
0.0
  0
LINE
  5
148
330
145
100
AcDbEntity
  8
BEMASSUNG
 62
     2
370
    -2
100
AcDbLine
 10
78.56520280791298
 20
106.4231205455859
 30
0.0
 11
78.56520280791298
 21
120.3631833661942
 31
0.0
  0
LINE
  5
149
330
145
100
AcDbEntity
  8
BEMASSUNG
 62
     2
370
    -2
100
AcDbLine
 10
71.06520280791298
 20
118.5631833661942
 30
0.0
 11
75.06520280791298
 21
118.5631833661942
 31
0.0
  0
MTEXT
  5
14A
330
145
100
AcDbEntity
  8
BEMASSUNG
 62
     3
100
AcDbMText
 10
72.71952907672711
 20
122.8775766266352
 30
0.0
 40
3.5
 41
0.0
 46
0.0
 71
     5
 72
     1
  1
\A1;11
  7
NORM
 73
     1
 44
1.0
1001
ACAD
1000
MTEXTBEGIN
1070
    73
1070
     1
1070
    44
1040
1.0
1070
    74
1070
     0
1000
MTEXTEND
  0
SOLID
  5
14B
330
145
100
AcDbEntity
  8
BEMASSUNG
 62
     2
100
AcDbTrace
 10
71.06520280791298
 20
119.1465166995275
 30
0.0
 11
71.06520280791298
 21
117.9798500328609
 31
0.0
 12
67.56520280791298
 22
118.5631833661942
 32
0.0
 13
67.56520280791298
 23
118.5631833661942
 33
0.0
  0
SOLID
  5
14C
330
145
100
AcDbEntity
  8
BEMASSUNG
 62
     2
100
AcDbTrace
 10
75.06520280791298
 20
119.1465166995275
 30
0.0
 11
75.06520280791298
 21
117.9798500328609
 31
0.0
 12
78.56520280791298
 22
118.5631833661942
 32
0.0
 13
78.56520280791298
 23
118.5631833661942
 33
0.0
  0
POINT
  5
14D
330
145
100
AcDbEntity
  8
DEFPOINTS
 62
     0
100
AcDbPoint
 10
67.56520280791298
 20
105.9231205455859
 30
0.0
  0
POINT
  5
14E
330
145
100
AcDbEntity
  8
DEFPOINTS
 62
     0
100
AcDbPoint
 10
78.56520280791298
 20
105.9231205455859
 30
0.0
  0
POINT
  5
14F
330
145
100
AcDbEntity
  8
DEFPOINTS
 62
     0
100
AcDbPoint
 10
78.56520280791298
 20
118.5631833661942
 30
0.0
  0
ENDBLK
  5
150
330
145
100
AcDbEntity
  8
0
100
AcDbBlockEnd
  0
BLOCK
  5
58
330
57
100
AcDbEntity
  8
0
100
AcDbBlockBegin
  2
*D7
 70
     1
 10
0.0
 20
0.0
 30
0.0
  3
*D7
  1

  0
LINE
  5
59
330
57
100
AcDbEntity
  8
BEMASSUNG
 62
     2
370
    -2
100
AcDbLine
 10
62.06520280791298
 20
248.9231205455859
 30
0.0
 11
62.06520280791298
 21
259.1490768955032
 31
0.0
  0
LINE
  5
5A
330
57
100
AcDbEntity
  8
BEMASSUNG
 62
     2
370
    -2
100
AcDbLine
 10
73.06520280791298
 20
243.5231205455859
 30
0.0
 11
73.06520280791298
 21
259.1490768955032
 31
0.0
  0
LINE
  5
5B
330
57
100
AcDbEntity
  8
BEMASSUNG
 62
     2
370
    -2
100
AcDbLine
 10
65.56520280791298
 20
257.3490768955032
 30
0.0
 11
69.56520280791298
 21
257.3490768955032
 31
0.0
  0
MTEXT
  5
5C
330
57
100
AcDbEntity
  8
BEMASSUNG
 62
     3
100
AcDbMText
 10
67.2606634616847
 20
261.382774690807
 30
0.0
 40
3.5
 41
0.0
 46
0.0
 71
     5
 72
     1
  1
\A1;11
  7
NORM
 73
     1
 44
1.0
1001
ACAD
1000
MTEXTBEGIN
1070
    73
1070
     1
1070
    44
1040
1.0
1070
    74
1070
     0
1000
MTEXTEND
  0
SOLID
  5
5D
330
57
100
AcDbEntity
  8
BEMASSUNG
 62
     2
100
AcDbTrace
 10
65.56520280791298
 20
257.9324102288365
 30
0.0
 11
65.56520280791298
 21
256.7657435621699
 31
0.0
 12
62.06520280791298
 22
257.3490768955032
 32
0.0
 13
62.06520280791298
 23
257.3490768955032
 33
0.0
  0
SOLID
  5
5E
330
57
100
AcDbEntity
  8
BEMASSUNG
 62
     2
100
AcDbTrace
 10
69.56520280791298
 20
257.9324102288365
 30
0.0
 11
69.56520280791298
 21
256.7657435621699
 31
0.0
 12
73.06520280791298
 22
257.3490768955032
 32
0.0
 13
73.06520280791298
 23
257.3490768955032
 33
0.0
  0
POINT
  5
5F
330
57
100
AcDbEntity
  8
DEFPOINTS
 62
     0
100
AcDbPoint
 10
62.06520280791298
 20
248.4231205455859
 30
0.0
  0
POINT
  5
60
330
57
100
AcDbEntity
  8
DEFPOINTS
 62
     0
100
AcDbPoint
 10
73.06520280791298
 20
243.0231205455859
 30
0.0
  0
POINT
  5
61
330
57
100
AcDbEntity
  8
DEFPOINTS
 62
     0
100
AcDbPoint
 10
73.06520280791298
 20
257.3490768955032
 30
0.0
  0
ENDBLK
  5
62
330
57
100
AcDbEntity
  8
0
100
AcDbBlockEnd
  0
BLOCK
  5
65
330
64
100
AcDbEntity
  8
0
100
AcDbBlockBegin
  2
*D8
 70
     1
 10
0.0
 20
0.0
 30
0.0
  3
*D8
  1

  0
LINE
  5
66
330
64
100
AcDbEntity
  8
BEMASSUNG
 62
     2
370
    -2
100
AcDbLine
 10
73.06520280791298
 20
243.5231205455859
 30
0.0
 11
73.06520280791298
 21
259.1490768955032
 31
0.0
  0
LINE
  5
67
330
64
100
AcDbEntity
  8
BEMASSUNG
 62
     2
370
    -2
100
AcDbLine
 10
84.06520280791296
 20
248.9231205455859
 30
0.0
 11
84.06520280791296
 21
259.1490768955032
 31
0.0
  0
LINE
  5
68
330
64
100
AcDbEntity
  8
BEMASSUNG
 62
     2
370
    -2
100
AcDbLine
 10
76.56520280791298
 20
257.3490768955032
 30
0.0
 11
80.56520280791295
 21
257.3490768955032
 31
0.0
  0
MTEXT
  5
69
330
64
100
AcDbEntity
  8
BEMASSUNG
 62
     3
100
AcDbMText
 10
78.77107152997414
 20
261.6738662842826
 30
0.0
 40
3.5
 41
0.0
 46
0.0
 71
     5
 72
     1
  1
\A1;11
  7
NORM
 73
     1
 44
1.0
1001
ACAD
1000
MTEXTBEGIN
1070
    73
1070
     1
1070
    44
1040
1.0
1070
    74
1070
     0
1000
MTEXTEND
  0
SOLID
  5
6A
330
64
100
AcDbEntity
  8
BEMASSUNG
 62
     2
100
AcDbTrace
 10
76.56520280791298
 20
257.9324102288365
 30
0.0
 11
76.56520280791298
 21
256.7657435621699
 31
0.0
 12
73.06520280791298
 22
257.3490768955032
 32
0.0
 13
73.06520280791298
 23
257.3490768955032
 33
0.0
  0
SOLID
  5
6B
330
64
100
AcDbEntity
  8
BEMASSUNG
 62
     2
100
AcDbTrace
 10
80.56520280791295
 20
257.9324102288365
 30
0.0
 11
80.56520280791295
 21
256.7657435621699
 31
0.0
 12
84.06520280791296
 22
257.3490768955032
 32
0.0
 13
84.06520280791296
 23
257.3490768955032
 33
0.0
  0
POINT
  5
6C
330
64
100
AcDbEntity
  8
DEFPOINTS
 62
     0
100
AcDbPoint
 10
73.06520280791298
 20
243.0231205455859
 30
0.0
  0
POINT
  5
6D
330
64
100
AcDbEntity
  8
DEFPOINTS
 62
     0
100
AcDbPoint
 10
84.06520280791296
 20
248.4231205455859
 30
0.0
  0
POINT
  5
6E
330
64
100
AcDbEntity
  8
DEFPOINTS
 62
     0
100
AcDbPoint
 10
84.06520280791296
 20
257.3490768955032
 30
0.0
  0
ENDBLK
  5
6F
330
64
100
AcDbEntity
  8
0
100
AcDbBlockEnd
  0
BLOCK
  5
9A
330
99
100
AcDbEntity
  8
0
100
AcDbBlockBegin
  2
*D9
 70
     1
 10
0.0
 20
0.0
 30
0.0
  3
*D9
  1

  0
LINE
  5
9B
330
99
100
AcDbEntity
  8
BEMASSUNG
 62
     2
370
    -2
100
AcDbLine
 10
69.96520280791298
 20
169.4231205455859
 30
0.0
 11
50.63515209769505
 21
169.4231205455859
 31
0.0
  0
LINE
  5
9C
330
99
100
AcDbEntity
  8
BEMASSUNG
 62
     2
370
    -2
100
AcDbLine
 10
69.96520280791298
 20
240.4231205455859
 30
0.0
 11
50.63515209769508
 21
240.4231205455859
 31
0.0
  0
LINE
  5
9D
330
99
100
AcDbEntity
  8
BEMASSUNG
 62
     2
370
    -2
100
AcDbLine
 10
52.43515209769505
 20
172.9231205455859
 30
0.0
 11
52.43515209769507
 21
236.9231205455859
 31
0.0
  0
SOLID
  5
9E
330
99
100
AcDbEntity
  8
BEMASSUNG
 62
     2
100
AcDbTrace
 10
51.85181876436171
 20
172.9231205455859
 30
0.0
 11
53.01848543102838
 21
172.9231205455859
 31
0.0
 12
52.43515209769505
 22
169.4231205455859
 32
0.0
 13
52.43515209769505
 23
169.4231205455859
 33
0.0
  0
SOLID
  5
9F
330
99
100
AcDbEntity
  8
BEMASSUNG
 62
     2
100
AcDbTrace
 10
51.85181876436171
 20
236.9231205455859
 30
0.0
 11
53.01848543102839
 21
236.9231205455859
 31
0.0
 12
52.43515209769507
 22
240.4231205455859
 32
0.0
 13
52.43515209769507
 23
240.4231205455859
 33
0.0
  0
MTEXT
  5
A0
330
99
100
AcDbEntity
  8
BEMASSUNG
 62
     3
100
AcDbMText
 10
49.68515209769504
 20
204.9231205455859
 30
0.0
 40
3.5
 41
0.0
 46
0.0
 71
     5
 72
     1
  1
\A1;71
  7
NORM
 11
0.0000000000000001
 21
1.0
 31
0.0
 73
     1
 44
1.0
1001
ACAD
1000
MTEXTBEGIN
1070
    73
1070
     1
1070
    44
1040
1.0
1070
    74
1070
     0
1000
MTEXTEND
  0
POINT
  5
A1
330
99
100
AcDbEntity
  8
DEFPOINTS
 62
     0
100
AcDbPoint
 10
70.46520280791298
 20
169.4231205455859
 30
0.0
  0
POINT
  5
A2
330
99
100
AcDbEntity
  8
DEFPOINTS
 62
     0
100
AcDbPoint
 10
70.46520280791298
 20
240.4231205455859
 30
0.0
  0
POINT
  5
A3
330
99
100
AcDbEntity
  8
DEFPOINTS
 62
     0
100
AcDbPoint
 10
52.43515209769507
 20
240.4231205455859
 30
0.0
  0
ENDBLK
  5
A4
330
99
100
AcDbEntity
  8
0
100
AcDbBlockEnd
  0
BLOCK
  5
A7
330
A6
100
AcDbEntity
  8
0
100
AcDbBlockBegin
  2
*D10
 70
     1
 10
0.0
 20
0.0
 30
0.0
  3
*D10
  1

  0
LINE
  5
A8
330
A6
100
AcDbEntity
  8
BEMASSUNG
 62
     2
370
    -2
100
AcDbLine
 10
69.96520280791298
 20
240.4231205455859
 30
0.0
 11
50.63515209769508
 21
240.4231205455859
 31
0.0
  0
LINE
  5
A9
330
A6
100
AcDbEntity
  8
BEMASSUNG
 62
     2
370
    -2
100
AcDbLine
 10
61.56520280791298
 20
248.4231205455859
 30
0.0
 11
50.63515209769508
 21
248.4231205455859
 31
0.0
  0
LINE
  5
AA
330
A6
100
AcDbEntity
  8
BEMASSUNG
 62
     2
370
    -2
100
AcDbLine
 10
52.43515209769507
 20
236.9231205455859
 30
0.0
 11
52.43515209769507
 21
233.4231205455859
 31
0.0
  0
LINE
  5
AB
330
A6
100
AcDbEntity
  8
BEMASSUNG
 62
     2
370
    -2
100
AcDbLine
 10
52.43515209769507
 20
251.9231205455859
 30
0.0
 11
52.43515209769507
 21
255.4231205455859
 31
0.0
  0
SOLID
  5
AC
330
A6
100
AcDbEntity
  8
BEMASSUNG
 62
     2
100
AcDbTrace
 10
51.85181876436171
 20
236.9231205455859
 30
0.0
 11
53.01848543102839
 21
236.9231205455859
 31
0.0
 12
52.43515209769507
 22
240.4231205455859
 32
0.0
 13
52.43515209769507
 23
240.4231205455859
 33
0.0
  0
SOLID
  5
AD
330
A6
100
AcDbEntity
  8
BEMASSUNG
 62
     2
100
AcDbTrace
 10
51.85181876436175
 20
251.9231205455859
 30
0.0
 11
53.01848543102839
 21
251.9231205455859
 31
0.0
 12
52.43515209769507
 22
248.4231205455859
 32
0.0
 13
52.43515209769507
 23
248.4231205455859
 33
0.0
  0
MTEXT
  5
AE
330
A6
100
AcDbEntity
  8
BEMASSUNG
 62
     3
100
AcDbMText
 10
49.68515209769504
 20
244.4231205455859
 30
0.0
 40
3.5
 41
0.0
 46
0.0
 71
     5
 72
     1
  1
\A1;8
  7
NORM
 11
0.0000000000000001
 21
1.0
 31
0.0
 73
     1
 44
1.0
1001
ACAD
1000
MTEXTBEGIN
1070
    73
1070
     1
1070
    44
1040
1.0
1070
    74
1070
     0
1000
MTEXTEND
  0
POINT
  5
AF
330
A6
100
AcDbEntity
  8
DEFPOINTS
 62
     0
100
AcDbPoint
 10
70.46520280791298
 20
240.4231205455859
 30
0.0
  0
POINT
  5
B0
330
A6
100
AcDbEntity
  8
DEFPOINTS
 62
     0
100
AcDbPoint
 10
62.06520280791298
 20
248.4231205455859
 30
0.0
  0
POINT
  5
B1
330
A6
100
AcDbEntity
  8
DEFPOINTS
 62
     0
100
AcDbPoint
 10
52.43515209769507
 20
248.4231205455859
 30
0.0
  0
ENDBLK
  5
B2
330
A6
100
AcDbEntity
  8
0
100
AcDbBlockEnd
  0
BLOCK
  5
B5
330
B4
100
AcDbEntity
  8
0
100
AcDbBlockBegin
  2
*D11
 70
     1
 10
0.0
 20
0.0
 30
0.0
  3
*D11
  1

  0
LINE
  5
B6
330
B4
100
AcDbEntity
  8
BEMASSUNG
 62
     2
370
    -2
100
AcDbLine
 10
61.56520280791298
 20
88.4231205455859
 30
0.0
 11
41.13152700788786
 21
88.4231205455859
 31
0.0
  0
LINE
  5
B7
330
B4
100
AcDbEntity
  8
BEMASSUNG
 62
     2
370
    -2
100
AcDbLine
 10
61.56520280791298
 20
248.4231205455859
 30
0.0
 11
41.1315270078879
 21
248.4231205455859
 31
0.0
  0
LINE
  5
B8
330
B4
100
AcDbEntity
  8
BEMASSUNG
 62
     2
370
    -2
100
AcDbLine
 10
42.93152700788787
 20
91.92312054558588
 30
0.0
 11
42.9315270078879
 21
244.9231205455859
 31
0.0
  0
MTEXT
  5
B9
330
B4
100
AcDbEntity
  8
BEMASSUNG
 62
     3
100
AcDbMText
 10
40.18152700788784
 20
169.4231205455859
 30
0.0
 40
3.5
 41
0.0
 46
0.0
 71
     5
 72
     1
  1
\A1;160
  7
NORM
 11
0.0000000000000001
 21
1.0
 31
0.0
 73
     1
 44
1.0
1001
ACAD
1000
MTEXTBEGIN
1070
    73
1070
     1
1070
    44
1040
1.0
1070
    74
1070
     0
1000
MTEXTEND
  0
SOLID
  5
BA
330
B4
100
AcDbEntity
  8
BEMASSUNG
 62
     2
100
AcDbTrace
 10
42.34819367455453
 20
91.92312054558588
 30
0.0
 11
43.5148603412212
 21
91.92312054558588
 31
0.0
 12
42.93152700788787
 22
88.4231205455859
 32
0.0
 13
42.93152700788787
 23
88.4231205455859
 33
0.0
  0
SOLID
  5
BB
330
B4
100
AcDbEntity
  8
BEMASSUNG
 62
     2
100
AcDbTrace
 10
42.34819367455457
 20
244.9231205455859
 30
0.0
 11
43.51486034122124
 21
244.9231205455859
 31
0.0
 12
42.9315270078879
 22
248.4231205455859
 32
0.0
 13
42.9315270078879
 23
248.4231205455859
 33
0.0
  0
POINT
  5
BC
330
B4
100
AcDbEntity
  8
DEFPOINTS
 62
     0
100
AcDbPoint
 10
62.06520280791298
 20
88.4231205455859
 30
0.0
  0
POINT
  5
BD
330
B4
100
AcDbEntity
  8
DEFPOINTS
 62
     0
100
AcDbPoint
 10
62.06520280791298
 20
248.4231205455859
 30
0.0
  0
POINT
  5
BE
330
B4
100
AcDbEntity
  8
DEFPOINTS
 62
     0
100
AcDbPoint
 10
42.9315270078879
 20
248.4231205455859
 30
0.0
  0
ENDBLK
  5
BF
330
B4
100
AcDbEntity
  8
0
100
AcDbBlockEnd
  0
BLOCK
  5
F6
330
F5
100
AcDbEntity
  8
0
100
AcDbBlockBegin
  2
*D12
 70
     1
 10
0.0
 20
0.0
 30
0.0
  3
*D12
  1

  0
LINE
  5
F7
330
F5
100
AcDbEntity
  8
BEMASSUNG
 62
     2
370
    -2
100
AcDbLine
 10
80.06520280791297
 20
230.9231205455859
 30
0.0
 11
96.25960355310379
 21
230.9231205455859
 31
0.0
  0
LINE
  5
F8
330
F5
100
AcDbEntity
  8
BEMASSUNG
 62
     2
370
    -2
100
AcDbLine
 10
84.56520280791297
 20
248.4231205455859
 30
0.0
 11
96.25960355310379
 21
248.4231205455859
 31
0.0
  0
LINE
  5
F9
330
F5
100
AcDbEntity
  8
BEMASSUNG
 62
     2
370
    -2
100
AcDbLine
 10
94.45960355310379
 20
234.4231205455859
 30
0.0
 11
94.45960355310379
 21
244.9231205455859
 31
0.0
  0
MTEXT
  5
FA
330
F5
100
AcDbEntity
  8
BEMASSUNG
 62
     3
100
AcDbMText
 10
91.70960355310377
 20
241.6731205455859
 30
0.0
 40
3.5
 41
0.0
 46
0.0
 71
     5
 72
     1
  1
\A1;17.5
  7
NORM
 11
0.0000000000000001
 21
1.0
 31
0.0
 73
     1
 44
1.0
1001
ACAD
1000
MTEXTBEGIN
1070
    73
1070
     1
1070
    44
1040
1.0
1070
    74
1070
     0
1000
MTEXTEND
  0
SOLID
  5
FB
330
F5
100
AcDbEntity
  8
BEMASSUNG
 62
     2
100
AcDbTrace
 10
93.87627021977044
 20
234.4231205455859
 30
0.0
 11
95.04293688643713
 21
234.4231205455859
 31
0.0
 12
94.45960355310379
 22
230.9231205455859
 32
0.0
 13
94.45960355310379
 23
230.9231205455859
 33
0.0
  0
SOLID
  5
FC
330
F5
100
AcDbEntity
  8
BEMASSUNG
 62
     2
100
AcDbTrace
 10
93.87627021977044
 20
244.9231205455859
 30
0.0
 11
95.04293688643713
 21
244.9231205455859
 31
0.0
 12
94.45960355310379
 22
248.4231205455859
 32
0.0
 13
94.45960355310379
 23
248.4231205455859
 33
0.0
  0
POINT
  5
FD
330
F5
100
AcDbEntity
  8
DEFPOINTS
 62
     0
100
AcDbPoint
 10
79.56520280791298
 20
230.9231205455859
 30
0.0
  0
POINT
  5
FE
330
F5
100
AcDbEntity
  8
DEFPOINTS
 62
     0
100
AcDbPoint
 10
84.06520280791296
 20
248.4231205455859
 30
0.0
  0
POINT
  5
FF
330
F5
100
AcDbEntity
  8
DEFPOINTS
 62
     0
100
AcDbPoint
 10
94.45960355310379
 20
248.4231205455859
 30
0.0
  0
ENDBLK
  5
100
330
F5
100
AcDbEntity
  8
0
100
AcDbBlockEnd
  0
BLOCK
  5
119
330
118
100
AcDbEntity
  8
0
100
AcDbBlockBegin
  2
*D13
 70
     1
 10
0.0
 20
0.0
 30
0.0
  3
*D13
  1

  0
LINE
  5
11A
330
118
100
AcDbEntity
  8
BEMASSUNG
 62
     2
370
    -2
100
AcDbLine
 10
145.3021075089678
 20
248.9231205455859
 30
0.0
 11
145.3021075089678
 21
259.1490768955032
 31
0.0
  0
LINE
  5
11B
330
118
100
AcDbEntity
  8
BEMASSUNG
 62
     2
370
    -2
100
AcDbLine
 10
148.3021075089678
 20
248.9231205455859
 30
0.0
 11
148.3021075089678
 21
259.1490768955032
 31
0.0
  0
LINE
  5
11C
330
118
100
AcDbEntity
  8
BEMASSUNG
 62
     2
370
    -2
100
AcDbLine
 10
141.8021075089678
 20
257.3490768955032
 30
0.0
 11
138.3021075089678
 21
257.3490768955032
 31
0.0
  0
LINE
  5
11D
330
118
100
AcDbEntity
  8
BEMASSUNG
 62
     2
370
    -2
100
AcDbLine
 10
151.8021075089678
 20
257.3490768955032
 30
0.0
 11
155.3021075089678
 21
257.3490768955032
 31
0.0
  0
SOLID
  5
11E
330
118
100
AcDbEntity
  8
BEMASSUNG
 62
     2
100
AcDbTrace
 10
141.8021075089678
 20
257.9324102288365
 30
0.0
 11
141.8021075089678
 21
256.7657435621699
 31
0.0
 12
145.3021075089678
 22
257.3490768955032
 32
0.0
 13
145.3021075089678
 23
257.3490768955032
 33
0.0
  0
SOLID
  5
11F
330
118
100
AcDbEntity
  8
BEMASSUNG
 62
     2
100
AcDbTrace
 10
151.8021075089678
 20
257.9324102288365
 30
0.0
 11
151.8021075089678
 21
256.7657435621699
 31
0.0
 12
148.3021075089678
 22
257.3490768955032
 32
0.0
 13
148.3021075089678
 23
257.3490768955032
 33
0.0
  0
MTEXT
  5
120
330
118
100
AcDbEntity
  8
BEMASSUNG
 62
     3
100
AcDbMText
 10
146.8021075089678
 20
260.0990768955032
 30
0.0
 40
3.5
 41
0.0
 46
0.0
 71
     5
 72
     1
  1
\A1;3
  7
NORM
 73
     1
 44
1.0
1001
ACAD
1000
MTEXTBEGIN
1070
    73
1070
     1
1070
    44
1040
1.0
1070
    74
1070
     0
1000
MTEXTEND
  0
POINT
  5
121
330
118
100
AcDbEntity
  8
DEFPOINTS
 62
     0
100
AcDbPoint
 10
145.3021075089678
 20
248.4231205455859
 30
0.0
  0
POINT
  5
122
330
118
100
AcDbEntity
  8
DEFPOINTS
 62
     0
100
AcDbPoint
 10
148.3021075089678
 20
248.4231205455859
 30
0.0
  0
POINT
  5
123
330
118
100
AcDbEntity
  8
DEFPOINTS
 62
     0
100
AcDbPoint
 10
148.3021075089678
 20
257.3490768955032
 30
0.0
  0
ENDBLK
  5
124
330
118
100
AcDbEntity
  8
0
100
AcDbBlockEnd
  0
BLOCK
  5
72
330
71
100
AcDbEntity
  8
0
100
AcDbBlockBegin
  2
*D14
 70
     1
 10
0.0
 20
0.0
 30
0.0
  3
*D14
  1

  0
LINE
  5
73
330
71
100
AcDbEntity
  8
BEMASSUNG
 62
     2
370
    -2
100
AcDbLine
 10
62.06520280791298
 20
87.92312054558591
 30
0.0
 11
62.06520280791298
 21
76.64049112744094
 31
0.0
  0
LINE
  5
74
330
71
100
AcDbEntity
  8
BEMASSUNG
 62
     2
370
    -2
100
AcDbLine
 10
84.06520280791296
 20
87.92312054558591
 30
0.0
 11
84.06520280791296
 21
76.64049112744094
 31
0.0
  0
LINE
  5
75
330
71
100
AcDbEntity
  8
BEMASSUNG
 62
     2
370
    -2
100
AcDbLine
 10
65.56520280791298
 20
78.44049112744094
 30
0.0
 11
80.56520280791295
 21
78.44049112744094
 31
0.0
  0
SOLID
  5
76
330
71
100
AcDbEntity
  8
BEMASSUNG
 62
     2
100
AcDbTrace
 10
65.56520280791298
 20
79.02382446077426
 30
0.0
 11
65.56520280791298
 21
77.85715779410761
 31
0.0
 12
62.06520280791298
 22
78.44049112744094
 32
0.0
 13
62.06520280791298
 23
78.44049112744094
 33
0.0
  0
SOLID
  5
77
330
71
100
AcDbEntity
  8
BEMASSUNG
 62
     2
100
AcDbTrace
 10
80.56520280791295
 20
79.02382446077426
 30
0.0
 11
80.56520280791295
 21
77.85715779410761
 31
0.0
 12
84.06520280791296
 22
78.44049112744094
 32
0.0
 13
84.06520280791296
 23
78.44049112744094
 33
0.0
  0
MTEXT
  5
78
330
71
100
AcDbEntity
  8
BEMASSUNG
 62
     3
100
AcDbMText
 10
73.06520280791298
 20
81.19049112744093
 30
0.0
 40
3.5
 41
0.0
 46
0.0
 71
     5
 72
     1
  1
\A1;22
  7
NORM
 73
     1
 44
1.0
1001
ACAD
1000
MTEXTBEGIN
1070
    73
1070
     1
1070
    44
1040
1.0
1070
    74
1070
     0
1000
MTEXTEND
  0
POINT
  5
79
330
71
100
AcDbEntity
  8
DEFPOINTS
 62
     0
100
AcDbPoint
 10
62.06520280791298
 20
88.4231205455859
 30
0.0
  0
POINT
  5
7A
330
71
100
AcDbEntity
  8
DEFPOINTS
 62
     0
100
AcDbPoint
 10
84.06520280791296
 20
88.4231205455859
 30
0.0
  0
POINT
  5
7B
330
71
100
AcDbEntity
  8
DEFPOINTS
 62
     0
100
AcDbPoint
 10
84.06520280791296
 20
78.44049112744094
 30
0.0
  0
ENDBLK
  5
7C
330
71
100
AcDbEntity
  8
0
100
AcDbBlockEnd
  0
BLOCK
  5
7F
330
7E
100
AcDbEntity
  8
0
100
AcDbBlockBegin
  2
*D15
 70
     1
 10
0.0
 20
0.0
 30
0.0
  3
*D15
  1

  0
LINE
  5
80
330
7E
100
AcDbEntity
  8
BEMASSUNG
 62
     2
370
    -2
100
AcDbLine
 10
61.56520280791298
 20
88.4231205455859
 30
0.0
 11
50.63515209769508
 21
88.4231205455859
 31
0.0
  0
LINE
  5
81
330
7E
100
AcDbEntity
  8
BEMASSUNG
 62
     2
370
    -2
100
AcDbLine
 10
69.96520280791298
 20
96.4231205455859
 30
0.0
 11
50.63515209769508
 21
96.4231205455859
 31
0.0
  0
LINE
  5
82
330
7E
100
AcDbEntity
  8
BEMASSUNG
 62
     2
370
    -2
100
AcDbLine
 10
52.43515209769507
 20
84.9231205455859
 30
0.0
 11
52.43515209769507
 21
81.4231205455859
 31
0.0
  0
LINE
  5
83
330
7E
100
AcDbEntity
  8
BEMASSUNG
 62
     2
370
    -2
100
AcDbLine
 10
52.43515209769507
 20
99.9231205455859
 30
0.0
 11
52.43515209769507
 21
103.4231205455859
 31
0.0
  0
SOLID
  5
84
330
7E
100
AcDbEntity
  8
BEMASSUNG
 62
     2
100
AcDbTrace
 10
51.85181876436175
 20
84.9231205455859
 30
0.0
 11
53.01848543102839
 21
84.9231205455859
 31
0.0
 12
52.43515209769507
 22
88.4231205455859
 32
0.0
 13
52.43515209769507
 23
88.4231205455859
 33
0.0
  0
SOLID
  5
85
330
7E
100
AcDbEntity
  8
BEMASSUNG
 62
     2
100
AcDbTrace
 10
51.85181876436175
 20
99.9231205455859
 30
0.0
 11
53.01848543102839
 21
99.9231205455859
 31
0.0
 12
52.43515209769507
 22
96.4231205455859
 32
0.0
 13
52.43515209769507
 23
96.4231205455859
 33
0.0
  0
MTEXT
  5
86
330
7E
100
AcDbEntity
  8
BEMASSUNG
 62
     3
100
AcDbMText
 10
49.68515209769506
 20
92.42312054558592
 30
0.0
 40
3.5
 41
0.0
 46
0.0
 71
     5
 72
     1
  1
\A1;8
  7
NORM
 11
0.0000000000000001
 21
1.0
 31
0.0
 73
     1
 44
1.0
1001
ACAD
1000
MTEXTBEGIN
1070
    73
1070
     1
1070
    44
1040
1.0
1070
    74
1070
     0
1000
MTEXTEND
  0
POINT
  5
87
330
7E
100
AcDbEntity
  8
DEFPOINTS
 62
     0
100
AcDbPoint
 10
62.06520280791298
 20
88.4231205455859
 30
0.0
  0
POINT
  5
88
330
7E
100
AcDbEntity
  8
DEFPOINTS
 62
     0
100
AcDbPoint
 10
70.46520280791298
 20
96.4231205455859
 30
0.0
  0
POINT
  5
89
330
7E
100
AcDbEntity
  8
DEFPOINTS
 62
     0
100
AcDbPoint
 10
52.43515209769507
 20
96.4231205455859
 30
0.0
  0
ENDBLK
  5
8A
330
7E
100
AcDbEntity
  8
0
100
AcDbBlockEnd
  0
BLOCK
  5
8D
330
8C
100
AcDbEntity
  8
0
100
AcDbBlockBegin
  2
*D16
 70
     1
 10
0.0
 20
0.0
 30
0.0
  3
*D16
  1

  0
LINE
  5
8E
330
8C
100
AcDbEntity
  8
BEMASSUNG
 62
     2
370
    -2
100
AcDbLine
 10
69.96520280791298
 20
96.4231205455859
 30
0.0
 11
50.63515209769506
 21
96.4231205455859
 31
0.0
  0
LINE
  5
8F
330
8C
100
AcDbEntity
  8
BEMASSUNG
 62
     2
370
    -2
100
AcDbLine
 10
69.96520280791298
 20
169.4231205455859
 30
0.0
 11
50.63515209769508
 21
169.4231205455859
 31
0.0
  0
LINE
  5
90
330
8C
100
AcDbEntity
  8
BEMASSUNG
 62
     2
370
    -2
100
AcDbLine
 10
52.43515209769507
 20
99.9231205455859
 30
0.0
 11
52.43515209769507
 21
165.9231205455859
 31
0.0
  0
SOLID
  5
91
330
8C
100
AcDbEntity
  8
BEMASSUNG
 62
     2
100
AcDbTrace
 10
51.85181876436171
 20
99.9231205455859
 30
0.0
 11
53.01848543102839
 21
99.9231205455859
 31
0.0
 12
52.43515209769507
 22
96.4231205455859
 32
0.0
 13
52.43515209769507
 23
96.4231205455859
 33
0.0
  0
SOLID
  5
92
330
8C
100
AcDbEntity
  8
BEMASSUNG
 62
     2
100
AcDbTrace
 10
51.85181876436175
 20
165.9231205455859
 30
0.0
 11
53.01848543102839
 21
165.9231205455859
 31
0.0
 12
52.43515209769507
 22
169.4231205455859
 32
0.0
 13
52.43515209769507
 23
169.4231205455859
 33
0.0
  0
MTEXT
  5
93
330
8C
100
AcDbEntity
  8
BEMASSUNG
 62
     3
100
AcDbMText
 10
49.68515209769504
 20
132.9231205455859
 30
0.0
 40
3.5
 41
0.0
 46
0.0
 71
     5
 72
     1
  1
\A1;73
  7
NORM
 11
0.0000000000000001
 21
1.0
 31
0.0
 73
     1
 44
1.0
1001
ACAD
1000
MTEXTBEGIN
1070
    73
1070
     1
1070
    44
1040
1.0
1070
    74
1070
     0
1000
MTEXTEND
  0
POINT
  5
94
330
8C
100
AcDbEntity
  8
DEFPOINTS
 62
     0
100
AcDbPoint
 10
70.46520280791298
 20
96.4231205455859
 30
0.0
  0
POINT
  5
95
330
8C
100
AcDbEntity
  8
DEFPOINTS
 62
     0
100
AcDbPoint
 10
70.46520280791298
 20
169.4231205455859
 30
0.0
  0
POINT
  5
96
330
8C
100
AcDbEntity
  8
DEFPOINTS
 62
     0
100
AcDbPoint
 10
52.43515209769507
 20
169.4231205455859
 30
0.0
  0
ENDBLK
  5
97
330
8C
100
AcDbEntity
  8
0
100
AcDbBlockEnd
  0
BLOCK
  5
107
330
106
100
AcDbEntity
  8
0
100
AcDbBlockBegin
  2
*D17
 70
     1
 10
0.0
 20
0.0
 30
0.0
  3
*D17
  1

  0
LINE
  5
108
330
106
100
AcDbEntity
  8
BEMASSUNG
 62
     2
370
    -2
100
AcDbLine
 10
141.8021075089678
 20
93.82312054558587
 30
0.0
 11
130.2803552789002
 21
93.82312054558587
 31
0.0
  0
LINE
  5
109
330
106
100
AcDbEntity
  8
BEMASSUNG
 62
     2
370
    -2
100
AcDbLine
 10
141.8021075089678
 20
99.02312054558585
 30
0.0
 11
130.2803552789002
 21
99.02312054558585
 31
0.0
  0
LINE
  5
10A
330
106
100
AcDbEntity
  8
BEMASSUNG
 62
     2
370
    -2
100
AcDbLine
 10
132.0803552789002
 20
90.32312054558587
 30
0.0
 11
132.0803552789002
 21
86.8231205455859
 31
0.0
  0
LINE
  5
10B
330
106
100
AcDbEntity
  8
BEMASSUNG
 62
     2
370
    -2
100
AcDbLine
 10
132.0803552789002
 20
102.5231205455858
 30
0.0
 11
132.0803552789002
 21
106.0231205455858
 31
0.0
  0
SOLID
  5
10C
330
106
100
AcDbEntity
  8
BEMASSUNG
 62
     2
100
AcDbTrace
 10
131.4970219455668
 20
90.32312054558587
 30
0.0
 11
132.6636886122335
 21
90.32312054558587
 31
0.0
 12
132.0803552789002
 22
93.82312054558587
 32
0.0
 13
132.0803552789002
 23
93.82312054558587
 33
0.0
  0
SOLID
  5
10D
330
106
100
AcDbEntity
  8
BEMASSUNG
 62
     2
100
AcDbTrace
 10
131.4970219455668
 20
102.5231205455858
 30
0.0
 11
132.6636886122335
 21
102.5231205455858
 31
0.0
 12
132.0803552789002
 22
99.02312054558585
 32
0.0
 13
132.0803552789002
 23
99.02312054558585
 33
0.0
  0
MTEXT
  5
10E
330
106
100
AcDbEntity
  8
BEMASSUNG
 62
     3
100
AcDbMText
 10
129.3303552789001
 20
96.42312054558587
 30
0.0
 40
3.5
 41
0.0
 46
0.0
 71
     5
 72
     1
  1
\A1;%%C5.2
  7
NORM
 11
0.0000000000000001
 21
1.0
 31
0.0
 73
     1
 44
1.0
1001
ACAD
1000
MTEXTBEGIN
1070
    73
1070
     1
1070
    44
1040
1.0
1070
    74
1070
     0
1000
MTEXTEND
  0
POINT
  5
10F
330
106
100
AcDbEntity
  8
DEFPOINTS
 62
     0
100
AcDbPoint
 10
142.3021075089678
 20
93.82312054558587
 30
0.0
  0
POINT
  5
110
330
106
100
AcDbEntity
  8
DEFPOINTS
 62
     0
100
AcDbPoint
 10
142.3021075089678
 20
99.02312054558585
 30
0.0
  0
POINT
  5
111
330
106
100
AcDbEntity
  8
DEFPOINTS
 62
     0
100
AcDbPoint
 10
132.0803552789002
 20
99.02312054558585
 30
0.0
  0
ENDBLK
  5
112
330
106
100
AcDbEntity
  8
0
100
AcDbBlockEnd
  0
BLOCK
  5
3F
330
3E
100
AcDbEntity
  8
0
100
AcDbBlockBegin
  2
*D18
 70
     1
 10
0.0
 20
0.0
 30
0.0
  3
*D18
  1

  0
LINE
  5
40
330
3E
100
AcDbEntity
  8
BEMASSUNG
 62
     2
370
    -2
100
AcDbLine
 10
78.56520280791298
 20
118.9305010601881
 30
0.0
 11
78.56520280791298
 21
120.3773955800909
 31
0.0
  0
LINE
  5
41
330
3E
100
AcDbEntity
  8
BEMASSUNG
 62
     2
370
    -2
100
AcDbLine
 10
84.06520280791298
 20
118.9305010601881
 30
0.0
 11
84.06520280791298
 21
120.3773955800909
 31
0.0
  0
LINE
  5
42
330
3E
100
AcDbEntity
  8
BEMASSUNG
 62
     2
370
    -2
100
AcDbLine
 10
75.06520280791298
 20
118.5773955800909
 30
0.0
 11
71.56520280791298
 21
118.5773955800909
 31
0.0
  0
LINE
  5
43
330
3E
100
AcDbEntity
  8
BEMASSUNG
 62
     2
370
    -2
100
AcDbLine
 10
87.56520280791296
 20
118.5773955800909
 30
0.0
 11
91.06520280791299
 21
118.5773955800909
 31
0.0
  0
MTEXT
  5
44
330
3E
100
AcDbEntity
  8
BEMASSUNG
 62
     3
100
AcDbMText
 10
88.48636518071998
 20
122.7028244258624
 30
0.0
 40
3.5
 41
0.0
 46
0.0
 71
     5
 72
     1
  1
\A1;5.5
  7
NORM
 73
     1
 44
1.0
1001
ACAD
1000
MTEXTBEGIN
1070
    73
1070
     1
1070
    44
1040
1.0
1070
    74
1070
     0
1000
MTEXTEND
  0
SOLID
  5
45
330
3E
100
AcDbEntity
  8
BEMASSUNG
 62
     2
100
AcDbTrace
 10
75.06520280791298
 20
119.1607289134243
 30
0.0
 11
75.06520280791298
 21
117.9940622467576
 31
0.0
 12
78.56520280791298
 22
118.5773955800909
 32
0.0
 13
78.56520280791298
 23
118.5773955800909
 33
0.0
  0
SOLID
  5
46
330
3E
100
AcDbEntity
  8
BEMASSUNG
 62
     2
100
AcDbTrace
 10
87.56520280791296
 20
119.1607289134243
 30
0.0
 11
87.56520280791296
 21
117.9940622467576
 31
0.0
 12
84.06520280791298
 22
118.5773955800909
 32
0.0
 13
84.06520280791298
 23
118.5773955800909
 33
0.0
  0
POINT
  5
47
330
3E
100
AcDbEntity
  8
DEFPOINTS
 62
     0
100
AcDbPoint
 10
78.56520280791298
 20
118.4305010601881
 30
0.0
  0
POINT
  5
48
330
3E
100
AcDbEntity
  8
DEFPOINTS
 62
     0
100
AcDbPoint
 10
84.06520280791298
 20
118.4305010601881
 30
0.0
  0
POINT
  5
49
330
3E
100
AcDbEntity
  8
DEFPOINTS
 62
     0
100
AcDbPoint
 10
84.06520280791298
 20
118.5773955800909
 30
0.0
  0
ENDBLK
  5
4A
330
3E
100
AcDbEntity
  8
0
100
AcDbBlockEnd
  0
BLOCK
  5
30
330
2F
100
AcDbEntity
  8
0
100
AcDbBlockBegin
  2
*D19
 70
     1
 10
0.0
 20
0.0
 30
0.0
  3
*D19
  1

  0
LINE
  5
31
330
2F
100
AcDbEntity
  8
BEMASSUNG
 62
     2
370
    -2
100
AcDbLine
 10
79.56520280791298
 20
205.8703495101765
 30
0.0
 11
79.56520280791298
 21
207.250258654611
 31
0.0
  0
LINE
  5
32
330
2F
100
AcDbEntity
  8
BEMASSUNG
 62
     2
370
    -2
100
AcDbLine
 10
84.06520280791298
 20
205.8703495101765
 30
0.0
 11
84.06520280791298
 21
207.250258654611
 31
0.0
  0
LINE
  5
33
330
2F
100
AcDbEntity
  8
BEMASSUNG
 62
     2
370
    -2
100
AcDbLine
 10
76.06520280791298
 20
205.4502586546111
 30
0.0
 11
72.56520280791298
 21
205.4502586546111
 31
0.0
  0
LINE
  5
34
330
2F
100
AcDbEntity
  8
BEMASSUNG
 62
     2
370
    -2
100
AcDbLine
 10
87.56520280791296
 20
205.4502586546111
 30
0.0
 11
91.06520280791299
 21
205.4502586546111
 31
0.0
  0
MTEXT
  5
35
330
2F
100
AcDbEntity
  8
BEMASSUNG
 62
     3
100
AcDbMText
 10
87.97030728534128
 20
209.5256290981872
 30
0.0
 40
3.5
 41
0.0
 46
0.0
 71
     5
 72
     1
  1
\A1;4.5
  7
NORM
 73
     1
 44
1.0
1001
ACAD
1000
MTEXTBEGIN
1070
    73
1070
     1
1070
    44
1040
1.0
1070
    74
1070
     0
1000
MTEXTEND
  0
SOLID
  5
36
330
2F
100
AcDbEntity
  8
BEMASSUNG
 62
     2
100
AcDbTrace
 10
76.06520280791298
 20
206.0335919879444
 30
0.0
 11
76.06520280791298
 21
204.8669253212777
 31
0.0
 12
79.56520280791298
 22
205.4502586546111
 32
0.0
 13
79.56520280791298
 23
205.4502586546111
 33
0.0
  0
SOLID
  5
37
330
2F
100
AcDbEntity
  8
BEMASSUNG
 62
     2
100
AcDbTrace
 10
87.56520280791296
 20
206.0335919879444
 30
0.0
 11
87.56520280791296
 21
204.8669253212777
 31
0.0
 12
84.06520280791298
 22
205.4502586546111
 32
0.0
 13
84.06520280791298
 23
205.4502586546111
 33
0.0
  0
POINT
  5
38
330
2F
100
AcDbEntity
  8
DEFPOINTS
 62
     0
100
AcDbPoint
 10
79.56520280791298
 20
205.3703495101765
 30
0.0
  0
POINT
  5
3A
330
2F
100
AcDbEntity
  8
DEFPOINTS
 62
     0
100
AcDbPoint
 10
84.06520280791298
 20
205.3703495101765
 30
0.0
  0
POINT
  5
3B
330
2F
100
AcDbEntity
  8
DEFPOINTS
 62
     0
100
AcDbPoint
 10
84.06520280791298
 20
205.4502586546111
 30
0.0
  0
ENDBLK
  5
3C
330
2F
100
AcDbEntity
  8
0
100
AcDbBlockEnd
  0
BLOCK
  5
27B
330
271
100
AcDbEntity
  8
0
100
AcDbBlockBegin
  2
*D20
 70
     1
 10
0.0
 20
0.0
 30
0.0
  3
*D20
  1

  0
LINE
  5
4D9
330
271
100
AcDbEntity
  8
BEMASSUNG
 62
     2
440
 16777216
370
    -2
100
AcDbLine
 10
55.32554585352176
 20
87.92312054558591
 30
0.0
 11
55.32554585352176
 21
76.75165000177965
 31
0.0
  0
LINE
  5
4DA
330
271
100
AcDbEntity
  8
BEMASSUNG
 62
     2
440
 16777216
370
    -2
100
AcDbLine
 10
67.32554585352179
 20
87.92312054558591
 30
0.0
 11
67.32554585352179
 21
76.75165000177965
 31
0.0
  0
LINE
  5
4DB
330
271
100
AcDbEntity
  8
BEMASSUNG
 62
     2
440
 16777216
370
    -2
100
AcDbLine
 10
58.82554585352176
 20
78.55165000177965
 30
0.0
 11
63.82554585352179
 21
78.55165000177965
 31
0.0
  0
SOLID
  5
4DC
330
271
100
AcDbEntity
  8
BEMASSUNG
 62
     2
440
 16777216
100
AcDbTrace
 10
58.82554585352176
 20
79.13498333511298
 30
0.0
 11
58.82554585352176
 21
77.96831666844631
 31
0.0
 12
55.32554585352176
 22
78.55165000177965
 32
0.0
 13
55.32554585352176
 23
78.55165000177965
 33
0.0
  0
SOLID
  5
4DD
330
271
100
AcDbEntity
  8
BEMASSUNG
 62
     2
440
 16777216
100
AcDbTrace
 10
63.82554585352179
 20
79.13498333511298
 30
0.0
 11
63.82554585352179
 21
77.96831666844631
 31
0.0
 12
67.32554585352179
 22
78.55165000177965
 32
0.0
 13
67.32554585352179
 23
78.55165000177965
 33
0.0
  0
MTEXT
  5
4DE
330
271
100
AcDbEntity
  8
BEMASSUNG
 62
     3
440
 16777216
100
AcDbMText
 10
61.32554585352179
 20
81.30165000177965
 30
0.0
 40
3.5
 41
0.0
 46
0.0
 71
     5
 72
     1
  1
\A1;12
  7
NORM
 73
     1
 44
1.0
1001
ACAD
1000
MTEXTBEGIN
1070
    73
1070
     1
1070
    44
1040
1.0
1070
    74
1070
     0
1000
MTEXTEND
  0
POINT
  5
4DF
330
271
100
AcDbEntity
  8
DEFPOINTS
 62
     0
440
 16777216
100
AcDbPoint
 10
55.32554585352176
 20
88.4231205455859
 30
0.0
  0
POINT
  5
4E0
330
271
100
AcDbEntity
  8
DEFPOINTS
 62
     0
440
 16777216
100
AcDbPoint
 10
67.32554585352179
 20
88.4231205455859
 30
0.0
  0
POINT
  5
4E1
330
271
100
AcDbEntity
  8
DEFPOINTS
 62
     0
440
 16777216
100
AcDbPoint
 10
67.32554585352179
 20
78.55165000177965
 30
0.0
  0
ENDBLK
  5
27C
330
271
100
AcDbEntity
  8
0
100
AcDbBlockEnd
  0
BLOCK
  5
313
330
312
100
AcDbEntity
  8
0
100
AcDbBlockBegin
  2
_ACMFILLEDHALF
 70
     0
 10
0.0
 20
0.0
 30
0.0
  3
_ACMFILLEDHALF
  1

  0
TRACE
  5
315
330
312
100
AcDbEntity
  8
BEMASSUNG
 62
     0
100
AcDbTrace
 10
-0.8
 20
0.0
 30
0.0
 11
-1.0
 21
0.166666666
 31
0.0
 12
0.0
 22
0.0
 32
0.0
 13
0.0
 23
0.0
 33
0.0
  0
LINE
  5
316
330
312
100
AcDbEntity
  8
BEMASSUNG
 62
     0
100
AcDbLine
 10
-1.0
 20
0.0
 30
0.0
 11
-0.8
 21
0.0
 31
0.0
  0
ENDBLK
  5
314
330
312
100
AcDbEntity
  8
0
100
AcDbBlockEnd
  0
BLOCK
  5
3F0
330
3EF
100
AcDbEntity
  8
0
100
AcDbBlockBegin
  2
*D22
 70
     1
 10
0.0
 20
0.0
 30
0.0
  3
*D22
  1

  0
LINE
  5
3F2
330
3EF
100
AcDbEntity
  8
BEMASSUNG
 62
     2
440
 16777216
370
    -2
100
AcDbLine
 10
137.0624505545766
 20
195.4231205455858
 30
0.0
 11
137.0624505545766
 21
207.2540240186425
 31
0.0
  0
LINE
  5
3F3
330
3EF
100
AcDbEntity
  8
BEMASSUNG
 62
     2
440
 16777216
370
    -2
100
AcDbLine
 10
124.0624505545766
 20
195.4231205455859
 30
0.0
 11
124.0624505545766
 21
207.2540240186425
 31
0.0
  0
LINE
  5
3F4
330
3EF
100
AcDbEntity
  8
BEMASSUNG
 62
     2
440
 16777216
370
    -2
100
AcDbLine
 10
133.5624505545766
 20
205.4540240186425
 30
0.0
 11
127.5624505545766
 21
205.4540240186425
 31
0.0
  0
MTEXT
  5
3F5
330
3EF
100
AcDbEntity
  8
BEMASSUNG
 62
     3
440
 16777216
100
AcDbMText
 10
130.0451036266224
 20
209.477325685608
 30
0.0
 40
3.5
 41
0.0
 46
0.0
 71
     5
 72
     1
  1
\A1;13
  7
NORM
 73
     1
 44
1.0
1001
ACAD
1000
MTEXTBEGIN
1070
    73
1070
     1
1070
    44
1040
1.0
1070
    74
1070
     0
1000
MTEXTEND
  0
SOLID
  5
3F6
330
3EF
100
AcDbEntity
  8
BEMASSUNG
 62
     2
440
 16777216
100
AcDbTrace
 10
133.5624505545766
 20
206.0373573519759
 30
0.0
 11
133.5624505545766
 21
204.8706906853092
 31
0.0
 12
137.0624505545766
 22
205.4540240186425
 32
0.0
 13
137.0624505545766
 23
205.4540240186425
 33
0.0
  0
SOLID
  5
3F7
330
3EF
100
AcDbEntity
  8
BEMASSUNG
 62
     2
440
 16777216
100
AcDbTrace
 10
127.5624505545766
 20
206.0373573519759
 30
0.0
 11
127.5624505545766
 21
204.8706906853092
 31
0.0
 12
124.0624505545766
 22
205.4540240186425
 32
0.0
 13
124.0624505545766
 23
205.4540240186425
 33
0.0
  0
POINT
  5
3F8
330
3EF
100
AcDbEntity
  8
DEFPOINTS
 62
     0
440
 16777216
100
AcDbPoint
 10
137.0624505545766
 20
194.9231205455858
 30
0.0
  0
POINT
  5
3F9
330
3EF
100
AcDbEntity
  8
DEFPOINTS
 62
     0
440
 16777216
100
AcDbPoint
 10
124.0624505545766
 20
194.9231205455859
 30
0.0
  0
POINT
  5
3FA
330
3EF
100
AcDbEntity
  8
DEFPOINTS
 62
     0
440
 16777216
100
AcDbPoint
 10
124.0624505545766
 20
205.4540240186425
 30
0.0
  0
ENDBLK
  5
3F1
330
3EF
100
AcDbEntity
  8
0
100
AcDbBlockEnd
  0
BLOCK
  5
3FC
330
3FB
100
AcDbEntity
  8
0
100
AcDbBlockBegin
  2
*D23
 70
     1
 10
0.0
 20
0.0
 30
0.0
  3
*D23
  1

  0
LINE
  5
3FE
330
3FB
100
AcDbEntity
  8
BEMASSUNG
 62
     2
440
 16777216
370
    -2
100
AcDbLine
 10
136.0624505545766
 20
106.4231205455859
 30
0.0
 11
136.0624505545766
 21
120.3631833661942
 31
0.0
  0
LINE
  5
3FF
330
3FB
100
AcDbEntity
  8
BEMASSUNG
 62
     2
440
 16777216
370
    -2
100
AcDbLine
 10
125.0624505545766
 20
106.4231205455859
 30
0.0
 11
125.0624505545766
 21
120.3631833661942
 31
0.0
  0
LINE
  5
400
330
3FB
100
AcDbEntity
  8
BEMASSUNG
 62
     2
440
 16777216
370
    -2
100
AcDbLine
 10
132.5624505545766
 20
118.5631833661942
 30
0.0
 11
128.5624505545766
 21
118.5631833661942
 31
0.0
  0
MTEXT
  5
401
330
3FB
100
AcDbEntity
  8
BEMASSUNG
 62
     3
440
 16777216
100
AcDbMText
 10
130.9081242857625
 20
122.8775766266352
 30
0.0
 40
3.5
 41
0.0
 46
0.0
 71
     5
 72
     1
  1
\A1;11
  7
NORM
 73
     1
 44
1.0
1001
ACAD
1000
MTEXTBEGIN
1070
    73
1070
     1
1070
    44
1040
1.0
1070
    74
1070
     0
1000
MTEXTEND
  0
SOLID
  5
402
330
3FB
100
AcDbEntity
  8
BEMASSUNG
 62
     2
440
 16777216
100
AcDbTrace
 10
132.5624505545766
 20
119.1465166995275
 30
0.0
 11
132.5624505545766
 21
117.9798500328609
 31
0.0
 12
136.0624505545766
 22
118.5631833661942
 32
0.0
 13
136.0624505545766
 23
118.5631833661942
 33
0.0
  0
SOLID
  5
403
330
3FB
100
AcDbEntity
  8
BEMASSUNG
 62
     2
440
 16777216
100
AcDbTrace
 10
128.5624505545766
 20
119.1465166995275
 30
0.0
 11
128.5624505545766
 21
117.9798500328609
 31
0.0
 12
125.0624505545766
 22
118.5631833661942
 32
0.0
 13
125.0624505545766
 23
118.5631833661942
 33
0.0
  0
POINT
  5
404
330
3FB
100
AcDbEntity
  8
DEFPOINTS
 62
     0
440
 16777216
100
AcDbPoint
 10
136.0624505545766
 20
105.9231205455859
 30
0.0
  0
POINT
  5
405
330
3FB
100
AcDbEntity
  8
DEFPOINTS
 62
     0
440
 16777216
100
AcDbPoint
 10
125.0624505545766
 20
105.9231205455859
 30
0.0
  0
POINT
  5
406
330
3FB
100
AcDbEntity
  8
DEFPOINTS
 62
     0
440
 16777216
100
AcDbPoint
 10
125.0624505545766
 20
118.5631833661942
 30
0.0
  0
ENDBLK
  5
3FD
330
3FB
100
AcDbEntity
  8
0
100
AcDbBlockEnd
  0
BLOCK
  5
408
330
407
100
AcDbEntity
  8
0
100
AcDbBlockBegin
  2
*D24
 70
     1
 10
0.0
 20
0.0
 30
0.0
  3
*D24
  1

  0
LINE
  5
40A
330
407
100
AcDbEntity
  8
BEMASSUNG
 62
     2
440
 16777216
370
    -2
100
AcDbLine
 10
58.32554585352176
 20
248.9231205455859
 30
0.0
 11
58.32554585352176
 21
259.1490768955032
 31
0.0
  0
LINE
  5
40B
330
407
100
AcDbEntity
  8
BEMASSUNG
 62
     2
440
 16777216
370
    -2
100
AcDbLine
 10
55.32554585352176
 20
248.9231205455859
 30
0.0
 11
55.32554585352176
 21
259.1490768955032
 31
0.0
  0
LINE
  5
40C
330
407
100
AcDbEntity
  8
BEMASSUNG
 62
     2
440
 16777216
370
    -2
100
AcDbLine
 10
61.82554585352176
 20
257.3490768955032
 30
0.0
 11
65.32554585352176
 21
257.3490768955032
 31
0.0
  0
LINE
  5
40D
330
407
100
AcDbEntity
  8
BEMASSUNG
 62
     2
440
 16777216
370
    -2
100
AcDbLine
 10
51.82554585352176
 20
257.3490768955032
 30
0.0
 11
48.32554585352176
 21
257.3490768955032
 31
0.0
  0
SOLID
  5
40E
330
407
100
AcDbEntity
  8
BEMASSUNG
 62
     2
440
 16777216
100
AcDbTrace
 10
61.82554585352176
 20
257.9324102288365
 30
0.0
 11
61.82554585352176
 21
256.7657435621699
 31
0.0
 12
58.32554585352176
 22
257.3490768955032
 32
0.0
 13
58.32554585352176
 23
257.3490768955032
 33
0.0
  0
SOLID
  5
40F
330
407
100
AcDbEntity
  8
BEMASSUNG
 62
     2
440
 16777216
100
AcDbTrace
 10
51.82554585352176
 20
257.9324102288365
 30
0.0
 11
51.82554585352176
 21
256.7657435621699
 31
0.0
 12
55.32554585352176
 22
257.3490768955032
 32
0.0
 13
55.32554585352176
 23
257.3490768955032
 33
0.0
  0
MTEXT
  5
410
330
407
100
AcDbEntity
  8
BEMASSUNG
 62
     3
440
 16777216
100
AcDbMText
 10
56.82554585352176
 20
260.0990768955032
 30
0.0
 40
3.5
 41
0.0
 46
0.0
 71
     5
 72
     1
  1
\A1;3
  7
NORM
 73
     1
 44
1.0
1001
ACAD
1000
MTEXTBEGIN
1070
    73
1070
     1
1070
    44
1040
1.0
1070
    74
1070
     0
1000
MTEXTEND
  0
POINT
  5
411
330
407
100
AcDbEntity
  8
DEFPOINTS
 62
     0
440
 16777216
100
AcDbPoint
 10
58.32554585352176
 20
248.4231205455859
 30
0.0
  0
POINT
  5
412
330
407
100
AcDbEntity
  8
DEFPOINTS
 62
     0
440
 16777216
100
AcDbPoint
 10
55.32554585352176
 20
248.4231205455859
 30
0.0
  0
POINT
  5
413
330
407
100
AcDbEntity
  8
DEFPOINTS
 62
     0
440
 16777216
100
AcDbPoint
 10
55.32554585352176
 20
257.3490768955032
 30
0.0
  0
ENDBLK
  5
409
330
407
100
AcDbEntity
  8
0
100
AcDbBlockEnd
  0
BLOCK
  5
415
330
414
100
AcDbEntity
  8
0
100
AcDbBlockBegin
  2
*D25
 70
     1
 10
0.0
 20
0.0
 30
0.0
  3
*D25
  1

  0
LINE
  5
62A
330
414
100
AcDbEntity
  8
BEMASSUNG
 62
     2
440
 16777216
370
    -2
100
AcDbLine
 10
58.82554585352167
 20
93.82312054558587
 30
0.0
 11
78.37554585352177
 21
93.82312054558587
 31
0.0
  0
LINE
  5
62B
330
414
100
AcDbEntity
  8
BEMASSUNG
 62
     2
440
 16777216
370
    -2
100
AcDbLine
 10
58.82554585352176
 20
99.02312054558585
 30
0.0
 11
78.37554585352179
 21
99.02312054558585
 31
0.0
  0
LINE
  5
62C
330
414
100
AcDbEntity
  8
BEMASSUNG
 62
     2
440
 16777216
370
    -2
100
AcDbLine
 10
76.57554585352177
 20
90.32312054558587
 30
0.0
 11
76.57554585352177
 21
86.82312054558588
 31
0.0
  0
LINE
  5
62D
330
414
100
AcDbEntity
  8
BEMASSUNG
 62
     2
440
 16777216
370
    -2
100
AcDbLine
 10
76.57554585352179
 20
102.5231205455858
 30
0.0
 11
76.57554585352179
 21
106.0231205455858
 31
0.0
  0
SOLID
  5
62E
330
414
100
AcDbEntity
  8
BEMASSUNG
 62
     2
440
 16777216
100
AcDbTrace
 10
75.99221252018844
 20
90.32312054558587
 30
0.0
 11
77.1588791868551
 21
90.32312054558587
 31
0.0
 12
76.57554585352177
 22
93.82312054558587
 32
0.0
 13
76.57554585352177
 23
93.82312054558587
 33
0.0
  0
SOLID
  5
62F
330
414
100
AcDbEntity
  8
BEMASSUNG
 62
     2
440
 16777216
100
AcDbTrace
 10
75.99221252018846
 20
102.5231205455858
 30
0.0
 11
77.15887918685512
 21
102.5231205455858
 31
0.0
 12
76.57554585352179
 22
99.02312054558585
 32
0.0
 13
76.57554585352179
 23
99.02312054558585
 33
0.0
  0
MTEXT
  5
630
330
414
100
AcDbEntity
  8
BEMASSUNG
 62
     3
440
 16777216
100
AcDbMText
 10
73.82554585352176
 20
96.42312054558587
 30
0.0
 40
3.5
 41
0.0
 46
0.0
 71
     5
 72
     1
  1
\A1;%%C5.2
  7
NORM
 11
0.0000000000000001
 21
1.0
 31
0.0
 73
     1
 44
1.0
  0
POINT
  5
631
330
414
100
AcDbEntity
  8
DEFPOINTS
 62
     0
440
 16777216
100
AcDbPoint
 10
58.32554585352167
 20
93.82312054558587
 30
0.0
  0
POINT
  5
632
330
414
100
AcDbEntity
  8
DEFPOINTS
 62
     0
440
 16777216
100
AcDbPoint
 10
58.32554585352176
 20
99.02312054558585
 30
0.0
  0
POINT
  5
633
330
414
100
AcDbEntity
  8
DEFPOINTS
 62
     0
440
 16777216
100
AcDbPoint
 10
76.57554585352179
 20
99.02312054558585
 30
0.0
  0
ENDBLK
  5
416
330
414
100
AcDbEntity
  8
0
100
AcDbBlockEnd
  0
BLOCK
  5
422
330
421
100
AcDbEntity
  8
0
100
AcDbBlockBegin
  2
*D26
 70
     1
 10
0.0
 20
0.0
 30
0.0
  3
*D26
  1

  0
LINE
  5
57D
330
421
100
AcDbEntity
  8
BEMASSUNG
 62
     2
440
 16777216
370
    -2
100
AcDbLine
 10
123.5624505545766
 20
230.9231205455859
 30
0.0
 11
107.3680498093858
 21
230.9231205455859
 31
0.0
  0
LINE
  5
57E
330
421
100
AcDbEntity
  8
BEMASSUNG
 62
     2
440
 16777216
370
    -2
100
AcDbLine
 10
119.0624505545766
 20
248.4231205455859
 30
0.0
 11
107.3680498093858
 21
248.4231205455859
 31
0.0
  0
LINE
  5
57F
330
421
100
AcDbEntity
  8
BEMASSUNG
 62
     2
440
 16777216
370
    -2
100
AcDbLine
 10
109.1680498093858
 20
234.4231205455859
 30
0.0
 11
109.1680498093858
 21
244.9231205455859
 31
0.0
  0
MTEXT
  5
580
330
421
100
AcDbEntity
  8
BEMASSUNG
 62
     3
440
 16777216
100
AcDbMText
 10
106.1298195324466
 20
241.6731205455859
 30
0.0
 40
3.5
 41
0.0
 46
0.0
 71
     5
 72
     1
  1
\A1;17.5
  7
NORM
 11
0.0000000000000001
 21
1.0
 31
0.0
 73
     1
 44
1.0
  0
SOLID
  5
581
330
421
100
AcDbEntity
  8
BEMASSUNG
 62
     2
440
 16777216
100
AcDbTrace
 10
108.5847164760524
 20
234.4231205455859
 30
0.0
 11
109.7513831427191
 21
234.4231205455859
 31
0.0
 12
109.1680498093858
 22
230.9231205455859
 32
0.0
 13
109.1680498093858
 23
230.9231205455859
 33
0.0
  0
SOLID
  5
582
330
421
100
AcDbEntity
  8
BEMASSUNG
 62
     2
440
 16777216
100
AcDbTrace
 10
108.5847164760524
 20
244.9231205455859
 30
0.0
 11
109.7513831427191
 21
244.9231205455859
 31
0.0
 12
109.1680498093858
 22
248.4231205455859
 32
0.0
 13
109.1680498093858
 23
248.4231205455859
 33
0.0
  0
POINT
  5
583
330
421
100
AcDbEntity
  8
DEFPOINTS
 62
     0
440
 16777216
100
AcDbPoint
 10
124.0624505545766
 20
230.9231205455859
 30
0.0
  0
POINT
  5
584
330
421
100
AcDbEntity
  8
DEFPOINTS
 62
     0
440
 16777216
100
AcDbPoint
 10
119.5624505545766
 20
248.4231205455859
 30
0.0
  0
POINT
  5
585
330
421
100
AcDbEntity
  8
DEFPOINTS
 62
     0
440
 16777216
100
AcDbPoint
 10
109.1680498093858
 20
248.4231205455859
 30
0.0
  0
ENDBLK
  5
423
330
421
100
AcDbEntity
  8
0
100
AcDbBlockEnd
  0
BLOCK
  5
42E
330
42D
100
AcDbEntity
  8
0
100
AcDbBlockBegin
  2
*D27
 70
     1
 10
0.0
 20
0.0
 30
0.0
  3
*D27
  1

  0
LINE
  5
586
330
42D
100
AcDbEntity
  8
BEMASSUNG
 62
     2
440
 16777216
370
    -2
100
AcDbLine
 10
123.5624505545766
 20
194.9231205455859
 30
0.0
 11
107.3680498093858
 21
194.9231205455859
 31
0.0
  0
LINE
  5
587
330
42D
100
AcDbEntity
  8
BEMASSUNG
 62
     2
440
 16777216
370
    -2
100
AcDbLine
 10
123.5624505545766
 20
230.9231205455859
 30
0.0
 11
107.3680498093858
 21
230.9231205455859
 31
0.0
  0
LINE
  5
588
330
42D
100
AcDbEntity
  8
BEMASSUNG
 62
     2
440
 16777216
370
    -2
100
AcDbLine
 10
109.1680498093857
 20
198.4231205455859
 30
0.0
 11
109.1680498093858
 21
227.4231205455859
 31
0.0
  0
MTEXT
  5
589
330
42D
100
AcDbEntity
  8
BEMASSUNG
 62
     3
440
 16777216
100
AcDbMText
 10
106.1298195324466
 20
219.8090047057352
 30
0.0
 40
3.5
 41
0.0
 46
0.0
 71
     5
 72
     1
  1
\A1;36
  7
NORM
 11
0.0000000000000001
 21
1.0
 31
0.0
 73
     1
 44
1.0
  0
SOLID
  5
58A
330
42D
100
AcDbEntity
  8
BEMASSUNG
 62
     2
440
 16777216
100
AcDbTrace
 10
108.5847164760524
 20
198.4231205455859
 30
0.0
 11
109.7513831427191
 21
198.4231205455859
 31
0.0
 12
109.1680498093857
 22
194.9231205455859
 32
0.0
 13
109.1680498093857
 23
194.9231205455859
 33
0.0
  0
SOLID
  5
58B
330
42D
100
AcDbEntity
  8
BEMASSUNG
 62
     2
440
 16777216
100
AcDbTrace
 10
108.5847164760524
 20
227.4231205455859
 30
0.0
 11
109.7513831427191
 21
227.4231205455859
 31
0.0
 12
109.1680498093858
 22
230.9231205455859
 32
0.0
 13
109.1680498093858
 23
230.9231205455859
 33
0.0
  0
POINT
  5
58C
330
42D
100
AcDbEntity
  8
DEFPOINTS
 62
     0
440
 16777216
100
AcDbPoint
 10
124.0624505545766
 20
194.9231205455859
 30
0.0
  0
POINT
  5
58D
330
42D
100
AcDbEntity
  8
DEFPOINTS
 62
     0
440
 16777216
100
AcDbPoint
 10
124.0624505545766
 20
230.9231205455859
 30
0.0
  0
POINT
  5
58E
330
42D
100
AcDbEntity
  8
DEFPOINTS
 62
     0
440
 16777216
100
AcDbPoint
 10
109.1680498093858
 20
230.9231205455859
 30
0.0
  0
ENDBLK
  5
42F
330
42D
100
AcDbEntity
  8
0
100
AcDbBlockEnd
  0
BLOCK
  5
43A
330
439
100
AcDbEntity
  8
0
100
AcDbBlockBegin
  2
*D28
 70
     1
 10
0.0
 20
0.0
 30
0.0
  3
*D28
  1

  0
LINE
  5
598
330
439
100
AcDbEntity
  8
BEMASSUNG
 62
     2
440
 16777216
370
    -2
100
AcDbLine
 10
124.5624505545766
 20
143.9231205455859
 30
0.0
 11
107.3680498093858
 21
143.9231205455859
 31
0.0
  0
LINE
  5
599
330
439
100
AcDbEntity
  8
BEMASSUNG
 62
     2
440
 16777216
370
    -2
100
AcDbLine
 10
123.5624505545766
 20
194.9231205455859
 30
0.0
 11
107.3680498093858
 21
194.9231205455859
 31
0.0
  0
LINE
  5
59A
330
439
100
AcDbEntity
  8
BEMASSUNG
 62
     2
440
 16777216
370
    -2
100
AcDbLine
 10
109.1680498093857
 20
147.4231205455859
 30
0.0
 11
109.1680498093858
 21
191.4231205455859
 31
0.0
  0
MTEXT
  5
59B
330
439
100
AcDbEntity
  8
BEMASSUNG
 62
     3
440
 16777216
100
AcDbMText
 10
106.1298195324466
 20
170.4231205455859
 30
0.0
 40
3.5
 41
0.0
 46
0.0
 71
     5
 72
     1
  1
\A1;51
  7
NORM
 11
0.0000000000000001
 21
1.0
 31
0.0
 73
     1
 44
1.0
  0
SOLID
  5
59C
330
439
100
AcDbEntity
  8
BEMASSUNG
 62
     2
440
 16777216
100
AcDbTrace
 10
108.5847164760524
 20
147.4231205455859
 30
0.0
 11
109.7513831427191
 21
147.4231205455859
 31
0.0
 12
109.1680498093857
 22
143.9231205455859
 32
0.0
 13
109.1680498093857
 23
143.9231205455859
 33
0.0
  0
SOLID
  5
59D
330
439
100
AcDbEntity
  8
BEMASSUNG
 62
     2
440
 16777216
100
AcDbTrace
 10
108.5847164760524
 20
191.4231205455859
 30
0.0
 11
109.7513831427191
 21
191.4231205455859
 31
0.0
 12
109.1680498093858
 22
194.9231205455859
 32
0.0
 13
109.1680498093858
 23
194.9231205455859
 33
0.0
  0
POINT
  5
59E
330
439
100
AcDbEntity
  8
DEFPOINTS
 62
     0
440
 16777216
100
AcDbPoint
 10
125.0624505545766
 20
143.9231205455859
 30
0.0
  0
POINT
  5
59F
330
439
100
AcDbEntity
  8
DEFPOINTS
 62
     0
440
 16777216
100
AcDbPoint
 10
124.0624505545766
 20
194.9231205455859
 30
0.0
  0
POINT
  5
5A0
330
439
100
AcDbEntity
  8
DEFPOINTS
 62
     0
440
 16777216
100
AcDbPoint
 10
109.1680498093858
 20
194.9231205455859
 30
0.0
  0
ENDBLK
  5
43B
330
439
100
AcDbEntity
  8
0
100
AcDbBlockEnd
  0
BLOCK
  5
446
330
445
100
AcDbEntity
  8
0
100
AcDbBlockBegin
  2
*D29
 70
     1
 10
0.0
 20
0.0
 30
0.0
  3
*D29
  1

  0
LINE
  5
5A1
330
445
100
AcDbEntity
  8
BEMASSUNG
 62
     2
440
 16777216
370
    -2
100
AcDbLine
 10
124.5624505545766
 20
105.9231205455859
 30
0.0
 11
107.3680498093858
 21
105.9231205455859
 31
0.0
  0
LINE
  5
5A2
330
445
100
AcDbEntity
  8
BEMASSUNG
 62
     2
440
 16777216
370
    -2
100
AcDbLine
 10
124.5624505545766
 20
143.9231205455859
 30
0.0
 11
107.3680498093858
 21
143.9231205455859
 31
0.0
  0
LINE
  5
5A3
330
445
100
AcDbEntity
  8
BEMASSUNG
 62
     2
440
 16777216
370
    -2
100
AcDbLine
 10
109.1680498093858
 20
109.4231205455859
 30
0.0
 11
109.1680498093858
 21
140.4231205455859
 31
0.0
  0
MTEXT
  5
5A4
330
445
100
AcDbEntity
  8
BEMASSUNG
 62
     3
440
 16777216
100
AcDbMText
 10
106.1298195324466
 20
130.9848017506409
 30
0.0
 40
3.5
 41
0.0
 46
0.0
 71
     5
 72
     1
  1
\A1;38
  7
NORM
 11
0.0000000000000001
 21
1.0
 31
0.0
 73
     1
 44
1.0
  0
SOLID
  5
5A5
330
445
100
AcDbEntity
  8
BEMASSUNG
 62
     2
440
 16777216
100
AcDbTrace
 10
108.5847164760524
 20
109.4231205455859
 30
0.0
 11
109.7513831427191
 21
109.4231205455859
 31
0.0
 12
109.1680498093858
 22
105.9231205455859
 32
0.0
 13
109.1680498093858
 23
105.9231205455859
 33
0.0
  0
SOLID
  5
5A6
330
445
100
AcDbEntity
  8
BEMASSUNG
 62
     2
440
 16777216
100
AcDbTrace
 10
108.5847164760524
 20
140.4231205455859
 30
0.0
 11
109.7513831427191
 21
140.4231205455859
 31
0.0
 12
109.1680498093858
 22
143.9231205455859
 32
0.0
 13
109.1680498093858
 23
143.9231205455859
 33
0.0
  0
POINT
  5
5A7
330
445
100
AcDbEntity
  8
DEFPOINTS
 62
     0
440
 16777216
100
AcDbPoint
 10
125.0624505545766
 20
105.9231205455859
 30
0.0
  0
POINT
  5
5A8
330
445
100
AcDbEntity
  8
DEFPOINTS
 62
     0
440
 16777216
100
AcDbPoint
 10
125.0624505545766
 20
143.9231205455859
 30
0.0
  0
POINT
  5
5A9
330
445
100
AcDbEntity
  8
DEFPOINTS
 62
     0
440
 16777216
100
AcDbPoint
 10
109.1680498093858
 20
143.9231205455859
 30
0.0
  0
ENDBLK
  5
447
330
445
100
AcDbEntity
  8
0
100
AcDbBlockEnd
  0
BLOCK
  5
452
330
451
100
AcDbEntity
  8
0
100
AcDbBlockBegin
  2
*D30
 70
     1
 10
0.0
 20
0.0
 30
0.0
  3
*D30
  1

  0
LINE
  5
5AA
330
451
100
AcDbEntity
  8
BEMASSUNG
 62
     2
440
 16777216
370
    -2
100
AcDbLine
 10
119.0624505545766
 20
88.4231205455859
 30
0.0
 11
107.3680498093858
 21
88.4231205455859
 31
0.0
  0
LINE
  5
5AB
330
451
100
AcDbEntity
  8
BEMASSUNG
 62
     2
440
 16777216
370
    -2
100
AcDbLine
 10
124.5624505545766
 20
105.9231205455859
 30
0.0
 11
107.3680498093858
 21
105.9231205455859
 31
0.0
  0
LINE
  5
5AC
330
451
100
AcDbEntity
  8
BEMASSUNG
 62
     2
440
 16777216
370
    -2
100
AcDbLine
 10
109.1680498093857
 20
91.92312054558589
 30
0.0
 11
109.1680498093858
 21
102.4231205455859
 31
0.0
  0
MTEXT
  5
5AD
330
451
100
AcDbEntity
  8
BEMASSUNG
 62
     3
440
 16777216
100
AcDbMText
 10
106.1298195324466
 20
95.17312054558628
 30
0.0
 40
3.5
 41
0.0
 46
0.0
 71
     5
 72
     1
  1
\A1;17.5
  7
NORM
 11
0.0000000000000001
 21
1.0
 31
0.0
 73
     1
 44
1.0
  0
SOLID
  5
5AE
330
451
100
AcDbEntity
  8
BEMASSUNG
 62
     2
440
 16777216
100
AcDbTrace
 10
108.5847164760524
 20
91.92312054558589
 30
0.0
 11
109.7513831427191
 21
91.92312054558589
 31
0.0
 12
109.1680498093857
 22
88.4231205455859
 32
0.0
 13
109.1680498093857
 23
88.4231205455859
 33
0.0
  0
SOLID
  5
5AF
330
451
100
AcDbEntity
  8
BEMASSUNG
 62
     2
440
 16777216
100
AcDbTrace
 10
108.5847164760524
 20
102.4231205455859
 30
0.0
 11
109.7513831427191
 21
102.4231205455859
 31
0.0
 12
109.1680498093858
 22
105.9231205455859
 32
0.0
 13
109.1680498093858
 23
105.9231205455859
 33
0.0
  0
POINT
  5
5B0
330
451
100
AcDbEntity
  8
DEFPOINTS
 62
     0
440
 16777216
100
AcDbPoint
 10
119.5624505545766
 20
88.4231205455859
 30
0.0
  0
POINT
  5
5B1
330
451
100
AcDbEntity
  8
DEFPOINTS
 62
     0
440
 16777216
100
AcDbPoint
 10
125.0624505545766
 20
105.9231205455859
 30
0.0
  0
POINT
  5
5B2
330
451
100
AcDbEntity
  8
DEFPOINTS
 62
     0
440
 16777216
100
AcDbPoint
 10
109.1680498093858
 20
105.9231205455859
 30
0.0
  0
ENDBLK
  5
453
330
451
100
AcDbEntity
  8
0
100
AcDbBlockEnd
  0
BLOCK
  5
45E
330
45D
100
AcDbEntity
  8
0
100
AcDbBlockBegin
  2
*D31
 70
     1
 10
0.0
 20
0.0
 30
0.0
  3
*D31
  1

  0
LINE
  5
5BD
330
45D
100
AcDbEntity
  8
BEMASSUNG
 62
     2
440
 16777216
370
    -2
100
AcDbLine
 10
142.0624505545766
 20
88.4231205455859
 30
0.0
 11
162.4961263546016
 21
88.42312054558588
 31
0.0
  0
LINE
  5
5BE
330
45D
100
AcDbEntity
  8
BEMASSUNG
 62
     2
440
 16777216
370
    -2
100
AcDbLine
 10
142.0624505545766
 20
248.4231205455859
 30
0.0
 11
162.4961263546017
 21
248.4231205455859
 31
0.0
  0
LINE
  5
5BF
330
45D
100
AcDbEntity
  8
BEMASSUNG
 62
     2
440
 16777216
370
    -2
100
AcDbLine
 10
160.6961263546016
 20
91.92312054558589
 30
0.0
 11
160.6961263546017
 21
244.9231205455859
 31
0.0
  0
MTEXT
  5
5C0
330
45D
100
AcDbEntity
  8
BEMASSUNG
 62
     3
440
 16777216
100
AcDbMText
 10
157.6487929321004
 20
169.4231205455859
 30
0.0
 40
3.5
 41
0.0
 46
0.0
 71
     5
 72
     1
  1
\A1;160
  7
NORM
 11
0.0000000000000001
 21
1.0
 31
0.0
 73
     1
 44
1.0
  0
SOLID
  5
5C1
330
45D
100
AcDbEntity
  8
BEMASSUNG
 62
     2
440
 16777216
100
AcDbTrace
 10
160.1127930212683
 20
91.92312054558589
 30
0.0
 11
161.279459687935
 21
91.92312054558589
 31
0.0
 12
160.6961263546016
 22
88.42312054558588
 32
0.0
 13
160.6961263546016
 23
88.42312054558588
 33
0.0
  0
SOLID
  5
5C2
330
45D
100
AcDbEntity
  8
BEMASSUNG
 62
     2
440
 16777216
100
AcDbTrace
 10
160.1127930212683
 20
244.9231205455859
 30
0.0
 11
161.279459687935
 21
244.9231205455859
 31
0.0
 12
160.6961263546017
 22
248.4231205455859
 32
0.0
 13
160.6961263546017
 23
248.4231205455859
 33
0.0
  0
POINT
  5
5C3
330
45D
100
AcDbEntity
  8
DEFPOINTS
 62
     0
440
 16777216
100
AcDbPoint
 10
141.5624505545766
 20
88.4231205455859
 30
0.0
  0
POINT
  5
5C4
330
45D
100
AcDbEntity
  8
DEFPOINTS
 62
     0
440
 16777216
100
AcDbPoint
 10
141.5624505545766
 20
248.4231205455859
 30
0.0
  0
POINT
  5
5C5
330
45D
100
AcDbEntity
  8
DEFPOINTS
 62
     0
440
 16777216
100
AcDbPoint
 10
160.6961263546017
 20
248.4231205455859
 30
0.0
  0
ENDBLK
  5
45F
330
45D
100
AcDbEntity
  8
0
100
AcDbBlockEnd
  0
BLOCK
  5
46A
330
469
100
AcDbEntity
  8
0
100
AcDbBlockBegin
  2
*D32
 70
     1
 10
0.0
 20
0.0
 30
0.0
  3
*D32
  1

  0
LINE
  5
46C
330
469
100
AcDbEntity
  8
BEMASSUNG
 62
     2
440
 16777216
370
    -2
100
AcDbLine
 10
133.6624505545766
 20
240.4231205455859
 30
0.0
 11
152.9925012647945
 21
240.4231205455859
 31
0.0
  0
LINE
  5
46D
330
469
100
AcDbEntity
  8
BEMASSUNG
 62
     2
440
 16777216
370
    -2
100
AcDbLine
 10
142.0624505545766
 20
248.4231205455859
 30
0.0
 11
152.9925012647945
 21
248.4231205455859
 31
0.0
  0
LINE
  5
46E
330
469
100
AcDbEntity
  8
BEMASSUNG
 62
     2
440
 16777216
370
    -2
100
AcDbLine
 10
151.1925012647945
 20
236.9231205455859
 30
0.0
 11
151.1925012647945
 21
233.4231205455859
 31
0.0
  0
LINE
  5
46F
330
469
100
AcDbEntity
  8
BEMASSUNG
 62
     2
440
 16777216
370
    -2
100
AcDbLine
 10
151.1925012647945
 20
251.9231205455859
 30
0.0
 11
151.1925012647945
 21
255.4231205455859
 31
0.0
  0
SOLID
  5
470
330
469
100
AcDbEntity
  8
BEMASSUNG
 62
     2
440
 16777216
100
AcDbTrace
 10
150.6091679314612
 20
236.9231205455859
 30
0.0
 11
151.7758345981278
 21
236.9231205455859
 31
0.0
 12
151.1925012647945
 22
240.4231205455859
 32
0.0
 13
151.1925012647945
 23
240.4231205455859
 33
0.0
  0
SOLID
  5
471
330
469
100
AcDbEntity
  8
BEMASSUNG
 62
     2
440
 16777216
100
AcDbTrace
 10
150.6091679314612
 20
251.9231205455859
 30
0.0
 11
151.7758345981278
 21
251.9231205455859
 31
0.0
 12
151.1925012647945
 22
248.4231205455859
 32
0.0
 13
151.1925012647945
 23
248.4231205455859
 33
0.0
  0
MTEXT
  5
472
330
469
100
AcDbEntity
  8
BEMASSUNG
 62
     3
440
 16777216
100
AcDbMText
 10
148.4425012647944
 20
244.4231205455859
 30
0.0
 40
3.5
 41
0.0
 46
0.0
 71
     5
 72
     1
  1
\A1;8
  7
NORM
 11
0.0000000000000001
 21
1.0
 31
0.0
 73
     1
 44
1.0
1001
ACAD
1000
MTEXTBEGIN
1070
    73
1070
     1
1070
    44
1040
1.0
1070
    74
1070
     0
1000
MTEXTEND
  0
POINT
  5
473
330
469
100
AcDbEntity
  8
DEFPOINTS
 62
     0
440
 16777216
100
AcDbPoint
 10
133.1624505545766
 20
240.4231205455859
 30
0.0
  0
POINT
  5
474
330
469
100
AcDbEntity
  8
DEFPOINTS
 62
     0
440
 16777216
100
AcDbPoint
 10
141.5624505545766
 20
248.4231205455859
 30
0.0
  0
POINT
  5
475
330
469
100
AcDbEntity
  8
DEFPOINTS
 62
     0
440
 16777216
100
AcDbPoint
 10
151.1925012647945
 20
248.4231205455859
 30
0.0
  0
ENDBLK
  5
46B
330
469
100
AcDbEntity
  8
0
100
AcDbBlockEnd
  0
BLOCK
  5
477
330
476
100
AcDbEntity
  8
0
100
AcDbBlockBegin
  2
*D33
 70
     1
 10
0.0
 20
0.0
 30
0.0
  3
*D33
  1

  0
LINE
  5
479
330
476
100
AcDbEntity
  8
BEMASSUNG
 62
     2
440
 16777216
370
    -2
100
AcDbLine
 10
133.6624505545766
 20
169.4231205455859
 30
0.0
 11
152.9925012647945
 21
169.4231205455859
 31
0.0
  0
LINE
  5
47A
330
476
100
AcDbEntity
  8
BEMASSUNG
 62
     2
440
 16777216
370
    -2
100
AcDbLine
 10
133.6624505545766
 20
240.4231205455859
 30
0.0
 11
152.9925012647945
 21
240.4231205455859
 31
0.0
  0
LINE
  5
47B
330
476
100
AcDbEntity
  8
BEMASSUNG
 62
     2
440
 16777216
370
    -2
100
AcDbLine
 10
151.1925012647945
 20
172.9231205455859
 30
0.0
 11
151.1925012647945
 21
236.9231205455859
 31
0.0
  0
SOLID
  5
47C
330
476
100
AcDbEntity
  8
BEMASSUNG
 62
     2
440
 16777216
100
AcDbTrace
 10
150.6091679314611
 20
172.9231205455859
 30
0.0
 11
151.7758345981278
 21
172.9231205455859
 31
0.0
 12
151.1925012647945
 22
169.4231205455859
 32
0.0
 13
151.1925012647945
 23
169.4231205455859
 33
0.0
  0
SOLID
  5
47D
330
476
100
AcDbEntity
  8
BEMASSUNG
 62
     2
440
 16777216
100
AcDbTrace
 10
150.6091679314612
 20
236.9231205455859
 30
0.0
 11
151.7758345981278
 21
236.9231205455859
 31
0.0
 12
151.1925012647945
 22
240.4231205455859
 32
0.0
 13
151.1925012647945
 23
240.4231205455859
 33
0.0
  0
MTEXT
  5
47E
330
476
100
AcDbEntity
  8
BEMASSUNG
 62
     3
440
 16777216
100
AcDbMText
 10
148.4425012647944
 20
204.9231205455859
 30
0.0
 40
3.5
 41
0.0
 46
0.0
 71
     5
 72
     1
  1
\A1;71
  7
NORM
 11
0.0000000000000001
 21
1.0
 31
0.0
 73
     1
 44
1.0
1001
ACAD
1000
MTEXTBEGIN
1070
    73
1070
     1
1070
    44
1040
1.0
1070
    74
1070
     0
1000
MTEXTEND
  0
POINT
  5
47F
330
476
100
AcDbEntity
  8
DEFPOINTS
 62
     0
440
 16777216
100
AcDbPoint
 10
133.1624505545766
 20
169.4231205455859
 30
0.0
  0
POINT
  5
480
330
476
100
AcDbEntity
  8
DEFPOINTS
 62
     0
440
 16777216
100
AcDbPoint
 10
133.1624505545766
 20
240.4231205455859
 30
0.0
  0
POINT
  5
481
330
476
100
AcDbEntity
  8
DEFPOINTS
 62
     0
440
 16777216
100
AcDbPoint
 10
151.1925012647945
 20
240.4231205455859
 30
0.0
  0
ENDBLK
  5
478
330
476
100
AcDbEntity
  8
0
100
AcDbBlockEnd
  0
BLOCK
  5
483
330
482
100
AcDbEntity
  8
0
100
AcDbBlockBegin
  2
*D34
 70
     1
 10
0.0
 20
0.0
 30
0.0
  3
*D34
  1

  0
LINE
  5
485
330
482
100
AcDbEntity
  8
BEMASSUNG
 62
     2
440
 16777216
370
    -2
100
AcDbLine
 10
133.6624505545766
 20
96.4231205455859
 30
0.0
 11
152.9925012647945
 21
96.4231205455859
 31
0.0
  0
LINE
  5
486
330
482
100
AcDbEntity
  8
BEMASSUNG
 62
     2
440
 16777216
370
    -2
100
AcDbLine
 10
133.6624505545766
 20
169.4231205455859
 30
0.0
 11
152.9925012647945
 21
169.4231205455859
 31
0.0
  0
LINE
  5
487
330
482
100
AcDbEntity
  8
BEMASSUNG
 62
     2
440
 16777216
370
    -2
100
AcDbLine
 10
151.1925012647945
 20
99.9231205455859
 30
0.0
 11
151.1925012647945
 21
165.9231205455859
 31
0.0
  0
SOLID
  5
488
330
482
100
AcDbEntity
  8
BEMASSUNG
 62
     2
440
 16777216
100
AcDbTrace
 10
150.6091679314612
 20
99.9231205455859
 30
0.0
 11
151.7758345981278
 21
99.9231205455859
 31
0.0
 12
151.1925012647945
 22
96.4231205455859
 32
0.0
 13
151.1925012647945
 23
96.4231205455859
 33
0.0
  0
SOLID
  5
489
330
482
100
AcDbEntity
  8
BEMASSUNG
 62
     2
440
 16777216
100
AcDbTrace
 10
150.6091679314612
 20
165.9231205455859
 30
0.0
 11
151.7758345981278
 21
165.9231205455859
 31
0.0
 12
151.1925012647945
 22
169.4231205455859
 32
0.0
 13
151.1925012647945
 23
169.4231205455859
 33
0.0
  0
MTEXT
  5
48A
330
482
100
AcDbEntity
  8
BEMASSUNG
 62
     3
440
 16777216
100
AcDbMText
 10
148.4425012647944
 20
132.9231205455859
 30
0.0
 40
3.5
 41
0.0
 46
0.0
 71
     5
 72
     1
  1
\A1;73
  7
NORM
 11
0.0000000000000001
 21
1.0
 31
0.0
 73
     1
 44
1.0
1001
ACAD
1000
MTEXTBEGIN
1070
    73
1070
     1
1070
    44
1040
1.0
1070
    74
1070
     0
1000
MTEXTEND
  0
POINT
  5
48B
330
482
100
AcDbEntity
  8
DEFPOINTS
 62
     0
440
 16777216
100
AcDbPoint
 10
133.1624505545766
 20
96.4231205455859
 30
0.0
  0
POINT
  5
48C
330
482
100
AcDbEntity
  8
DEFPOINTS
 62
     0
440
 16777216
100
AcDbPoint
 10
133.1624505545766
 20
169.4231205455859
 30
0.0
  0
POINT
  5
48D
330
482
100
AcDbEntity
  8
DEFPOINTS
 62
     0
440
 16777216
100
AcDbPoint
 10
151.1925012647945
 20
169.4231205455859
 30
0.0
  0
ENDBLK
  5
484
330
482
100
AcDbEntity
  8
0
100
AcDbBlockEnd
  0
BLOCK
  5
48F
330
48E
100
AcDbEntity
  8
0
100
AcDbBlockBegin
  2
*D35
 70
     1
 10
0.0
 20
0.0
 30
0.0
  3
*D35
  1

  0
LINE
  5
491
330
48E
100
AcDbEntity
  8
BEMASSUNG
 62
     2
440
 16777216
370
    -2
100
AcDbLine
 10
142.0624505545766
 20
88.4231205455859
 30
0.0
 11
152.9925012647945
 21
88.4231205455859
 31
0.0
  0
LINE
  5
492
330
48E
100
AcDbEntity
  8
BEMASSUNG
 62
     2
440
 16777216
370
    -2
100
AcDbLine
 10
133.6624505545766
 20
96.4231205455859
 30
0.0
 11
152.9925012647945
 21
96.4231205455859
 31
0.0
  0
LINE
  5
493
330
48E
100
AcDbEntity
  8
BEMASSUNG
 62
     2
440
 16777216
370
    -2
100
AcDbLine
 10
151.1925012647945
 20
84.9231205455859
 30
0.0
 11
151.1925012647945
 21
81.4231205455859
 31
0.0
  0
LINE
  5
494
330
48E
100
AcDbEntity
  8
BEMASSUNG
 62
     2
440
 16777216
370
    -2
100
AcDbLine
 10
151.1925012647945
 20
99.9231205455859
 30
0.0
 11
151.1925012647945
 21
103.4231205455859
 31
0.0
  0
SOLID
  5
495
330
48E
100
AcDbEntity
  8
BEMASSUNG
 62
     2
440
 16777216
100
AcDbTrace
 10
150.6091679314612
 20
84.9231205455859
 30
0.0
 11
151.7758345981278
 21
84.9231205455859
 31
0.0
 12
151.1925012647945
 22
88.4231205455859
 32
0.0
 13
151.1925012647945
 23
88.4231205455859
 33
0.0
  0
SOLID
  5
496
330
48E
100
AcDbEntity
  8
BEMASSUNG
 62
     2
440
 16777216
100
AcDbTrace
 10
150.6091679314612
 20
99.9231205455859
 30
0.0
 11
151.7758345981278
 21
99.9231205455859
 31
0.0
 12
151.1925012647945
 22
96.4231205455859
 32
0.0
 13
151.1925012647945
 23
96.4231205455859
 33
0.0
  0
MTEXT
  5
497
330
48E
100
AcDbEntity
  8
BEMASSUNG
 62
     3
440
 16777216
100
AcDbMText
 10
148.4425012647944
 20
92.42312054558592
 30
0.0
 40
3.5
 41
0.0
 46
0.0
 71
     5
 72
     1
  1
\A1;8
  7
NORM
 11
0.0000000000000001
 21
1.0
 31
0.0
 73
     1
 44
1.0
1001
ACAD
1000
MTEXTBEGIN
1070
    73
1070
     1
1070
    44
1040
1.0
1070
    74
1070
     0
1000
MTEXTEND
  0
POINT
  5
498
330
48E
100
AcDbEntity
  8
DEFPOINTS
 62
     0
440
 16777216
100
AcDbPoint
 10
141.5624505545766
 20
88.4231205455859
 30
0.0
  0
POINT
  5
499
330
48E
100
AcDbEntity
  8
DEFPOINTS
 62
     0
440
 16777216
100
AcDbPoint
 10
133.1624505545766
 20
96.4231205455859
 30
0.0
  0
POINT
  5
49A
330
48E
100
AcDbEntity
  8
DEFPOINTS
 62
     0
440
 16777216
100
AcDbPoint
 10
151.1925012647945
 20
96.4231205455859
 30
0.0
  0
ENDBLK
  5
490
330
48E
100
AcDbEntity
  8
0
100
AcDbBlockEnd
  0
BLOCK
  5
49C
330
49B
100
AcDbEntity
  8
0
100
AcDbBlockBegin
  2
*D36
 70
     1
 10
0.0
 20
0.0
 30
0.0
  3
*D36
  1

  0
LINE
  5
49E
330
49B
100
AcDbEntity
  8
BEMASSUNG
 62
     2
440
 16777216
370
    -2
100
AcDbLine
 10
141.5624505545766
 20
87.92312054558591
 30
0.0
 11
141.5624505545766
 21
76.64049112744094
 31
0.0
  0
LINE
  5
49F
330
49B
100
AcDbEntity
  8
BEMASSUNG
 62
     2
440
 16777216
370
    -2
100
AcDbLine
 10
119.5624505545766
 20
87.92312054558591
 30
0.0
 11
119.5624505545766
 21
76.64049112744094
 31
0.0
  0
LINE
  5
4A0
330
49B
100
AcDbEntity
  8
BEMASSUNG
 62
     2
440
 16777216
370
    -2
100
AcDbLine
 10
138.0624505545766
 20
78.44049112744094
 30
0.0
 11
123.0624505545766
 21
78.44049112744094
 31
0.0
  0
SOLID
  5
4A1
330
49B
100
AcDbEntity
  8
BEMASSUNG
 62
     2
440
 16777216
100
AcDbTrace
 10
138.0624505545766
 20
79.02382446077426
 30
0.0
 11
138.0624505545766
 21
77.85715779410761
 31
0.0
 12
141.5624505545766
 22
78.44049112744094
 32
0.0
 13
141.5624505545766
 23
78.44049112744094
 33
0.0
  0
SOLID
  5
4A2
330
49B
100
AcDbEntity
  8
BEMASSUNG
 62
     2
440
 16777216
100
AcDbTrace
 10
123.0624505545766
 20
79.02382446077426
 30
0.0
 11
123.0624505545766
 21
77.85715779410761
 31
0.0
 12
119.5624505545766
 22
78.44049112744094
 32
0.0
 13
119.5624505545766
 23
78.44049112744094
 33
0.0
  0
MTEXT
  5
4A3
330
49B
100
AcDbEntity
  8
BEMASSUNG
 62
     3
440
 16777216
100
AcDbMText
 10
130.5624505545766
 20
81.19049112744093
 30
0.0
 40
3.5
 41
0.0
 46
0.0
 71
     5
 72
     1
  1
\A1;22
  7
NORM
 73
     1
 44
1.0
1001
ACAD
1000
MTEXTBEGIN
1070
    73
1070
     1
1070
    44
1040
1.0
1070
    74
1070
     0
1000
MTEXTEND
  0
POINT
  5
4A4
330
49B
100
AcDbEntity
  8
DEFPOINTS
 62
     0
440
 16777216
100
AcDbPoint
 10
141.5624505545766
 20
88.4231205455859
 30
0.0
  0
POINT
  5
4A5
330
49B
100
AcDbEntity
  8
DEFPOINTS
 62
     0
440
 16777216
100
AcDbPoint
 10
119.5624505545766
 20
88.4231205455859
 30
0.0
  0
POINT
  5
4A6
330
49B
100
AcDbEntity
  8
DEFPOINTS
 62
     0
440
 16777216
100
AcDbPoint
 10
119.5624505545766
 20
78.44049112744094
 30
0.0
  0
ENDBLK
  5
49D
330
49B
100
AcDbEntity
  8
0
100
AcDbBlockEnd
  0
BLOCK
  5
4A8
330
4A7
100
AcDbEntity
  8
0
100
AcDbBlockBegin
  2
*D37
 70
     1
 10
0.0
 20
0.0
 30
0.0
  3
*D37
  1

  0
LINE
  5
4AA
330
4A7
100
AcDbEntity
  8
BEMASSUNG
 62
     2
440
 16777216
370
    -2
100
AcDbLine
 10
130.5624505545766
 20
243.5231205455859
 30
0.0
 11
130.5624505545766
 21
259.1490768955032
 31
0.0
  0
LINE
  5
4AB
330
4A7
100
AcDbEntity
  8
BEMASSUNG
 62
     2
440
 16777216
370
    -2
100
AcDbLine
 10
119.5624505545766
 20
248.9231205455859
 30
0.0
 11
119.5624505545766
 21
259.1490768955032
 31
0.0
  0
LINE
  5
4AC
330
4A7
100
AcDbEntity
  8
BEMASSUNG
 62
     2
440
 16777216
370
    -2
100
AcDbLine
 10
127.0624505545766
 20
257.3490768955032
 30
0.0
 11
123.0624505545766
 21
257.3490768955032
 31
0.0
  0
MTEXT
  5
4AD
330
4A7
100
AcDbEntity
  8
BEMASSUNG
 62
     3
440
 16777216
100
AcDbMText
 10
124.8565818325154
 20
261.6738662842826
 30
0.0
 40
3.5
 41
0.0
 46
0.0
 71
     5
 72
     1
  1
\A1;11
  7
NORM
 73
     1
 44
1.0
1001
ACAD
1000
MTEXTBEGIN
1070
    73
1070
     1
1070
    44
1040
1.0
1070
    74
1070
     0
1000
MTEXTEND
  0
SOLID
  5
4AE
330
4A7
100
AcDbEntity
  8
BEMASSUNG
 62
     2
440
 16777216
100
AcDbTrace
 10
127.0624505545766
 20
257.9324102288365
 30
0.0
 11
127.0624505545766
 21
256.7657435621699
 31
0.0
 12
130.5624505545766
 22
257.3490768955032
 32
0.0
 13
130.5624505545766
 23
257.3490768955032
 33
0.0
  0
SOLID
  5
4AF
330
4A7
100
AcDbEntity
  8
BEMASSUNG
 62
     2
440
 16777216
100
AcDbTrace
 10
123.0624505545766
 20
257.9324102288365
 30
0.0
 11
123.0624505545766
 21
256.7657435621699
 31
0.0
 12
119.5624505545766
 22
257.3490768955032
 32
0.0
 13
119.5624505545766
 23
257.3490768955032
 33
0.0
  0
POINT
  5
4B0
330
4A7
100
AcDbEntity
  8
DEFPOINTS
 62
     0
440
 16777216
100
AcDbPoint
 10
130.5624505545766
 20
243.0231205455859
 30
0.0
  0
POINT
  5
4B1
330
4A7
100
AcDbEntity
  8
DEFPOINTS
 62
     0
440
 16777216
100
AcDbPoint
 10
119.5624505545766
 20
248.4231205455859
 30
0.0
  0
POINT
  5
4B2
330
4A7
100
AcDbEntity
  8
DEFPOINTS
 62
     0
440
 16777216
100
AcDbPoint
 10
119.5624505545766
 20
257.3490768955032
 30
0.0
  0
ENDBLK
  5
4A9
330
4A7
100
AcDbEntity
  8
0
100
AcDbBlockEnd
  0
BLOCK
  5
4B4
330
4B3
100
AcDbEntity
  8
0
100
AcDbBlockBegin
  2
*D38
 70
     1
 10
0.0
 20
0.0
 30
0.0
  3
*D38
  1

  0
LINE
  5
4B6
330
4B3
100
AcDbEntity
  8
BEMASSUNG
 62
     2
440
 16777216
370
    -2
100
AcDbLine
 10
141.5624505545766
 20
248.9231205455859
 30
0.0
 11
141.5624505545766
 21
259.1490768955032
 31
0.0
  0
LINE
  5
4B7
330
4B3
100
AcDbEntity
  8
BEMASSUNG
 62
     2
440
 16777216
370
    -2
100
AcDbLine
 10
130.5624505545766
 20
243.5231205455859
 30
0.0
 11
130.5624505545766
 21
259.1490768955032
 31
0.0
  0
LINE
  5
4B8
330
4B3
100
AcDbEntity
  8
BEMASSUNG
 62
     2
440
 16777216
370
    -2
100
AcDbLine
 10
138.0624505545766
 20
257.3490768955032
 30
0.0
 11
134.0624505545766
 21
257.3490768955032
 31
0.0
  0
MTEXT
  5
4B9
330
4B3
100
AcDbEntity
  8
BEMASSUNG
 62
     3
440
 16777216
100
AcDbMText
 10
136.3669899008048
 20
261.382774690807
 30
0.0
 40
3.5
 41
0.0
 46
0.0
 71
     5
 72
     1
  1
\A1;11
  7
NORM
 73
     1
 44
1.0
1001
ACAD
1000
MTEXTBEGIN
1070
    73
1070
     1
1070
    44
1040
1.0
1070
    74
1070
     0
1000
MTEXTEND
  0
SOLID
  5
4BA
330
4B3
100
AcDbEntity
  8
BEMASSUNG
 62
     2
440
 16777216
100
AcDbTrace
 10
138.0624505545766
 20
257.9324102288365
 30
0.0
 11
138.0624505545766
 21
256.7657435621699
 31
0.0
 12
141.5624505545766
 22
257.3490768955032
 32
0.0
 13
141.5624505545766
 23
257.3490768955032
 33
0.0
  0
SOLID
  5
4BB
330
4B3
100
AcDbEntity
  8
BEMASSUNG
 62
     2
440
 16777216
100
AcDbTrace
 10
134.0624505545766
 20
257.9324102288365
 30
0.0
 11
134.0624505545766
 21
256.7657435621699
 31
0.0
 12
130.5624505545766
 22
257.3490768955032
 32
0.0
 13
130.5624505545766
 23
257.3490768955032
 33
0.0
  0
POINT
  5
4BC
330
4B3
100
AcDbEntity
  8
DEFPOINTS
 62
     0
440
 16777216
100
AcDbPoint
 10
141.5624505545766
 20
248.4231205455859
 30
0.0
  0
POINT
  5
4BD
330
4B3
100
AcDbEntity
  8
DEFPOINTS
 62
     0
440
 16777216
100
AcDbPoint
 10
130.5624505545766
 20
243.0231205455859
 30
0.0
  0
POINT
  5
4BE
330
4B3
100
AcDbEntity
  8
DEFPOINTS
 62
     0
440
 16777216
100
AcDbPoint
 10
130.5624505545766
 20
257.3490768955032
 30
0.0
  0
ENDBLK
  5
4B5
330
4B3
100
AcDbEntity
  8
0
100
AcDbBlockEnd
  0
BLOCK
  5
4C0
330
4BF
100
AcDbEntity
  8
0
100
AcDbBlockBegin
  2
*D39
 70
     1
 10
0.0
 20
0.0
 30
0.0
  3
*D39
  1

  0
LINE
  5
4C2
330
4BF
100
AcDbEntity
  8
BEMASSUNG
 62
     2
440
 16777216
370
    -2
100
AcDbLine
 10
125.0624505545766
 20
118.9305010601881
 30
0.0
 11
125.0624505545766
 21
120.3773955800909
 31
0.0
  0
LINE
  5
4C3
330
4BF
100
AcDbEntity
  8
BEMASSUNG
 62
     2
440
 16777216
370
    -2
100
AcDbLine
 10
119.5624505545766
 20
118.9305010601881
 30
0.0
 11
119.5624505545766
 21
120.3773955800909
 31
0.0
  0
LINE
  5
4C4
330
4BF
100
AcDbEntity
  8
BEMASSUNG
 62
     2
440
 16777216
370
    -2
100
AcDbLine
 10
128.5624505545766
 20
118.5773955800909
 30
0.0
 11
132.0624505545766
 21
118.5773955800909
 31
0.0
  0
LINE
  5
4C5
330
4BF
100
AcDbEntity
  8
BEMASSUNG
 62
     2
440
 16777216
370
    -2
100
AcDbLine
 10
116.0624505545766
 20
118.5773955800909
 30
0.0
 11
112.5624505545766
 21
118.5773955800909
 31
0.0
  0
MTEXT
  5
4C6
330
4BF
100
AcDbEntity
  8
BEMASSUNG
 62
     3
440
 16777216
100
AcDbMText
 10
115.1412881817696
 20
122.7028244258624
 30
0.0
 40
3.5
 41
0.0
 46
0.0
 71
     5
 72
     1
  1
\A1;5.5
  7
NORM
 73
     1
 44
1.0
1001
ACAD
1000
MTEXTBEGIN
1070
    73
1070
     1
1070
    44
1040
1.0
1070
    74
1070
     0
1000
MTEXTEND
  0
SOLID
  5
4C7
330
4BF
100
AcDbEntity
  8
BEMASSUNG
 62
     2
440
 16777216
100
AcDbTrace
 10
128.5624505545766
 20
119.1607289134242
 30
0.0
 11
128.5624505545766
 21
117.9940622467576
 31
0.0
 12
125.0624505545766
 22
118.5773955800909
 32
0.0
 13
125.0624505545766
 23
118.5773955800909
 33
0.0
  0
SOLID
  5
4C8
330
4BF
100
AcDbEntity
  8
BEMASSUNG
 62
     2
440
 16777216
100
AcDbTrace
 10
116.0624505545766
 20
119.1607289134242
 30
0.0
 11
116.0624505545766
 21
117.9940622467576
 31
0.0
 12
119.5624505545766
 22
118.5773955800909
 32
0.0
 13
119.5624505545766
 23
118.5773955800909
 33
0.0
  0
POINT
  5
4C9
330
4BF
100
AcDbEntity
  8
DEFPOINTS
 62
     0
440
 16777216
100
AcDbPoint
 10
125.0624505545766
 20
118.4305010601881
 30
0.0
  0
POINT
  5
4CA
330
4BF
100
AcDbEntity
  8
DEFPOINTS
 62
     0
440
 16777216
100
AcDbPoint
 10
119.5624505545766
 20
118.4305010601881
 30
0.0
  0
POINT
  5
4CB
330
4BF
100
AcDbEntity
  8
DEFPOINTS
 62
     0
440
 16777216
100
AcDbPoint
 10
119.5624505545766
 20
118.5773955800909
 30
0.0
  0
ENDBLK
  5
4C1
330
4BF
100
AcDbEntity
  8
0
100
AcDbBlockEnd
  0
BLOCK
  5
4CD
330
4CC
100
AcDbEntity
  8
0
100
AcDbBlockBegin
  2
*D40
 70
     1
 10
0.0
 20
0.0
 30
0.0
  3
*D40
  1

  0
LINE
  5
4CF
330
4CC
100
AcDbEntity
  8
BEMASSUNG
 62
     2
440
 16777216
370
    -2
100
AcDbLine
 10
124.0624505545766
 20
205.8703495101765
 30
0.0
 11
124.0624505545766
 21
207.2502586546111
 31
0.0
  0
LINE
  5
4D0
330
4CC
100
AcDbEntity
  8
BEMASSUNG
 62
     2
440
 16777216
370
    -2
100
AcDbLine
 10
119.5624505545766
 20
205.8703495101765
 30
0.0
 11
119.5624505545766
 21
207.2502586546111
 31
0.0
  0
LINE
  5
4D1
330
4CC
100
AcDbEntity
  8
BEMASSUNG
 62
     2
440
 16777216
370
    -2
100
AcDbLine
 10
127.5624505545766
 20
205.4502586546111
 30
0.0
 11
131.0624505545766
 21
205.4502586546111
 31
0.0
  0
LINE
  5
4D2
330
4CC
100
AcDbEntity
  8
BEMASSUNG
 62
     2
440
 16777216
370
    -2
100
AcDbLine
 10
116.0624505545766
 20
205.4502586546111
 30
0.0
 11
112.5624505545766
 21
205.4502586546111
 31
0.0
  0
MTEXT
  5
4D3
330
4CC
100
AcDbEntity
  8
BEMASSUNG
 62
     3
440
 16777216
100
AcDbMText
 10
115.6573460771483
 20
209.5256290981872
 30
0.0
 40
3.5
 41
0.0
 46
0.0
 71
     5
 72
     1
  1
\A1;4.5
  7
NORM
 73
     1
 44
1.0
1001
ACAD
1000
MTEXTBEGIN
1070
    73
1070
     1
1070
    44
1040
1.0
1070
    74
1070
     0
1000
MTEXTEND
  0
SOLID
  5
4D4
330
4CC
100
AcDbEntity
  8
BEMASSUNG
 62
     2
440
 16777216
100
AcDbTrace
 10
127.5624505545766
 20
206.0335919879444
 30
0.0
 11
127.5624505545766
 21
204.8669253212778
 31
0.0
 12
124.0624505545766
 22
205.4502586546111
 32
0.0
 13
124.0624505545766
 23
205.4502586546111
 33
0.0
  0
SOLID
  5
4D5
330
4CC
100
AcDbEntity
  8
BEMASSUNG
 62
     2
440
 16777216
100
AcDbTrace
 10
116.0624505545766
 20
206.0335919879444
 30
0.0
 11
116.0624505545766
 21
204.8669253212778
 31
0.0
 12
119.5624505545766
 22
205.4502586546111
 32
0.0
 13
119.5624505545766
 23
205.4502586546111
 33
0.0
  0
POINT
  5
4D6
330
4CC
100
AcDbEntity
  8
DEFPOINTS
 62
     0
440
 16777216
100
AcDbPoint
 10
124.0624505545766
 20
205.3703495101765
 30
0.0
  0
POINT
  5
4D7
330
4CC
100
AcDbEntity
  8
DEFPOINTS
 62
     0
440
 16777216
100
AcDbPoint
 10
119.5624505545766
 20
205.3703495101765
 30
0.0
  0
POINT
  5
4D8
330
4CC
100
AcDbEntity
  8
DEFPOINTS
 62
     0
440
 16777216
100
AcDbPoint
 10
119.5624505545766
 20
205.4502586546111
 30
0.0
  0
ENDBLK
  5
4CE
330
4CC
100
AcDbEntity
  8
0
100
AcDbBlockEnd
  0
BLOCK
  5
5EC
330
5EB
100
AcDbEntity
  8
0
100
AcDbBlockBegin
  2
*D43
 70
     1
 10
0.0
 20
0.0
 30
0.0
  3
*D43
  1

  0
LINE
  5
61E
330
5EB
100
AcDbEntity
  8
BEMASSUNG
 62
     2
440
 16777216
370
    -2
100
AcDbLine
 10
54.82554585352175
 20
91.67312054558591
 30
0.0
 11
49.09031421239003
 21
91.67312054558591
 31
0.0
  0
LINE
  5
61F
330
5EB
100
AcDbEntity
  8
BEMASSUNG
 62
     2
440
 16777216
370
    -2
100
AcDbLine
 10
54.82554585352175
 20
101.1731205455859
 30
0.0
 11
49.09031421239003
 21
101.1731205455859
 31
0.0
  0
LINE
  5
620
330
5EB
100
AcDbEntity
  8
BEMASSUNG
 62
     2
440
 16777216
370
    -2
100
AcDbLine
 10
50.89031421239003
 20
88.17312054558589
 30
0.0
 11
50.89031421239003
 21
84.6731205455859
 31
0.0
  0
LINE
  5
621
330
5EB
100
AcDbEntity
  8
BEMASSUNG
 62
     2
440
 16777216
370
    -2
100
AcDbLine
 10
50.89031421239003
 20
104.6731205455859
 30
0.0
 11
50.89031421239003
 21
108.1731205455859
 31
0.0
  0
SOLID
  5
622
330
5EB
100
AcDbEntity
  8
BEMASSUNG
 62
     2
440
 16777216
100
AcDbTrace
 10
50.30698087905669
 20
88.17312054558589
 30
0.0
 11
51.47364754572336
 21
88.17312054558589
 31
0.0
 12
50.89031421239003
 22
91.67312054558591
 32
0.0
 13
50.89031421239003
 23
91.67312054558591
 33
0.0
  0
SOLID
  5
623
330
5EB
100
AcDbEntity
  8
BEMASSUNG
 62
     2
440
 16777216
100
AcDbTrace
 10
50.30698087905669
 20
104.6731205455859
 30
0.0
 11
51.47364754572336
 21
104.6731205455859
 31
0.0
 12
50.89031421239003
 22
101.1731205455859
 32
0.0
 13
50.89031421239003
 23
101.1731205455859
 33
0.0
  0
MTEXT
  5
624
330
5EB
100
AcDbEntity
  8
BEMASSUNG
 62
     3
440
 16777216
100
AcDbMText
 10
48.14031421239
 20
96.42312054558592
 30
0.0
 40
3.5
 41
0.0
 46
0.0
 71
     5
 72
     1
  1
\A1;%%c9.5x90°
  7
NORM
 11
0.0000000000000001
 21
1.0
 31
0.0
 73
     1
 44
1.0
  0
POINT
  5
625
330
5EB
100
AcDbEntity
  8
DEFPOINTS
 62
     0
440
 16777216
100
AcDbPoint
 10
55.32554585352176
 20
91.67312054558591
 30
0.0
  0
POINT
  5
626
330
5EB
100
AcDbEntity
  8
DEFPOINTS
 62
     0
440
 16777216
100
AcDbPoint
 10
55.32554585352176
 20
101.1731205455859
 30
0.0
  0
POINT
  5
627
330
5EB
100
AcDbEntity
  8
DEFPOINTS
 62
     0
440
 16777216
100
AcDbPoint
 10
50.89031421239003
 20
101.1731205455859
 30
0.0
  0
ENDBLK
  5
5ED
330
5EB
100
AcDbEntity
  8
0
100
AcDbBlockEnd
  0
ENDSEC
  0
SECTION
  2
ENTITIES
  0
DIMENSION
  5
2E
330
2
100
AcDbEntity
  8
BEMASSUNG
100
AcDbDimension
280
     0
  2
*D40
 10
119.5624505545766
 20
205.4502586546111
 30
0.0
 11
115.6573460771483
 21
209.5256290981872
 31
0.0
 70
   160
 71
     5
 42
4.5
 73
     0
 74
     0
 75
     0
  3
CADIMENU
100
AcDbAlignedDimension
 13
124.0624505545766
 23
205.3703495101765
 33
0.0
 14
119.5624505545766
 24
205.3703495101765
 34
0.0
 50
180.0
100
AcDbRotatedDimension
1001
ACAD
1000
DSTYLE
1002
{
1070
    42
1040
0.5
1070
    43
1040
0.0
1070
   176
1070
     2
1070
   177
1070
     2
1070
   178
1070
     3
1002
}
  0
DIMENSION
  5
3D
330
2
100
AcDbEntity
  8
BEMASSUNG
100
AcDbDimension
280
     0
  2
*D39
 10
119.5624505545766
 20
118.5773955800909
 30
0.0
 11
115.1412881817696
 21
122.7028244258624
 31
0.0
 70
   160
 71
     5
 42
5.5
 73
     0
 74
     0
 75
     0
  3
CADIMENU
100
AcDbAlignedDimension
 13
125.0624505545766
 23
118.4305010601881
 33
0.0
 14
119.5624505545766
 24
118.4305010601881
 34
0.0
 50
180.0
100
AcDbRotatedDimension
1001
ACAD
1000
DSTYLE
1002
{
1070
    42
1040
0.5
1070
    43
1040
0.0
1070
   176
1070
     2
1070
   177
1070
     2
1070
   178
1070
     3
1002
}
  0
LINE
  5
4B
330
2
100
AcDbEntity
  8
UMRISS05
100
AcDbLine
 10
58.32554585352176
 20
248.4231205455859
 30
0.0
 11
58.32554585352176
 21
88.4231205455859
 31
0.0
  0
LINE
  5
4D
330
2
100
AcDbEntity
  8
ACHSEN
100
AcDbLine
 10
62.29295744787776
 20
240.4231205455859
 30
0.0
 11
53.29295744787777
 21
240.4231205455859
 31
0.0
  0
LINE
  5
50
330
2
100
AcDbEntity
  8
ACHSEN
100
AcDbLine
 10
62.29295744787776
 20
169.4231205455859
 30
0.0
 11
53.29295744787777
 21
169.4231205455859
 31
0.0
  0
LINE
  5
51
330
2
100
AcDbEntity
  8
ACHSEN
100
AcDbLine
 10
62.29295744787776
 20
96.4231205455859
 30
0.0
 11
53.29295744787777
 21
96.4231205455859
 31
0.0
  0
LINE
  5
52
330
2
100
AcDbEntity
  8
AVERDECKTE
100
AcDbLine
 10
58.32554585352167
 20
99.02312054558585
 30
0.0
 11
57.47554585352176
 21
99.02312054558585
 31
0.0
  0
LINE
  5
55
330
2
100
AcDbEntity
  8
AVERDECKTE
100
AcDbLine
 10
58.32554585352167
 20
93.82312054558587
 30
0.0
 11
57.47554585352176
 21
93.82312054558587
 31
0.0
  0
DIMENSION
  5
56
330
2
100
AcDbEntity
  8
BEMASSUNG
100
AcDbDimension
280
     0
  2
*D38
 10
130.5624505545766
 20
257.3490768955032
 30
0.0
 11
136.3669899008048
 21
261.382774690807
 31
0.0
 70
   160
 71
     5
 42
11.0
 73
     0
 74
     0
 75
     0
  3
CADIMENU
100
AcDbAlignedDimension
 13
141.5624505545766
 23
248.4231205455859
 33
0.0
 14
130.5624505545766
 24
243.0231205455859
 34
0.0
 50
180.0
100
AcDbRotatedDimension
1001
ACAD
1000
DSTYLE
1002
{
1070
    42
1040
0.5
1070
    43
1040
0.0
1070
   176
1070
     2
1070
   177
1070
     2
1070
   178
1070
     3
1002
}
  0
DIMENSION
  5
63
330
2
100
AcDbEntity
  8
BEMASSUNG
100
AcDbDimension
280
     0
  2
*D37
 10
119.5624505545766
 20
257.3490768955032
 30
0.0
 11
124.8565818325154
 21
261.6738662842826
 31
0.0
 70
   160
 71
     5
 42
10.99999999999997
 73
     0
 74
     0
 75
     0
  3
CADIMENU
100
AcDbAlignedDimension
 13
130.5624505545766
 23
243.0231205455859
 33
0.0
 14
119.5624505545766
 24
248.4231205455859
 34
0.0
 50
180.0
100
AcDbRotatedDimension
1001
ACAD
1000
DSTYLE
1002
{
1070
    42
1040
0.5
1070
    43
1040
0.0
1070
   176
1070
     2
1070
   177
1070
     2
1070
   178
1070
     3
1002
}
  0
DIMENSION
  5
70
330
2
100
AcDbEntity
  8
BEMASSUNG
100
AcDbDimension
280
     0
  2
*D36
 10
119.5624505545766
 20
78.44049112744094
 30
0.0
 11
130.5624505545766
 21
81.19049112744093
 31
0.0
 70
    32
 71
     5
 42
21.99999999999997
 73
     0
 74
     0
 75
     0
  3
CADIMENU
100
AcDbAlignedDimension
 13
141.5624505545766
 23
88.4231205455859
 33
0.0
 14
119.5624505545766
 24
88.4231205455859
 34
0.0
 50
180.0
100
AcDbRotatedDimension
1001
ACAD
1000
DSTYLE
1002
{
1070
    42
1040
0.5
1070
    43
1040
0.0
1070
   176
1070
     2
1070
   177
1070
     2
1070
   178
1070
     3
1002
}
  0
DIMENSION
  5
7D
330
2
100
AcDbEntity
  8
BEMASSUNG
100
AcDbDimension
280
     0
  2
*D35
 10
151.1925012647945
 20
96.4231205455859
 30
0.0
 11
148.4425012647944
 21
92.42312054558592
 31
0.0
 70
    32
 71
     5
 42
8.0
 73
     0
 74
     0
 75
     0
  3
CADIMENU
100
AcDbAlignedDimension
 13
141.5624505545766
 23
88.4231205455859
 33
0.0
 14
133.1624505545766
 24
96.4231205455859
 34
0.0
 50
90.0
100
AcDbRotatedDimension
1001
ACAD
1000
DSTYLE
1002
{
1070
    42
1040
0.5
1070
    43
1040
0.0
1070
   176
1070
     2
1070
   177
1070
     2
1070
   178
1070
     3
1002
}
  0
DIMENSION
  5
8B
330
2
100
AcDbEntity
  8
BEMASSUNG
100
AcDbDimension
280
     0
  2
*D34
 10
151.1925012647945
 20
169.4231205455859
 30
0.0
 11
148.4425012647944
 21
132.9231205455859
 31
0.0
 70
    32
 71
     5
 42
73.0
 73
     0
 74
     0
 75
     0
  3
CADIMENU
100
AcDbAlignedDimension
 13
133.1624505545766
 23
96.4231205455859
 33
0.0
 14
133.1624505545766
 24
169.4231205455859
 34
0.0
 50
90.0
100
AcDbRotatedDimension
1001
ACAD
1000
DSTYLE
1002
{
1070
    42
1040
0.5
1070
    43
1040
0.0
1070
   176
1070
     2
1070
   177
1070
     2
1070
   178
1070
     3
1002
}
  0
DIMENSION
  5
98
330
2
100
AcDbEntity
  8
BEMASSUNG
100
AcDbDimension
280
     0
  2
*D33
 10
151.1925012647945
 20
240.4231205455859
 30
0.0
 11
148.4425012647944
 21
204.9231205455859
 31
0.0
 70
    32
 71
     5
 42
71.0
 73
     0
 74
     0
 75
     0
  3
CADIMENU
100
AcDbAlignedDimension
 13
133.1624505545766
 23
169.4231205455859
 33
0.0
 14
133.1624505545766
 24
240.4231205455859
 34
0.0
 50
90.0
100
AcDbRotatedDimension
1001
ACAD
1000
DSTYLE
1002
{
1070
    42
1040
0.5
1070
    43
1040
0.0
1070
   176
1070
     2
1070
   177
1070
     2
1070
   178
1070
     3
1002
}
  0
DIMENSION
  5
A5
330
2
100
AcDbEntity
  8
BEMASSUNG
100
AcDbDimension
280
     0
  2
*D32
 10
151.1925012647945
 20
248.4231205455859
 30
0.0
 11
148.4425012647944
 21
244.4231205455859
 31
0.0
 70
    32
 71
     5
 42
8.0
 73
     0
 74
     0
 75
     0
  3
CADIMENU
100
AcDbAlignedDimension
 13
133.1624505545766
 23
240.4231205455859
 33
0.0
 14
141.5624505545766
 24
248.4231205455859
 34
0.0
 50
90.0
100
AcDbRotatedDimension
1001
ACAD
1000
DSTYLE
1002
{
1070
    42
1040
0.5
1070
    43
1040
0.0
1070
   176
1070
     2
1070
   177
1070
     2
1070
   178
1070
     3
1002
}
  0
DIMENSION
  5
B3
330
2
100
AcDbEntity
  8
BEMASSUNG
100
AcDbDimension
280
     0
  2
*D31
 10
160.6961263546017
 20
248.4231205455859
 30
0.0
 11
157.6487929321004
 21
169.4231205455859
 31
0.0
 70
   160
 71
     5
 42
160.0
 73
     0
 74
     0
 75
     0
  3
CADIMENU
100
AcDbAlignedDimension
 13
141.5624505545766
 23
88.4231205455859
 33
0.0
 14
141.5624505545766
 24
248.4231205455859
 34
0.0
 50
90.0
100
AcDbRotatedDimension
1001
ACAD
1000
DSTYLE
1002
{
1070
    42
1040
0.5
1070
    43
1040
0.0
1070
   176
1070
     2
1070
   177
1070
     2
1070
   178
1070
     3
1002
}
  0
DIMENSION
  5
C0
330
2
100
AcDbEntity
  8
BEMASSUNG
100
AcDbDimension
280
     0
  2
*D30
 10
109.1680498093858
 20
105.9231205455859
 30
0.0
 11
106.1298195324466
 21
95.17312054558628
 31
0.0
 70
   160
 71
     5
 42
17.5
 73
     0
 74
     0
 75
     0
  3
CADIMENU
100
AcDbAlignedDimension
 13
119.5624505545766
 23
88.4231205455859
 33
0.0
 14
125.0624505545766
 24
105.9231205455859
 34
0.0
 50
90.0
100
AcDbRotatedDimension
1001
ACAD
1000
DSTYLE
1002
{
1070
    42
1040
0.5
1070
    43
1040
0.0
1070
   176
1070
     2
1070
   177
1070
     2
1070
   178
1070
     3
1002
}
  0
DIMENSION
  5
CD
330
2
100
AcDbEntity
  8
BEMASSUNG
100
AcDbDimension
280
     0
  2
*D29
 10
109.1680498093858
 20
143.9231205455859
 30
0.0
 11
106.1298195324466
 21
130.9848017506409
 31
0.0
 70
   160
 71
     5
 42
38.0
 73
     0
 74
     0
 75
     0
  3
CADIMENU
100
AcDbAlignedDimension
 13
125.0624505545766
 23
105.9231205455859
 33
0.0
 14
125.0624505545766
 24
143.9231205455859
 34
0.0
 50
90.0
100
AcDbRotatedDimension
1001
ACAD
1000
DSTYLE
1002
{
1070
    42
1040
0.5
1070
    43
1040
0.0
1070
   176
1070
     2
1070
   177
1070
     2
1070
   178
1070
     3
1002
}
  0
DIMENSION
  5
DA
330
2
100
AcDbEntity
  8
BEMASSUNG
100
AcDbDimension
280
     0
  2
*D28
 10
109.1680498093858
 20
194.9231205455859
 30
0.0
 11
106.1298195324466
 21
170.4231205455859
 31
0.0
 70
   160
 71
     5
 42
51.0
 73
     0
 74
     0
 75
     0
  3
CADIMENU
100
AcDbAlignedDimension
 13
125.0624505545766
 23
143.9231205455859
 33
0.0
 14
124.0624505545766
 24
194.9231205455859
 34
0.0
 50
90.0
100
AcDbRotatedDimension
1001
ACAD
1000
DSTYLE
1002
{
1070
    42
1040
0.5
1070
    43
1040
0.0
1070
   176
1070
     2
1070
   177
1070
     2
1070
   178
1070
     3
1002
}
  0
DIMENSION
  5
E7
330
2
100
AcDbEntity
  8
BEMASSUNG
100
AcDbDimension
280
     0
  2
*D27
 10
109.1680498093858
 20
230.9231205455859
 30
0.0
 11
106.1298195324466
 21
219.8090047057352
 31
0.0
 70
   160
 71
     5
 42
36.0
 73
     0
 74
     0
 75
     0
  3
CADIMENU
100
AcDbAlignedDimension
 13
124.0624505545766
 23
194.9231205455859
 33
0.0
 14
124.0624505545766
 24
230.9231205455859
 34
0.0
 50
90.0
100
AcDbRotatedDimension
1001
ACAD
1000
DSTYLE
1002
{
1070
    42
1040
0.5
1070
    43
1040
0.0
1070
   176
1070
     2
1070
   177
1070
     2
1070
   178
1070
     3
1002
}
  0
DIMENSION
  5
F4
330
2
100
AcDbEntity
  8
BEMASSUNG
100
AcDbDimension
280
     0
  2
*D26
 10
109.1680498093858
 20
248.4231205455859
 30
0.0
 11
106.1298195324466
 21
241.6731205455859
 31
0.0
 70
   160
 71
     5
 42
17.5
 73
     0
 74
     0
 75
     0
  3
CADIMENU
100
AcDbAlignedDimension
 13
124.0624505545766
 23
230.9231205455859
 33
0.0
 14
119.5624505545766
 24
248.4231205455859
 34
0.0
 50
90.0
100
AcDbRotatedDimension
1001
ACAD
1000
DSTYLE
1002
{
1070
    42
1040
0.5
1070
    43
1040
0.0
1070
   176
1070
     2
1070
   177
1070
     2
1070
   178
1070
     3
1002
}
  0
LINE
  5
101
330
2
100
AcDbEntity
  8
AVERDECKTE
100
AcDbLine
 10
58.32554585352176
 20
230.9231205455859
 30
0.0
 11
55.32554585352176
 21
230.9231205455859
 31
0.0
  0
LINE
  5
102
330
2
100
AcDbEntity
  8
AVERDECKTE
100
AcDbLine
 10
58.32554585352176
 20
194.9231205455859
 30
0.0
 11
55.32554585352176
 21
194.9231205455859
 31
0.0
  0
LINE
  5
103
330
2
100
AcDbEntity
  8
AVERDECKTE
100
AcDbLine
 10
58.32554585352176
 20
143.9231205455859
 30
0.0
 11
55.32554585352176
 21
143.9231205455859
 31
0.0
  0
LINE
  5
104
330
2
100
AcDbEntity
  8
AVERDECKTE
100
AcDbLine
 10
58.32554585352176
 20
105.9231205455859
 30
0.0
 11
55.32554585352167
 21
105.9231205455859
 31
0.0
  0
DIMENSION
  5
105
330
2
100
AcDbEntity
  8
BEMASSUNG
100
AcDbDimension
280
     0
  2
*D25
 10
76.57554585352179
 20
99.02312054558585
 30
0.0
 11
73.82554585352176
 21
96.42312054558587
 31
0.0
 70
    32
  1
%%C5.2
 71
     5
 42
5.19999999999996
 73
     0
 74
     0
 75
     0
  3
CADIMENU
100
AcDbAlignedDimension
 13
58.32554585352167
 23
93.82312054558587
 33
0.0
 14
58.32554585352176
 24
99.02312054558585
 34
0.0
 50
90.0
100
AcDbRotatedDimension
1001
ACAD
1000
DSTYLE
1002
{
1070
    42
1040
0.5
1070
    43
1040
0.0
1070
   176
1070
     2
1070
   177
1070
     2
1070
   178
1070
     3
1002
}
  0
LINE
  5
113
330
2
100
AcDbEntity
  8
UMRISS05
100
AcDbLine
 10
55.32554585352176
 20
248.4231205455859
 30
0.0
 11
67.32554585352179
 21
248.4231205455859
 31
0.0
  0
LINE
  5
114
330
2
100
AcDbEntity
  8
UMRISS05
100
AcDbLine
 10
55.32554585352176
 20
88.4231205455859
 30
0.0
 11
67.32554585352179
 21
88.4231205455859
 31
0.0
  0
LINE
  5
115
330
2
100
AcDbEntity
  8
UMRISS05
100
AcDbLine
 10
67.32554585352179
 20
248.4231205455859
 30
0.0
 11
67.32554585352179
 21
88.4231205455859
 31
0.0
  0
LINE
  5
116
330
2
100
AcDbEntity
  8
UMRISS05
100
AcDbLine
 10
55.32554585352176
 20
248.4231205455859
 30
0.0
 11
55.32554585352176
 21
88.4231205455859
 31
0.0
  0
DIMENSION
  5
117
330
2
100
AcDbEntity
  8
BEMASSUNG
100
AcDbDimension
280
     0
  2
*D24
 10
55.32554585352176
 20
257.3490768955032
 30
0.0
 11
56.82554585352176
 21
260.0990768955032
 31
0.0
 70
    32
 71
     5
 42
3.0
 73
     0
 74
     0
 75
     0
  3
CADIMENU
100
AcDbAlignedDimension
 13
58.32554585352176
 23
248.4231205455859
 33
0.0
 14
55.32554585352176
 24
248.4231205455859
 34
0.0
 50
180.0
100
AcDbRotatedDimension
1001
ACAD
1000
DSTYLE
1002
{
1070
    42
1040
0.5
1070
    43
1040
0.0
1070
   178
1070
     3
1070
   177
1070
     2
1070
   176
1070
     2
1002
}
  0
LINE
  5
125
330
2
100
AcDbEntity
  8
AVERDECKTE
100
AcDbLine
 10
55.32554585352176
 20
101.1731205455859
 30
0.0
 11
57.47554585352176
 21
99.02312054558585
 31
0.0
  0
LINE
  5
126
330
2
100
AcDbEntity
  8
AVERDECKTE
100
AcDbLine
 10
55.32554585352176
 20
91.67312054558591
 30
0.0
 11
57.47554585352176
 21
93.82312054558587
 31
0.0
  0
LINE
  5
127
330
2
100
AcDbEntity
  8
AVERDECKTE
100
AcDbLine
 10
57.47554585352176
 20
93.82312054558587
 30
0.0
 11
57.47554585352176
 21
99.02312054558585
 31
0.0
  0
LINE
  5
128
330
2
100
AcDbEntity
  8
AVERDECKTE
100
AcDbLine
 10
58.32554585352176
 20
166.8231205455859
 30
0.0
 11
57.47554585352176
 21
166.8231205455859
 31
0.0
  0
LINE
  5
129
330
2
100
AcDbEntity
  8
AVERDECKTE
100
AcDbLine
 10
58.32554585352176
 20
172.0231205455859
 30
0.0
 11
57.47554585352176
 21
172.0231205455859
 31
0.0
  0
LINE
  5
12A
330
2
100
AcDbEntity
  8
AVERDECKTE
100
AcDbLine
 10
57.47554585352176
 20
166.8231205455859
 30
0.0
 11
57.47554585352176
 21
172.0231205455859
 31
0.0
  0
LINE
  5
12B
330
2
100
AcDbEntity
  8
AVERDECKTE
100
AcDbLine
 10
55.32554585352176
 20
164.6731205455859
 30
0.0
 11
57.47554585352176
 21
166.8231205455859
 31
0.0
  0
LINE
  5
12C
330
2
100
AcDbEntity
  8
AVERDECKTE
100
AcDbLine
 10
55.32554585352176
 20
174.1731205455859
 30
0.0
 11
57.47554585352176
 21
172.0231205455859
 31
0.0
  0
LINE
  5
12D
330
2
100
AcDbEntity
  8
AVERDECKTE
100
AcDbLine
 10
58.32554585352176
 20
237.8231205455859
 30
0.0
 11
57.47554585352176
 21
237.8231205455859
 31
0.0
  0
LINE
  5
12E
330
2
100
AcDbEntity
  8
AVERDECKTE
100
AcDbLine
 10
58.32554585352176
 20
243.0231205455859
 30
0.0
 11
57.47554585352176
 21
243.0231205455859
 31
0.0
  0
LINE
  5
12F
330
2
100
AcDbEntity
  8
AVERDECKTE
100
AcDbLine
 10
57.47554585352176
 20
237.8231205455859
 30
0.0
 11
57.47554585352176
 21
243.0231205455859
 31
0.0
  0
LINE
  5
130
330
2
100
AcDbEntity
  8
AVERDECKTE
100
AcDbLine
 10
55.32554585352176
 20
235.673120545586
 30
0.0
 11
57.47554585352176
 21
237.8231205455859
 31
0.0
  0
LINE
  5
131
330
2
100
AcDbEntity
  8
AVERDECKTE
100
AcDbLine
 10
55.32554585352176
 20
245.1731205455859
 30
0.0
 11
57.47554585352176
 21
243.0231205455859
 31
0.0
  0
POINT
  5
139
330
2
100
AcDbEntity
  8
DEFPOINTS
  6
ByBlock
 62
     0
100
AcDbPoint
 10
55.32554585352176
 20
91.67312054558591
 30
0.0
 50
180.0
  0
LINE
  5
13E
330
2
100
AcDbEntity
  8
UMRISS05
100
AcDbLine
 10
136.0624505545766
 20
105.9231205455859
 30
0.0
 11
136.0624505545766
 21
143.9231205455859
 31
0.0
  0
LINE
  5
13F
330
2
100
AcDbEntity
  8
UMRISS05
100
AcDbLine
 10
125.0624505545766
 20
143.9231205455859
 30
0.0
 11
125.0624505545766
 21
105.9231205455859
 31
0.0
  0
LINE
  5
140
330
2
100
AcDbEntity
  8
UMRISS05
100
AcDbLine
 10
141.5624505545766
 20
88.4231205455859
 30
0.0
 11
141.5624505545766
 21
248.4231205455859
 31
0.0
  0
LINE
  5
141
330
2
100
AcDbEntity
  8
AVERDECKTE
100
AcDbLine
 10
122.0624505545766
 20
248.4231205455859
 30
0.0
 11
122.0624505545766
 21
88.4231205455859
 31
0.0
  0
LINE
  5
142
330
2
100
AcDbEntity
  8
UMRISS05
100
AcDbLine
 10
119.5624505545766
 20
248.4231205455859
 30
0.0
 11
119.5624505545766
 21
88.4231205455859
 31
0.0
  0
CIRCLE
  5
143
330
2
100
AcDbEntity
  8
UMRISS05
100
AcDbCircle
 10
130.5624505545766
 20
96.4231205455859
 30
0.0
 40
4.75
  0
DIMENSION
  5
144
330
2
100
AcDbEntity
  8
BEMASSUNG
100
AcDbDimension
280
     0
  2
*D23
 10
125.0624505545766
 20
118.5631833661942
 30
0.0
 11
130.9081242857625
 21
122.8775766266352
 31
0.0
 70
   160
 71
     5
 42
11.0
 73
     0
 74
     0
 75
     0
  3
CADIMENU
100
AcDbAlignedDimension
 13
136.0624505545766
 23
105.9231205455859
 33
0.0
 14
125.0624505545766
 24
105.9231205455859
 34
0.0
 50
180.0
100
AcDbRotatedDimension
1001
ACAD
1000
DSTYLE
1002
{
1070
    42
1040
0.5
1070
    43
1040
0.0
1070
   178
1070
     3
1070
   177
1070
     2
1070
   176
1070
     2
1002
}
  0
LINE
  5
151
330
2
100
AcDbEntity
  8
UMRISS05
100
AcDbLine
 10
136.0624505545766
 20
105.9231205455859
 30
0.0
 11
125.0624505545766
 21
105.9231205455859
 31
0.0
  0
LINE
  5
152
330
2
100
AcDbEntity
  8
UMRISS05
100
AcDbLine
 10
119.5624505545766
 20
88.4231205455859
 30
0.0
 11
141.5624505545766
 21
88.4231205455859
 31
0.0
  0
LINE
  5
153
330
2
100
AcDbEntity
  8
ACHSEN
100
AcDbLine
 10
130.5624505545766
 20
96.4231205455859
 30
0.0
 11
135.1624505545766
 21
96.4231205455859
 31
0.0
  0
LINE
  5
154
330
2
100
AcDbEntity
  8
ACHSEN
100
AcDbLine
 10
130.5624505545766
 20
96.4231205455859
 30
0.0
 11
125.9624505545766
 21
96.4231205455859
 31
0.0
  0
CIRCLE
  5
155
330
2
100
AcDbEntity
  8
UMRISS05
100
AcDbCircle
 10
130.5624505545766
 20
96.4231205455859
 30
0.0
 40
2.6
  0
LINE
  5
156
330
2
100
AcDbEntity
  8
ACHSEN
100
AcDbLine
 10
130.5624505545766
 20
96.4231205455859
 30
0.0
 11
130.5624505545766
 21
91.82312054558591
 31
0.0
  0
LINE
  5
157
330
2
100
AcDbEntity
  8
ACHSEN
100
AcDbLine
 10
130.5624505545766
 20
96.4231205455859
 30
0.0
 11
130.5624505545766
 21
101.0231205455859
 31
0.0
  0
LINE
  5
158
330
2
100
AcDbEntity
  8
UMRISS05
100
AcDbLine
 10
137.0624505545766
 20
194.9231205455858
 30
0.0
 11
137.0624505545766
 21
230.9231205455859
 31
0.0
  0
LINE
  5
159
330
2
100
AcDbEntity
  8
UMRISS05
100
AcDbLine
 10
124.0624505545766
 20
230.9231205455859
 30
0.0
 11
124.0624505545766
 21
194.9231205455859
 31
0.0
  0
CIRCLE
  5
15A
330
2
100
AcDbEntity
  8
UMRISS05
100
AcDbCircle
 10
130.5624505545766
 20
169.4231205455859
 30
0.0
 40
4.75
  0
DIMENSION
  5
15B
330
2
100
AcDbEntity
  8
BEMASSUNG
100
AcDbDimension
280
     0
  2
*D22
 10
124.0624505545766
 20
205.4540240186425
 30
0.0
 11
130.0451036266224
 21
209.477325685608
 31
0.0
 70
   160
 71
     5
 42
13.0
 73
     0
 74
     0
 75
     0
  3
CADIMENU
100
AcDbAlignedDimension
 13
137.0624505545766
 23
194.9231205455858
 33
0.0
 14
124.0624505545766
 24
194.9231205455859
 34
0.0
 50
180.0
100
AcDbRotatedDimension
1001
ACAD
1000
DSTYLE
1002
{
1070
    42
1040
0.5
1070
    43
1040
0.0
1070
   178
1070
     3
1070
   177
1070
     2
1070
   176
1070
     2
1002
}
  0
LINE
  5
168
330
2
100
AcDbEntity
  8
UMRISS05
100
AcDbLine
 10
136.0624505545766
 20
143.9231205455859
 30
0.0
 11
125.0624505545766
 21
143.9231205455859
 31
0.0
  0
LINE
  5
169
330
2
100
AcDbEntity
  8
UMRISS05
100
AcDbLine
 10
137.0624505545766
 20
194.9231205455858
 30
0.0
 11
124.0624505545766
 21
194.9231205455859
 31
0.0
  0
LINE
  5
16A
330
2
100
AcDbEntity
  8
ACHSEN
100
AcDbLine
 10
130.5624505545766
 20
169.4231205455859
 30
0.0
 11
135.1624505545766
 21
169.4231205455859
 31
0.0
  0
LINE
  5
16B
330
2
100
AcDbEntity
  8
ACHSEN
100
AcDbLine
 10
130.5624505545766
 20
169.4231205455859
 30
0.0
 11
125.9624505545766
 21
169.4231205455859
 31
0.0
  0
CIRCLE
  5
16C
330
2
100
AcDbEntity
  8
UMRISS05
100
AcDbCircle
 10
130.5624505545766
 20
169.4231205455859
 30
0.0
 40
2.6
  0
LINE
  5
16D
330
2
100
AcDbEntity
  8
ACHSEN
100
AcDbLine
 10
130.5624505545766
 20
169.4231205455859
 30
0.0
 11
130.5624505545766
 21
164.8231205455859
 31
0.0
  0
LINE
  5
16E
330
2
100
AcDbEntity
  8
ACHSEN
100
AcDbLine
 10
130.5624505545766
 20
169.4231205455859
 30
0.0
 11
130.5624505545766
 21
174.0231205455859
 31
0.0
  0
CIRCLE
  5
16F
330
2
100
AcDbEntity
  8
UMRISS05
100
AcDbCircle
 10
130.5624505545766
 20
240.4231205455859
 30
0.0
 40
4.75
  0
LINE
  5
170
330
2
100
AcDbEntity
  8
UMRISS05
100
AcDbLine
 10
137.0624505545766
 20
230.9231205455859
 30
0.0
 11
124.0624505545766
 21
230.9231205455859
 31
0.0
  0
LINE
  5
171
330
2
100
AcDbEntity
  8
UMRISS05
100
AcDbLine
 10
141.5624505545766
 20
248.4231205455859
 30
0.0
 11
119.5624505545766
 21
248.4231205455859
 31
0.0
  0
LINE
  5
172
330
2
100
AcDbEntity
  8
ACHSEN
100
AcDbLine
 10
130.5624505545766
 20
240.4231205455859
 30
0.0
 11
135.1624505545766
 21
240.4231205455859
 31
0.0
  0
LINE
  5
173
330
2
100
AcDbEntity
  8
ACHSEN
100
AcDbLine
 10
130.5624505545766
 20
240.4231205455859
 30
0.0
 11
130.5624505545766
 21
235.8231205455859
 31
0.0
  0
LINE
  5
174
330
2
100
AcDbEntity
  8
ACHSEN
100
AcDbLine
 10
130.5624505545766
 20
240.4231205455859
 30
0.0
 11
125.9624505545766
 21
240.4231205455859
 31
0.0
  0
CIRCLE
  5
175
330
2
100
AcDbEntity
  8
UMRISS05
100
AcDbCircle
 10
130.5624505545766
 20
240.4231205455859
 30
0.0
 40
2.6
  0
LINE
  5
176
330
2
100
AcDbEntity
  8
ACHSEN
100
AcDbLine
 10
130.5624505545766
 20
240.4231205455859
 30
0.0
 11
130.5624505545766
 21
245.0231205455859
 31
0.0
  0
DIMENSION
  5
270
330
2
100
AcDbEntity
  8
BEMASSUNG
100
AcDbDimension
280
     0
  2
*D20
 10
67.32554585352179
 20
78.55165000177965
 30
0.0
 11
61.32554585352179
 21
81.30165000177965
 31
0.0
 70
    32
 71
     5
 42
12.00000000000003
 73
     0
 74
     0
 75
     0
  3
CADIMENU
100
AcDbAlignedDimension
 13
55.32554585352176
 23
88.4231205455859
 33
0.0
 14
67.32554585352179
 24
88.4231205455859
 34
0.0
 50
180.0
100
AcDbRotatedDimension
1001
ACAD
1000
DSTYLE
1002
{
1070
    42
1040
0.5
1070
    43
1040
0.0
1070
   143
1040
25.4
1070
   176
1070
     2
1070
   177
1070
     2
1070
   178
1070
     3
1002
}
  0
DIMENSION
  5
5EA
330
2
100
AcDbEntity
  8
BEMASSUNG
100
AcDbDimension
280
     0
  2
*D43
 10
50.89031421239003
 20
101.1731205455859
 30
0.0
 11
48.14031421239
 21
96.42312054558592
 31
0.0
 70
    32
  1
%%c9.5x90°
 71
     5
 42
9.5
 73
     0
 74
     0
 75
     0
  3
CADIMENU
100
AcDbAlignedDimension
 13
55.32554585352176
 23
91.67312054558591
 33
0.0
 14
55.32554585352176
 24
101.1731205455859
 34
0.0
 50
90.0
100
AcDbRotatedDimension
1001
ACAD
1000
DSTYLE
1002
{
1070
    42
1040
0.5
1070
    43
1040
0.0
1070
    90
1070
     1
1070
   143
1040
25.4
1070
   176
1070
     2
1070
   177
1070
     2
1070
   178
1070
     3
1002
}
  0
ENDSEC
  0
SECTION
  2
OBJECTS
  0
DICTIONARY
  5
9
330
0
100
AcDbDictionary
281
     1
  3
ACAD_CIP_PREVIOUS_PRODUCT_INFO
350
2CF
  3
ACAD_COLOR
350
28
  3
ACAD_DETAILVIEWSTYLE
350
2C8
  3
ACAD_FIELDLIST
350
31B
  3
ACAD_GROUP
350
24
  3
ACAD_LAYOUT
350
D
  3
ACAD_MATERIAL
350
27
  3
ACAD_MLEADERSTYLE
350
2C4
  3
ACAD_MLINESTYLE
350
25
  3
ACAD_PLOTSETTINGS
350
26
  3
ACAD_PLOTSTYLENAME
350
8
  3
ACAD_SCALELIST
350
2B2
  3
ACAD_SECTIONVIEWSTYLE
350
2C6
  3
ACAD_TABLESTYLE
350
29
  3
ACAD_VISUALSTYLE
350
299
  3
ACDB_RECOMPOSE_DATA
350
63D
  3
AcDbVariableDictionary
350
1D9
  3
AcmDictionary
350
188
  3
AMG
350
179
  3
AMGSNAPSETTINGS
350
269
  0
DICTIONARY
  5
33D
330
6
100
AcDbDictionary
280
     1
281
     1
  3
ADSK_XREC_LAYER_RECONCILED
360
33E
  0
DICTIONARY
  5
33F
330
4C
100
AcDbDictionary
280
     1
281
     1
  3
ADSK_XREC_LAYER_RECONCILED
360
340
  0
DICTIONARY
  5
341
330
2A
100
AcDbDictionary
280
     1
281
     1
  3
ADSK_XREC_LAYER_RECONCILED
360
342
  0
DICTIONARY
  5
343
330
4E
100
AcDbDictionary
280
     1
281
     1
  3
ADSK_XREC_LAYER_RECONCILED
360
344
  0
DICTIONARY
  5
345
330
53
100
AcDbDictionary
280
     1
281
     1
  3
ADSK_XREC_LAYER_RECONCILED
360
346
  0
DICTIONARY
  5
3
330
2
100
AcDbDictionary
280
     1
281
     1
  3
ACAD_SORTENTS
360
177
  0
XRECORD
  5
2CF
102
{ACAD_REACTORS
330
9
102
}
330
9
100
AcDbXrecord
280
     1
300
AMECH_PP
300
2014
300
PDSU_F_S
  0
DICTIONARY
  5
28
102
{ACAD_REACTORS
330
9
102
}
330
9
100
AcDbDictionary
281
     1
  0
DICTIONARY
  5
2C8
102
{ACAD_REACTORS
330
9
102
}
330
9
100
AcDbDictionary
281
     1
  3
Imperial24
350
2C9
  0
FIELDLIST
  5
31B
102
{ACAD_REACTORS
330
9
102
}
330
9
100
AcDbIdSet
 90
        8
330
56B
330
56C
330
56D
330
56E
330
572
330
573
330
574
330
575
100
AcDbFieldList
  0
DICTIONARY
  5
24
102
{ACAD_REACTORS
330
9
102
}
330
9
100
AcDbDictionary
281
     1
  0
DICTIONARY
  5
D
102
{ACAD_REACTORS
330
9
102
}
330
9
100
AcDbDictionary
281
     1
  3
Layout1
350
12
  3
Model
350
C
  0
DICTIONARY
  5
27
102
{ACAD_REACTORS
330
9
102
}
330
9
100
AcDbDictionary
281
     1
  3
ByBlock
350
289
  3
ByLayer
350
281
  3
Global
350
291
  0
DICTIONARY
  5
2C4
102
{ACAD_REACTORS
330
9
102
}
330
9
100
AcDbDictionary
281
     1
  3
Standard
350
2C5
  0
DICTIONARY
  5
25
102
{ACAD_REACTORS
330
9
102
}
330
9
100
AcDbDictionary
281
     1
  3
STANDARD
350
2C
  0
DICTIONARY
  5
26
102
{ACAD_REACTORS
330
9
102
}
330
9
100
AcDbDictionary
281
     1
  0
ACDBDICTIONARYWDFLT
  5
8
102
{ACAD_REACTORS
330
9
102
}
330
9
100
AcDbDictionary
281
     1
  3
Normal
350
7
100
AcDbDictionaryWithDefault
340
7
  0
DICTIONARY
  5
2B2
102
{ACAD_REACTORS
330
9
102
}
330
9
100
AcDbDictionary
281
     1
  3
A0
350
2B3
  3
A1
350
2B4
  3
A2
350
2B5
  3
A3
350
2B6
  3
A4
350
2B7
  3
A5
350
2B8
  3
A6
350
2B9
  3
A7
350
2BA
  3
A8
350
2BB
  3
A9
350
2BC
  3
B0
350
2BD
  3
B1
350
2BE
  3
B2
350
2BF
  3
B3
350
2C0
  3
B4
350
2C1
  3
B5
350
2C2
  3
B6
350
2C3
  0
DICTIONARY
  5
2C6
102
{ACAD_REACTORS
330
9
102
}
330
9
100
AcDbDictionary
281
     1
  3
Imperial24
350
2C7
  0
DICTIONARY
  5
29
102
{ACAD_REACTORS
330
9
102
}
330
9
100
AcDbDictionary
281
     1
  3
Standard
350
2D
  0
DICTIONARY
  5
299
102
{ACAD_REACTORS
330
9
102
}
330
9
100
AcDbDictionary
281
     1
  3
2dWireframe
350
29F
  3
Basic
350
29E
  3
Brighten
350
2A5
  3
ColorChange
350
2A9
  3
Conceptual
350
2A2
  3
Dim
350
2A4
  3
EdgeColorOff
350
2B1
  3
Facepattern
350
2A8
  3
Flat
350
29A
  3
FlatWithEdges
350
29B
  3
Gouraud
350
29C
  3
GouraudWithEdges
350
29D
  3
Hidden
350
2A1
  3
JitterOff
350
2AF
  3
Linepattern
350
2A7
  3
OverhangOff
350
2B0
  3
Realistic
350
2A3
  3
Shaded
350
2AE
  3
Shaded with edges
350
2AD
  3
Shades of Gray
350
2AA
  3
Sketchy
350
2AB
  3
Thicken
350
2A6
  3
Wireframe
350
2A0
  3
X-Ray
350
2AC
  0
XRECORD
  5
63D
102
{ACAD_REACTORS
330
9
102
}
330
9
100
AcDbXrecord
280
     1
 90
        1
330
2D
330
2C7
330
2C9
  0
DICTIONARY
  5
1D9
102
{ACAD_REACTORS
330
9
102
}
330
9
100
AcDbDictionary
281
     1
  3
CANNOSCALE
350
34A
  3
CMLEADERSTYLE
350
347
  3
CTABLESTYLE
350
1DA
  3
CVIEWDETAILSTYLE
350
348
  3
CVIEWSECTIONSTYLE
350
349
  3
DIMASSOC
350
34F
  3
HIDETEXT
350
34D
  3
INDEXCTL
350
34C
  3
LAYEREVAL
350
636
  3
LAYERNOTIFY
350
637
  3
LIGHTINGUNITS
350
635
  3
MSLTSCALE
350
634
  3
SORTENTS
350
34B
  0
DICTIONARY
  5
188
102
{ACAD_REACTORS
330
9
102
}
330
9
100
AcDbDictionary
281
     1
  3
AcmStdDictionary
350
189
  3
AMDTSECTSYM_ARROWCOLOR
350
255
  0
DICTIONARY
  5
179
102
{ACAD_REACTORS
330
9
102
}
330
9
100
AcDbDictionary
281
     1
  0
DICTIONARY
  5
269
102
{ACAD_REACTORS
330
9
102
}
330
9
100
AcDbDictionary
281
     1
  0
XRECORD
  5
33E
102
{ACAD_REACTORS
330
33D
102
}
330
33D
100
AcDbXrecord
280
     1
290
     1
  0
XRECORD
  5
340
102
{ACAD_REACTORS
330
33F
102
}
330
33F
100
AcDbXrecord
280
     1
290
     1
  0
XRECORD
  5
342
102
{ACAD_REACTORS
330
341
102
}
330
341
100
AcDbXrecord
280
     1
290
     1
  0
XRECORD
  5
344
102
{ACAD_REACTORS
330
343
102
}
330
343
100
AcDbXrecord
280
     1
290
     1
  0
XRECORD
  5
346
102
{ACAD_REACTORS
330
345
102
}
330
345
100
AcDbXrecord
280
     1
290
     1
  0
SORTENTSTABLE
  5
177
102
{ACAD_REACTORS
330
3
102
}
330
3
100
AcDbSortentsTable
330
2
331
8B
  5
16C
331
55
  5
171
331
A5
  5
16A
331
12C
  5
13A
331
141
  5
125
331
176
  5
4B
331
CD
  5
15B
331
169
  5
B3
331
56
  5
170
331
12D
  5
139
331
70
  5
16E
331
16A
  5
A5
331
142
  5
117
331
2E
  5
5EA
331
12E
  5
138
331
143
  5
116
331
16B
  5
98
331
139
  5
134
331
DA
  5
15A
331
151
  5
114
331
4B
  5
176
331
63
  5
16F
331
12F
  5
137
331
144
  5
115
331
16C
  5
8B
331
101
  5
157
331
152
  5
113
331
16D
  5
7D
331
158
  5
F4
331
113
  5
152
331
170
  5
56
331
4D
  5
175
331
102
  5
156
331
153
  5
105
331
125
  5
141
331
E7
  5
159
331
16E
  5
70
331
50
  5
174
331
159
  5
E7
331
B3
  5
169
331
171
  5
55
331
114
  5
151
331
103
  5
155
331
126
  5
140
331
154
  5
104
331
16F
  5
63
331
270
  5
61D
331
51
  5
173
331
128
  5
13E
331
15A
  5
DA
331
115
  5
144
331
7D
  5
16D
331
104
  5
154
331
130
  5
136
331
155
  5
103
331
172
  5
52
331
127
  5
13F
331
52
  5
172
331
129
  5
13D
331
15B
  5
CD
331
F4
  5
158
331
116
  5
143
331
13E
  5
133
331
173
  5
51
331
98
  5
16B
331
105
  5
153
331
131
  5
135
331
156
  5
102
331
C0
  5
168
331
12A
  5
13C
331
117
  5
142
331
174
  5
50
331
13F
  5
12B
331
3D
  5
270
331
157
  5
101
331
12B
  5
13B
331
140
  5
126
331
175
  5
4D
331
168
  5
C0
331
5EA
  5
629
  0
ACDBDETAILVIEWSTYLE
  5
2C9
102
{ACAD_XDICTIONARY
360
63B
102
}
102
{ACAD_REACTORS
330
2C8
330
567
102
}
330
2C8
100
AcDbModelDocViewStyle
 70
     0
  3
Imperial24
290
     0
100
AcDbDetailViewStyle
 70
     0
 71
     0
 90
        3
 71
     1
340
15
 62
   256
 40
0.24
340
0
 62
   256
 40
0.24
300

 40
0.36
280
     3
 71
     2
340
A
 90
       25
 62
   256
 71
     3
340
15
 62
   256
 40
0.24
 90
        1
 40
0.75
 90
        1
300
%<\AcVar ViewType \f "%tc1">% %<\AcVar ViewDetailId>%\PVARIA %<\AcVar ViewScale \f "%sn">%
 71
     4
340
A
 90
       25
 62
   256
340
A
 90
       25
 62
   256
280
     0
  0
LAYOUT
  5
12
102
{ACAD_REACTORS
330
D
102
}
330
D
100
AcDbPlotSettings
  1

  2
G:\VORLAGEN\AutoCAD2002\Plotten\A3hoch-MSL.pc3
  4

  6

 40
0.0
 41
0.0
 42
0.0
 43
0.0
 44
0.0
 45
0.0
 46
0.0
 47
0.0
 48
0.0
 49
0.0
140
0.0
141
0.0
142
1.0
143
1.0
 70
   688
 72
     0
 73
     0
 74
     5
  7
monochrome.ctb
 75
    16
147
1.0
 76
     0
 77
     2
 78
   300
148
0.0
149
0.0
100
AcDbLayout
  1
Layout1
 70
     0
 71
     1
 10
0.0
 20
0.0
 11
420.0
 21
297.0
 12
0.0
 22
0.0
 32
0.0
 14
5.0
 24
5.0
 34
0.0
 15
415.0
 25
300.0
 35
0.0
146
0.0
 13
0.0
 23
0.0
 33
0.0
 16
1.0
 26
0.0
 36
0.0
 17
0.0
 27
1.0
 37
0.0
 76
     0
330
F
  0
LAYOUT
  5
C
102
{ACAD_REACTORS
330
D
102
}
330
D
100
AcDbPlotSettings
  1

  2
G:\VORLAGEN\AutoCAD2002\Plotten\A3hoch-MSL.pc3
  4
A3
  6

 40
7.0
 41
5.0
 42
6.96832275390625
 43
6.988983154296875
 44
296.9683227539062
 45
419.9889831542968
 46
0.0
 47
0.0
 48
0.0
 49
0.0
140
0.0
141
0.0
142
1.0
143
31.9861683210817
 70
 11952
 72
     0
 73
     1
 74
     0
  7
monochrome.ctb
 75
     0
147
0.0312635133399493
 76
     0
 77
     2
 78
   300
148
3002.467445802675
149
124.2635063353479
100
AcDbLayout
  1
Model
 70
     1
 71
     0
 10
0.0
 20
0.0
 11
12.0
 21
9.0
 12
0.0
 22
0.0
 32
0.0
 14
0.0
 24
0.0
 34
0.0
 15
0.0
 25
0.0
 35
0.0
146
0.0
 13
0.0
 23
0.0
 33
0.0
 16
1.0
 26
0.0
 36
0.0
 17
0.0
 27
1.0
 37
0.0
 76
     0
330
2
331
27D
1001
ACAD_PSEXT
1000
G:\VORLAGEN\AutoCAD2002\Plotten\A3hoch-MSL.pc3
1000
HP LaserJet 5000 Series PCL
1000
CAD
1000
HP LaserJet 5000N
1070
     0
  0
MATERIAL
  5
289
102
{ACAD_XDICTIONARY
360
28A
102
}
102
{ACAD_REACTORS
330
27
102
}
330
27
100
AcDbMaterial
  1
ByBlock
 72
     0
 43
0.0208333333333333
 43
0.0
 43
0.0
 43
0.0
 43
0.0
 43
0.0208333333333333
 43
0.0
 43
0.0
 43
0.0
 43
0.0
 43
1.0
 43
0.0
 43
0.0
 43
0.0
 43
0.0
 43
1.0
 77
     0
 47
0.0208333333333333
 47
0.0
 47
0.0
 47
0.0
 47
0.0
 47
0.0208333333333333
 47
0.0
 47
0.0
 47
0.0
 47
0.0
 47
1.0
 47
0.0
 47
0.0
 47
0.0
 47
0.0
 47
1.0
171
     0
 49
0.0208333333333333
 49
0.0
 49
0.0
 49
0.0
 49
0.0
 49
0.0208333333333333
 49
0.0
 49
0.0
 49
0.0
 49
0.0
 49
1.0
 49
0.0
 49
0.0
 49
0.0
 49
0.0
 49
1.0
175
     0
142
0.0208333333333333
142
0.0
142
0.0
142
0.0
142
0.0
142
0.0208333333333333
142
0.0
142
0.0
142
0.0
142
0.0
142
1.0
142
0.0
142
0.0
142
0.0
142
0.0
142
1.0
179
     0
144
0.0208333333333333
144
0.0
144
0.0
144
0.0
144
0.0
144
0.0208333333333333
144
0.0
144
0.0
144
0.0
144
0.0
144
1.0
144
0.0
144
0.0
144
0.0
144
0.0
144
1.0
147
0.0208333333333333
147
0.0
147
0.0
147
0.0
147
0.0
147
0.0208333333333333
147
0.0
147
0.0
147
0.0
147
0.0
147
1.0
147
0.0
147
0.0
147
0.0
147
0.0
147
1.0
  0
MATERIAL
  5
281
102
{ACAD_XDICTIONARY
360
282
102
}
102
{ACAD_REACTORS
330
27
102
}
330
27
100
AcDbMaterial
  1
ByLayer
 72
     0
 43
0.0208333333333333
 43
0.0
 43
0.0
 43
0.0
 43
0.0
 43
0.0208333333333333
 43
0.0
 43
0.0
 43
0.0
 43
0.0
 43
1.0
 43
0.0
 43
0.0
 43
0.0
 43
0.0
 43
1.0
 77
     0
 47
0.0208333333333333
 47
0.0
 47
0.0
 47
0.0
 47
0.0
 47
0.0208333333333333
 47
0.0
 47
0.0
 47
0.0
 47
0.0
 47
1.0
 47
0.0
 47
0.0
 47
0.0
 47
0.0
 47
1.0
171
     0
 49
0.0208333333333333
 49
0.0
 49
0.0
 49
0.0
 49
0.0
 49
0.0208333333333333
 49
0.0
 49
0.0
 49
0.0
 49
0.0
 49
1.0
 49
0.0
 49
0.0
 49
0.0
 49
0.0
 49
1.0
175
     0
142
0.0208333333333333
142
0.0
142
0.0
142
0.0
142
0.0
142
0.0208333333333333
142
0.0
142
0.0
142
0.0
142
0.0
142
1.0
142
0.0
142
0.0
142
0.0
142
0.0
142
1.0
179
     0
144
0.0208333333333333
144
0.0
144
0.0
144
0.0
144
0.0
144
0.0208333333333333
144
0.0
144
0.0
144
0.0
144
0.0
144
1.0
144
0.0
144
0.0
144
0.0
144
0.0
144
1.0
147
0.0208333333333333
147
0.0
147
0.0
147
0.0
147
0.0
147
0.0208333333333333
147
0.0
147
0.0
147
0.0
147
0.0
147
1.0
147
0.0
147
0.0
147
0.0
147
0.0
147
1.0
  0
MATERIAL
  5
291
102
{ACAD_XDICTIONARY
360
292
102
}
102
{ACAD_REACTORS
330
27
102
}
330
27
100
AcDbMaterial
  1
Global
 72
     0
 43
0.0208333333333333
 43
0.0
 43
0.0
 43
0.0
 43
0.0
 43
0.0208333333333333
 43
0.0
 43
0.0
 43
0.0
 43
0.0
 43
1.0
 43
0.0
 43
0.0
 43
0.0
 43
0.0
 43
1.0
 77
     0
 47
0.0208333333333333
 47
0.0
 47
0.0
 47
0.0
 47
0.0
 47
0.0208333333333333
 47
0.0
 47
0.0
 47
0.0
 47
0.0
 47
1.0
 47
0.0
 47
0.0
 47
0.0
 47
0.0
 47
1.0
171
     0
 49
0.0208333333333333
 49
0.0
 49
0.0
 49
0.0
 49
0.0
 49
0.0208333333333333
 49
0.0
 49
0.0
 49
0.0
 49
0.0
 49
1.0
 49
0.0
 49
0.0
 49
0.0
 49
0.0
 49
1.0
175
     0
142
0.0208333333333333
142
0.0
142
0.0
142
0.0
142
0.0
142
0.0208333333333333
142
0.0
142
0.0
142
0.0
142
0.0
142
1.0
142
0.0
142
0.0
142
0.0
142
0.0
142
1.0
179
     0
144
0.0208333333333333
144
0.0
144
0.0
144
0.0
144
0.0
144
0.0208333333333333
144
0.0
144
0.0
144
0.0
144
0.0
144
1.0
144
0.0
144
0.0
144
0.0
144
0.0
144
1.0
147
0.0208333333333333
147
0.0
147
0.0
147
0.0
147
0.0
147
0.0208333333333333
147
0.0
147
0.0
147
0.0
147
0.0
147
1.0
147
0.0
147
0.0
147
0.0
147
0.0
147
1.0
  0
MLEADERSTYLE
  5
2C5
102
{ACAD_REACTORS
330
2C4
102
}
330
2C4
100
AcDbMLeaderStyle
179
     2
170
     2
171
     1
172
     0
 90
        2
 40
0.0
 41
0.0
173
     1
 91
-1056964608
340
18
 92
       -2
290
     1
 42
0.09
291
     1
 43
0.36
  3
Standard
 44
0.18
300

342
15
174
     1
178
     6
175
     1
176
     0
 93
-1056964608
 45
0.18
292
     0
297
     0
 46
0.18
 94
-1056964608
 47
1.0
 49
1.0
140
1.0
293
     1
141
0.0
294
     1
177
     0
142
1.0
295
     0
296
     0
143
0.125
271
     0
272
     9
273
     9
298
     0
1001
ACAD_MLEADERVER
1070
     2
  0
MLINESTYLE
  5
2C
102
{ACAD_REACTORS
330
25
102
}
330
25
100
AcDbMlineStyle
  2
STANDARD
 70
     0
  3

 62
   256
 51
90.0
 52
90.0
 71
     2
 49
0.5
 62
   256
  6
BYLAYER
 49
-0.5
 62
   256
  6
BYLAYER
  0
ACDBPLACEHOLDER
  5
7
102
{ACAD_REACTORS
330
8
102
}
330
8
  0
SCALE
  5
2B3
102
{ACAD_REACTORS
330
2B2
102
}
330
2B2
100
AcDbScale
 70
     0
300
1:1
140
1.0
141
1.0
290
     1
  0
SCALE
  5
2B4
102
{ACAD_REACTORS
330
2B2
102
}
330
2B2
100
AcDbScale
 70
     0
300
1/128" = 1'-0"
140
0.0078125
141
12.0
290
     0
  0
SCALE
  5
2B5
102
{ACAD_REACTORS
330
2B2
102
}
330
2B2
100
AcDbScale
 70
     0
300
1/64" = 1'-0"
140
0.015625
141
12.0
290
     0
  0
SCALE
  5
2B6
102
{ACAD_REACTORS
330
2B2
102
}
330
2B2
100
AcDbScale
 70
     0
300
1/32" = 1'-0"
140
0.03125
141
12.0
290
     0
  0
SCALE
  5
2B7
102
{ACAD_REACTORS
330
2B2
102
}
330
2B2
100
AcDbScale
 70
     0
300
1/16" = 1'-0"
140
0.0625
141
12.0
290
     0
  0
SCALE
  5
2B8
102
{ACAD_REACTORS
330
2B2
102
}
330
2B2
100
AcDbScale
 70
     0
300
3/32" = 1'-0"
140
0.09375
141
12.0
290
     0
  0
SCALE
  5
2B9
102
{ACAD_REACTORS
330
2B2
102
}
330
2B2
100
AcDbScale
 70
     0
300
1/8" = 1'-0"
140
0.125
141
12.0
290
     0
  0
SCALE
  5
2BA
102
{ACAD_REACTORS
330
2B2
102
}
330
2B2
100
AcDbScale
 70
     0
300
3/16" = 1'-0"
140
0.1875
141
12.0
290
     0
  0
SCALE
  5
2BB
102
{ACAD_REACTORS
330
2B2
102
}
330
2B2
100
AcDbScale
 70
     0
300
1/4" = 1'-0"
140
0.25
141
12.0
290
     0
  0
SCALE
  5
2BC
102
{ACAD_REACTORS
330
2B2
102
}
330
2B2
100
AcDbScale
 70
     0
300
3/8" = 1'-0"
140
0.375
141
12.0
290
     0
  0
SCALE
  5
2BD
102
{ACAD_REACTORS
330
2B2
102
}
330
2B2
100
AcDbScale
 70
     0
300
1/2" = 1'-0"
140
0.5
141
12.0
290
     0
  0
SCALE
  5
2BE
102
{ACAD_REACTORS
330
2B2
102
}
330
2B2
100
AcDbScale
 70
     0
300
3/4" = 1'-0"
140
0.75
141
12.0
290
     0
  0
SCALE
  5
2BF
102
{ACAD_REACTORS
330
2B2
102
}
330
2B2
100
AcDbScale
 70
     0
300
1" = 1'-0"
140
1.0
141
12.0
290
     0
  0
SCALE
  5
2C0
102
{ACAD_REACTORS
330
2B2
102
}
330
2B2
100
AcDbScale
 70
     0
300
1-1/2" = 1'-0"
140
1.5
141
12.0
290
     0
  0
SCALE
  5
2C1
102
{ACAD_REACTORS
330
2B2
102
}
330
2B2
100
AcDbScale
 70
     0
300
3" = 1'-0"
140
3.0
141
12.0
290
     0
  0
SCALE
  5
2C2
102
{ACAD_REACTORS
330
2B2
102
}
330
2B2
100
AcDbScale
 70
     0
300
6" = 1'-0"
140
6.0
141
12.0
290
     0
  0
SCALE
  5
2C3
102
{ACAD_REACTORS
330
2B2
102
}
330
2B2
100
AcDbScale
 70
     0
300
1'-0" = 1'-0"
140
12.0
141
12.0
290
     0
  0
ACDBSECTIONVIEWSTYLE
  5
2C7
102
{ACAD_XDICTIONARY
360
639
102
}
102
{ACAD_REACTORS
330
2C6
330
566
102
}
330
2C6
100
AcDbModelDocViewStyle
 70
     0
  3
Imperial24
290
     0
100
AcDbSectionViewStyle
 70
     0
 71
     0
 90
       78
 71
     1
340
15
 62
   256
 40
0.24
340
0
340
0
 62
   256
 40
0.24
300
I, O, Q, S, X, Z
 40
0.48
 90
        3
 40
0.18
 90
        1
 71
     2
340
A
 90
       25
 62
   256
340
A
 90
       50
 62
   256
 40
0.24
 40
0.0
 40
0.24
 71
     3
340
15
 62
   256
 40
0.24
 90
        1
 40
0.75
 90
        1
300
%<\AcVar ViewType \f "%tc1">% %<\AcVar ViewSectionStartId>%-%<\AcVar ViewSectionEndId>%\PVARIA %<\AcVar ViewScale \f "%sn">%
 71
     4
 62
   256
 62
   257
300
ANSI31
 40
1.0
 90
        0
290
     0
290
     0
 90
        6
 40
0.0
 40
1.570796326794896
 40
0.2617993877991494
 40
1.308996938995747
 40
-0.2617993877991494
 40
1.832595714594044
  0
TABLESTYLE
  5
2D
102
{ACAD_XDICTIONARY
360
350
102
}
102
{ACAD_REACTORS
330
29
102
}
330
29
100
AcDbTableStyle
280
     0
  3
Standard
 70
     0
 71
     0
 40
0.06
 41
0.06
280
     0
281
     0
  7
STANDARD
140
0.18
170
     2
 62
     0
 63
     7
283
     0
 90
        4
 91
        0
  1

274
    -2
284
     1
 64
     0
275
    -2
285
     1
 65
     0
276
    -2
286
     1
 66
     0
277
    -2
287
     1
 67
     0
278
    -2
288
     1
 68
     0
279
    -2
289
     1
 69
     0
  7
STANDARD
140
0.25
170
     5
 62
     0
 63
     7
283
     0
 90
        4
 91
        0
  1

274
    -2
284
     1
 64
     0
275
    -2
285
     1
 65
     0
276
    -2
286
     1
 66
     0
277
    -2
287
     1
 67
     0
278
    -2
288
     1
 68
     0
279
    -2
289
     1
 69
     0
  7
STANDARD
140
0.18
170
     5
 62
     0
 63
     7
283
     0
 90
        4
 91
        0
  1

274
    -2
284
     1
 64
     0
275
    -2
285
     1
 65
     0
276
    -2
286
     1
 66
     0
277
    -2
287
     1
 67
     0
278
    -2
288
     1
 68
     0
279
    -2
289
     1
 69
     0
  0
VISUALSTYLE
  5
29F
102
{ACAD_REACTORS
330
299
102
}
330
299
100
AcDbVisualStyle
  2

 70
     4
177
     3
291
     0
 70
    58
 90
        0
176
     1
 90
        2
176
     1
 90
        0
176
     1
 90
        0
176
     1
 40
0.6
176
     1
 40
30.0
176
     1
 62
     7
176
     1
 90
        1
176
     1
 90
        4
176
     1
 62
     7
176
     1
 62
   257
176
     1
 90
        1
176
     1
 90
        1
176
     1
 40
1.0
176
     1
 90
        0
176
     1
 62
   257
176
     1
 40
1.0
176
     1
 90
        1
176
     1
 90
        6
176
     1
 90
        2
176
     1
 62
     7
176
     1
 90
        5
176
     1
 90
        0
176
     1
 90
        0
176
     1
290
     0
176
     1
 90
        1
176
     1
 40
0.0
176
     1
 90
        0
176
     1
290
     1
176
     1
290
     1
176
     1
290
     0
176
     1
290
     0
176
     1
290
     0
176
     1
290
     0
176
     1
290
     0
176
     1
290
     0
176
     1
290
     0
176
     1
 90
       50
176
     1
 40
0.0
176
     1
 40
1.0
176
     1
 90
        0
176
     1
 62
    18
420
        0
176
     1
 90
       50
176
     1
 90
        3
176
     1
 62
     5
420
      255
176
     1
290
     0
176
     1
 90
       50
176
     1
 90
       50
176
     1
 90
       50
176
     1
290
     0
176
     1
 90
       50
176
     1
 62
   256
176
     0
 40
1.0
176
     0
 90
        2
176
     1
  1
strokes_ogs.tif
176
     1
290
     0
176
     1
 40
1.0
176
     1
 40
1.0
176
     1
1001
ACAD
1000
AcDbSavedByObjectVersion
1070
     0
  0
VISUALSTYLE
  5
29E
102
{ACAD_REACTORS
330
299
102
}
330
299
100
AcDbVisualStyle
  2

 70
     7
177
     3
291
     1
 70
    58
 90
        1
176
     1
 90
        0
176
     1
 90
        1
176
     1
 90
        0
176
     1
 40
0.6
176
     1
 40
30.0
176
     1
 62
     7
176
     1
 90
        0
176
     1
 90
        4
176
     1
 62
     7
176
     1
 62
   257
176
     1
 90
        1
176
     1
 90
        1
176
     1
 40
1.0
176
     1
 90
        8
176
     1
 62
     7
176
     1
 40
1.0
176
     1
 90
        1
176
     1
 90
        6
176
     1
 90
        2
176
     1
 62
     7
176
     1
 90
        5
176
     1
 90
        0
176
     1
 90
        0
176
     1
290
     0
176
     1
 90
        1
176
     1
 40
0.0
176
     1
 90
        0
176
     1
290
     0
176
     1
290
     1
176
     1
290
     1
176
     1
290
     0
176
     1
290
     0
176
     1
290
     0
176
     1
290
     0
176
     1
290
     0
176
     1
290
     0
176
     1
 90
       50
176
     1
 40
0.0
176
     1
 40
1.0
176
     1
 90
        0
176
     1
 62
    18
420
        0
176
     1
 90
       50
176
     1
 90
        3
176
     1
 62
     5
420
      255
176
     1
290
     0
176
     1
 90
       50
176
     1
 90
       50
176
     1
 90
       50
176
     1
290
     0
176
     1
 90
       50
176
     1
 62
   256
176
     0
 40
1.0
176
     0
 90
        2
176
     1
  1
strokes_ogs.tif
176
     1
290
     0
176
     1
 40
1.0
176
     1
 40
1.0
176
     1
1001
ACAD
1000
AcDbSavedByObjectVersion
1070
     0
  0
VISUALSTYLE
  5
2A5
102
{ACAD_REACTORS
330
299
102
}
330
299
100
AcDbVisualStyle
  2

 70
    12
177
     3
291
     1
 70
    58
 90
        2
176
     1
 90
        2
176
     1
 90
        0
176
     1
 90
        0
176
     1
 40
0.6
176
     1
 40
30.0
176
     1
 62
     7
176
     1
 90
        1
176
     1
 90
        4
176
     1
 62
     7
176
     1
 62
   257
176
     1
 90
        1
176
     1
 90
        1
176
     1
 40
1.0
176
     1
 90
        8
176
     1
 62
     7
176
     1
 40
1.0
176
     1
 90
        1
176
     1
 90
        6
176
     1
 90
        2
176
     1
 62
     7
176
     1
 90
        5
176
     1
 90
        0
176
     1
 90
        0
176
     1
290
     0
176
     1
 90
        1
176
     1
 40
50.0
176
     1
 90
        0
176
     1
290
     0
176
     1
290
     1
176
     1
290
     1
176
     1
290
     0
176
     1
290
     0
176
     1
290
     0
176
     1
290
     0
176
     1
290
     0
176
     1
290
     0
176
     1
 90
       50
176
     1
 40
0.0
176
     1
 40
1.0
176
     1
 90
        0
176
     1
 62
    18
420
        0
176
     1
 90
       50
176
     1
 90
        3
176
     1
 62
     5
420
      255
176
     1
290
     0
176
     1
 90
       50
176
     1
 90
       50
176
     1
 90
       50
176
     1
290
     0
176
     1
 90
       50
176
     1
 62
   256
176
     0
 40
1.0
176
     0
 90
        2
176
     1
  1
strokes_ogs.tif
176
     1
290
     0
176
     1
 40
1.0
176
     1
 40
1.0
176
     1
1001
ACAD
1000
AcDbSavedByObjectVersion
1070
     0
  0
VISUALSTYLE
  5
2A9
102
{ACAD_REACTORS
330
299
102
}
330
299
100
AcDbVisualStyle
  2

 70
    16
177
     3
291
     1
 70
    58
 90
        2
176
     1
 90
        2
176
     1
 90
        3
176
     1
 90
        0
176
     1
 40
0.6
176
     1
 40
30.0
176
     1
 62
     8
176
     1
 90
        1
176
     1
 90
        4
176
     1
 62
     7
176
     1
 62
   257
176
     1
 90
        1
176
     1
 90
        1
176
     1
 40
1.0
176
     1
 90
        8
176
     1
 62
     8
176
     1
 40
1.0
176
     1
 90
        1
176
     1
 90
        6
176
     1
 90
        2
176
     1
 62
     7
176
     1
 90
        5
176
     1
 90
        0
176
     1
 90
        0
176
     1
290
     0
176
     1
 90
        1
176
     1
 40
0.0
176
     1
 90
        0
176
     1
290
     0
176
     1
290
     1
176
     1
290
     1
176
     1
290
     0
176
     1
290
     0
176
     1
290
     0
176
     1
290
     0
176
     1
290
     0
176
     1
290
     0
176
     1
 90
       50
176
     1
 40
0.0
176
     1
 40
1.0
176
     1
 90
        0
176
     1
 62
    18
420
        0
176
     1
 90
       50
176
     1
 90
        3
176
     1
 62
     5
420
      255
176
     1
290
     0
176
     1
 90
       50
176
     1
 90
       50
176
     1
 90
       50
176
     1
290
     0
176
     1
 90
       50
176
     1
 62
   256
176
     0
 40
1.0
176
     0
 90
        2
176
     1
  1
strokes_ogs.tif
176
     1
290
     0
176
     1
 40
1.0
176
     1
 40
1.0
176
     1
1001
ACAD
1000
AcDbSavedByObjectVersion
1070
     0
  0
VISUALSTYLE
  5
2A2
102
{ACAD_REACTORS
330
299
102
}
330
299
100
AcDbVisualStyle
  2

 70
     9
177
     3
291
     0
 70
    58
 90
        3
176
     1
 90
        2
176
     1
 90
        0
176
     1
 90
        0
176
     1
 40
0.6
176
     1
 40
30.0
176
     1
 62
     7
176
     1
 90
        2
176
     1
 90
        2
176
     1
 62
     7
176
     1
 62
   257
176
     1
 90
        1
176
     1
 90
        1
176
     1
 40
179.0
176
     1
 90
        8
176
     1
 62
     7
176
     1
 40
1.0
176
     1
 90
        1
176
     1
 90
        6
176
     1
 90
        2
176
     1
 62
     7
176
     1
 90
        3
176
     1
 90
        0
176
     1
 90
        0
176
     1
290
     0
176
     1
 90
        1
176
     1
 40
0.0
176
     1
 90
        0
176
     1
290
     0
176
     1
290
     1
176
     1
290
     1
176
     1
290
     0
176
     1
290
     0
176
     1
290
     0
176
     1
290
     0
176
     1
290
     0
176
     1
290
     0
176
     1
 90
       50
176
     1
 40
0.0
176
     1
 40
1.0
176
     1
 90
        0
176
     1
 62
    18
420
        0
176
     1
 90
       50
176
     1
 90
        3
176
     1
 62
     5
420
      255
176
     1
290
     0
176
     1
 90
       50
176
     1
 90
       50
176
     1
 90
       50
176
     1
290
     0
176
     1
 90
       50
176
     1
 62
   256
176
     0
 40
1.0
176
     0
 90
        2
176
     1
  1
strokes_ogs.tif
176
     1
290
     0
176
     1
 40
1.0
176
     1
 40
1.0
176
     1
1001
ACAD
1000
AcDbSavedByObjectVersion
1070
     0
  0
VISUALSTYLE
  5
2A4
102
{ACAD_REACTORS
330
299
102
}
330
299
100
AcDbVisualStyle
  2

 70
    11
177
     3
291
     1
 70
    58
 90
        2
176
     1
 90
        2
176
     1
 90
        0
176
     1
 90
        0
176
     1
 40
0.6
176
     1
 40
30.0
176
     1
 62
     7
176
     1
 90
        1
176
     1
 90
        4
176
     1
 62
     7
176
     1
 62
   257
176
     1
 90
        1
176
     1
 90
        1
176
     1
 40
1.0
176
     1
 90
        8
176
     1
 62
     7
176
     1
 40
1.0
176
     1
 90
        1
176
     1
 90
        6
176
     1
 90
        2
176
     1
 62
     7
176
     1
 90
        5
176
     1
 90
        0
176
     1
 90
        0
176
     1
290
     0
176
     1
 90
        1
176
     1
 40
-50.0
176
     1
 90
        0
176
     1
290
     0
176
     1
290
     1
176
     1
290
     1
176
     1
290
     0
176
     1
290
     0
176
     1
290
     0
176
     1
290
     0
176
     1
290
     0
176
     1
290
     0
176
     1
 90
       50
176
     1
 40
0.0
176
     1
 40
1.0
176
     1
 90
        0
176
     1
 62
    18
420
        0
176
     1
 90
       50
176
     1
 90
        3
176
     1
 62
     5
420
      255
176
     1
290
     0
176
     1
 90
       50
176
     1
 90
       50
176
     1
 90
       50
176
     1
290
     0
176
     1
 90
       50
176
     1
 62
   256
176
     0
 40
1.0
176
     0
 90
        2
176
     1
  1
strokes_ogs.tif
176
     1
290
     0
176
     1
 40
1.0
176
     1
 40
1.0
176
     1
1001
ACAD
1000
AcDbSavedByObjectVersion
1070
     0
  0
VISUALSTYLE
  5
2B1
102
{ACAD_REACTORS
330
299
102
}
330
299
100
AcDbVisualStyle
  2

 70
    22
177
     3
291
     1
 70
    58
 90
        2
176
     0
 90
        2
176
     0
 90
        0
176
     0
 90
        0
176
     0
 40
0.6
176
     0
 40
30.0
176
     0
 62
     7
176
     0
 90
        1
176
     0
 90
        4
176
     0
 62
     7
176
     0
 62
   257
176
     0
 90
        1
176
     0
 90
        1
176
     0
 40
1.0
176
     0
 90
        8
176
     2
 62
     7
176
     0
 40
1.0
176
     0
 90
        1
176
     0
 90
        6
176
     0
 90
        2
176
     0
 62
     7
176
     0
 90
        5
176
     0
 90
        0
176
     0
 90
        0
176
     0
290
     0
176
     0
 90
        1
176
     0
 40
0.0
176
     0
 90
        0
176
     0
290
     0
176
     1
290
     1
176
     1
290
     1
176
     1
290
     0
176
     1
290
     0
176
     1
290
     0
176
     1
290
     0
176
     1
290
     0
176
     1
290
     0
176
     1
 90
       50
176
     0
 40
0.0
176
     0
 40
1.0
176
     0
 90
        0
176
     0
 62
    18
420
        0
176
     0
 90
       50
176
     0
 90
        3
176
     0
 62
     5
420
      255
176
     0
290
     0
176
     1
 90
       50
176
     0
 90
       50
176
     0
 90
       50
176
     0
290
     0
176
     1
 90
       50
176
     0
 62
   256
176
     0
 40
1.0
176
     0
 90
        2
176
     0
  1
strokes_ogs.tif
176
     0
290
     0
176
     1
 40
1.0
176
     0
 40
1.0
176
     0
1001
ACAD
1000
AcDbSavedByObjectVersion
1070
     0
  0
VISUALSTYLE
  5
2A8
102
{ACAD_REACTORS
330
299
102
}
330
299
100
AcDbVisualStyle
  2

 70
    15
177
     3
291
     1
 70
    58
 90
        2
176
     1
 90
        2
176
     1
 90
        0
176
     1
 90
        0
176
     1
 40
0.6
176
     1
 40
30.0
176
     1
 62
     7
176
     1
 90
        1
176
     1
 90
        4
176
     1
 62
     7
176
     1
 62
   257
176
     1
 90
        1
176
     1
 90
        1
176
     1
 40
1.0
176
     1
 90
        8
176
     1
 62
     7
176
     1
 40
1.0
176
     1
 90
        1
176
     1
 90
        6
176
     1
 90
        2
176
     1
 62
     7
176
     1
 90
        5
176
     1
 90
        0
176
     1
 90
        0
176
     1
290
     0
176
     1
 90
        1
176
     1
 40
0.0
176
     1
 90
        0
176
     1
290
     0
176
     1
290
     1
176
     1
290
     1
176
     1
290
     0
176
     1
290
     0
176
     1
290
     0
176
     1
290
     0
176
     1
290
     0
176
     1
290
     0
176
     1
 90
       50
176
     1
 40
0.0
176
     1
 40
1.0
176
     1
 90
        0
176
     1
 62
    18
420
        0
176
     1
 90
       50
176
     1
 90
        3
176
     1
 62
     5
420
      255
176
     1
290
     0
176
     1
 90
       50
176
     1
 90
       50
176
     1
 90
       50
176
     1
290
     0
176
     1
 90
       50
176
     1
 62
   256
176
     0
 40
1.0
176
     0
 90
        2
176
     1
  1
strokes_ogs.tif
176
     1
290
     0
176
     1
 40
1.0
176
     1
 40
1.0
176
     1
1001
ACAD
1000
AcDbSavedByObjectVersion
1070
     0
  0
VISUALSTYLE
  5
29A
102
{ACAD_REACTORS
330
299
102
}
330
299
100
AcDbVisualStyle
  2

 70
     0
177
     3
291
     1
 70
    58
 90
        2
176
     1
 90
        1
176
     1
 90
        1
176
     1
 90
        2
176
     1
 40
0.6
176
     1
 40
30.0
176
     1
 62
     7
176
     1
 90
        0
176
     1
 90
        0
176
     1
 62
     7
176
     1
 62
   257
176
     1
 90
        1
176
     1
 90
        1
176
     1
 40
1.0
176
     1
 90
        8
176
     1
 62
     7
176
     1
 40
1.0
176
     1
 90
        1
176
     1
 90
        6
176
     1
 90
        2
176
     1
 62
     7
176
     1
 90
        5
176
     1
 90
        0
176
     1
 90
        0
176
     1
290
     0
176
     1
 90
       13
176
     1
 40
0.0
176
     1
 90
        0
176
     1
290
     0
176
     1
290
     1
176
     1
290
     1
176
     1
290
     0
176
     1
290
     0
176
     1
290
     0
176
     1
290
     0
176
     1
290
     0
176
     1
290
     0
176
     1
 90
       50
176
     1
 40
0.0
176
     1
 40
1.0
176
     1
 90
        0
176
     1
 62
    18
420
        0
176
     1
 90
       50
176
     1
 90
        3
176
     1
 62
     5
420
      255
176
     1
290
     0
176
     1
 90
       50
176
     1
 90
       50
176
     1
 90
       50
176
     1
290
     0
176
     1
 90
       50
176
     1
 62
   256
176
     0
 40
1.0
176
     0
 90
        2
176
     1
  1
strokes_ogs.tif
176
     1
290
     0
176
     1
 40
1.0
176
     1
 40
1.0
176
     1
1001
ACAD
1000
AcDbSavedByObjectVersion
1070
     0
  0
VISUALSTYLE
  5
29B
102
{ACAD_REACTORS
330
299
102
}
330
299
100
AcDbVisualStyle
  2

 70
     1
177
     3
291
     1
 70
    58
 90
        2
176
     1
 90
        1
176
     1
 90
        1
176
     1
 90
        2
176
     1
 40
0.6
176
     1
 40
30.0
176
     1
 62
     7
176
     1
 90
        1
176
     1
 90
        0
176
     1
 62
     7
176
     1
 62
   257
176
     1
 90
        1
176
     1
 90
        1
176
     1
 40
1.0
176
     1
 90
        0
176
     1
 62
   257
176
     1
 40
1.0
176
     1
 90
        1
176
     1
 90
        6
176
     1
 90
        2
176
     1
 62
     7
176
     1
 90
        5
176
     1
 90
        0
176
     1
 90
        0
176
     1
290
     0
176
     1
 90
       13
176
     1
 40
0.0
176
     1
 90
        0
176
     1
290
     0
176
     1
290
     1
176
     1
290
     1
176
     1
290
     0
176
     1
290
     0
176
     1
290
     0
176
     1
290
     0
176
     1
290
     0
176
     1
290
     0
176
     1
 90
       50
176
     1
 40
0.0
176
     1
 40
1.0
176
     1
 90
        0
176
     1
 62
    18
420
        0
176
     1
 90
       50
176
     1
 90
        3
176
     1
 62
     5
420
      255
176
     1
290
     0
176
     1
 90
       50
176
     1
 90
       50
176
     1
 90
       50
176
     1
290
     0
176
     1
 90
       50
176
     1
 62
   256
176
     0
 40
1.0
176
     0
 90
        2
176
     1
  1
strokes_ogs.tif
176
     1
290
     0
176
     1
 40
1.0
176
     1
 40
1.0
176
     1
1001
ACAD
1000
AcDbSavedByObjectVersion
1070
     0
  0
VISUALSTYLE
  5
29C
102
{ACAD_REACTORS
330
299
102
}
330
299
100
AcDbVisualStyle
  2

 70
     2
177
     3
291
     1
 70
    58
 90
        2
176
     1
 90
        2
176
     1
 90
        1
176
     1
 90
        2
176
     1
 40
0.6
176
     1
 40
30.0
176
     1
 62
     7
176
     1
 90
        0
176
     1
 90
        0
176
     1
 62
     7
176
     1
 62
   257
176
     1
 90
        1
176
     1
 90
        1
176
     1
 40
1.0
176
     1
 90
        0
176
     1
 62
     7
176
     1
 40
1.0
176
     1
 90
        1
176
     1
 90
        6
176
     1
 90
        2
176
     1
 62
     7
176
     1
 90
        5
176
     1
 90
        0
176
     1
 90
        0
176
     1
290
     0
176
     1
 90
       13
176
     1
 40
0.0
176
     1
 90
        0
176
     1
290
     0
176
     1
290
     1
176
     1
290
     1
176
     1
290
     0
176
     1
290
     0
176
     1
290
     0
176
     1
290
     0
176
     1
290
     0
176
     1
290
     0
176
     1
 90
       50
176
     1
 40
0.0
176
     1
 40
1.0
176
     1
 90
        0
176
     1
 62
    18
420
        0
176
     1
 90
       50
176
     1
 90
        3
176
     1
 62
     5
420
      255
176
     1
290
     0
176
     1
 90
       50
176
     1
 90
       50
176
     1
 90
       50
176
     1
290
     0
176
     1
 90
       50
176
     1
 62
   256
176
     0
 40
1.0
176
     0
 90
        2
176
     1
  1
strokes_ogs.tif
176
     1
290
     0
176
     1
 40
1.0
176
     1
 40
1.0
176
     1
1001
ACAD
1000
AcDbSavedByObjectVersion
1070
     0
  0
VISUALSTYLE
  5
29D
102
{ACAD_REACTORS
330
299
102
}
330
299
100
AcDbVisualStyle
  2

 70
     3
177
     3
291
     1
 70
    58
 90
        2
176
     1
 90
        2
176
     1
 90
        1
176
     1
 90
        2
176
     1
 40
0.6
176
     1
 40
30.0
176
     1
 62
     7
176
     1
 90
        1
176
     1
 90
        0
176
     1
 62
     7
176
     1
 62
   257
176
     1
 90
        1
176
     1
 90
        1
176
     1
 40
1.0
176
     1
 90
        0
176
     1
 62
   257
176
     1
 40
1.0
176
     1
 90
        1
176
     1
 90
        6
176
     1
 90
        2
176
     1
 62
     7
176
     1
 90
        5
176
     1
 90
        0
176
     1
 90
        0
176
     1
290
     0
176
     1
 90
       13
176
     1
 40
0.0
176
     1
 90
        0
176
     1
290
     0
176
     1
290
     1
176
     1
290
     1
176
     1
290
     0
176
     1
290
     0
176
     1
290
     0
176
     1
290
     0
176
     1
290
     0
176
     1
290
     0
176
     1
 90
       50
176
     1
 40
0.0
176
     1
 40
1.0
176
     1
 90
        0
176
     1
 62
    18
420
        0
176
     1
 90
       50
176
     1
 90
        3
176
     1
 62
     5
420
      255
176
     1
290
     0
176
     1
 90
       50
176
     1
 90
       50
176
     1
 90
       50
176
     1
290
     0
176
     1
 90
       50
176
     1
 62
   256
176
     0
 40
1.0
176
     0
 90
        2
176
     1
  1
strokes_ogs.tif
176
     1
290
     0
176
     1
 40
1.0
176
     1
 40
1.0
176
     1
1001
ACAD
1000
AcDbSavedByObjectVersion
1070
     0
  0
VISUALSTYLE
  5
2A1
102
{ACAD_REACTORS
330
299
102
}
330
299
100
AcDbVisualStyle
  2

 70
     6
177
     3
291
     0
 70
    58
 90
        1
176
     1
 90
        2
176
     1
 90
        2
176
     1
 90
        0
176
     1
 40
0.6
176
     1
 40
30.0
176
     1
 62
     7
176
     1
 90
        2
176
     1
 90
        2
176
     1
 62
     7
176
     1
 62
   257
176
     1
 90
        2
176
     1
 90
        1
176
     1
 40
40.0
176
     1
 90
        0
176
     1
 62
   257
176
     1
 40
1.0
176
     1
 90
        1
176
     1
 90
        6
176
     1
 90
        2
176
     1
 62
     7
176
     1
 90
        3
176
     1
 90
        0
176
     1
 90
        0
176
     1
290
     0
176
     1
 90
        1
176
     1
 40
0.0
176
     1
 90
        0
176
     1
290
     0
176
     1
290
     1
176
     1
290
     1
176
     1
290
     0
176
     1
290
     0
176
     1
290
     0
176
     1
290
     0
176
     1
290
     0
176
     1
290
     0
176
     1
 90
       50
176
     1
 40
0.0
176
     1
 40
1.0
176
     1
 90
        0
176
     1
 62
    18
420
        0
176
     1
 90
       50
176
     1
 90
        3
176
     1
 62
     5
420
      255
176
     1
290
     0
176
     1
 90
       50
176
     1
 90
       50
176
     1
 90
       50
176
     1
290
     0
176
     1
 90
       50
176
     1
 62
   256
176
     0
 40
1.0
176
     0
 90
        2
176
     1
  1
strokes_ogs.tif
176
     1
290
     0
176
     1
 40
1.0
176
     1
 40
1.0
176
     1
1001
ACAD
1000
AcDbSavedByObjectVersion
1070
     0
  0
VISUALSTYLE
  5
2AF
102
{ACAD_REACTORS
330
299
102
}
330
299
100
AcDbVisualStyle
  2

 70
    20
177
     3
291
     1
 70
    58
 90
        2
176
     0
 90
        2
176
     0
 90
        0
176
     0
 90
        0
176
     0
 40
0.6
176
     0
 40
30.0
176
     0
 62
     7
176
     0
 90
        1
176
     0
 90
        4
176
     0
 62
     7
176
     0
 62
   257
176
     0
 90
        1
176
     0
 90
        1
176
     0
 40
1.0
176
     0
 90
       10
176
     2
 62
     7
176
     0
 40
1.0
176
     0
 90
        1
176
     0
 90
        6
176
     0
 90
        2
176
     0
 62
     7
176
     0
 90
        5
176
     0
 90
        0
176
     0
 90
        0
176
     0
290
     0
176
     0
 90
        1
176
     0
 40
0.0
176
     0
 90
        0
176
     0
290
     0
176
     1
290
     1
176
     1
290
     1
176
     1
290
     0
176
     1
290
     0
176
     1
290
     0
176
     1
290
     0
176
     1
290
     0
176
     1
290
     0
176
     1
 90
       50
176
     0
 40
0.0
176
     0
 40
1.0
176
     0
 90
        0
176
     0
 62
    18
420
        0
176
     0
 90
       50
176
     0
 90
        3
176
     0
 62
     5
420
      255
176
     0
290
     0
176
     1
 90
       50
176
     0
 90
       50
176
     0
 90
       50
176
     0
290
     0
176
     1
 90
       50
176
     0
 62
   256
176
     0
 40
1.0
176
     0
 90
        2
176
     0
  1
strokes_ogs.tif
176
     0
290
     0
176
     1
 40
1.0
176
     0
 40
1.0
176
     0
1001
ACAD
1000
AcDbSavedByObjectVersion
1070
     0
  0
VISUALSTYLE
  5
2A7
102
{ACAD_REACTORS
330
299
102
}
330
299
100
AcDbVisualStyle
  2

 70
    14
177
     3
291
     1
 70
    58
 90
        2
176
     1
 90
        2
176
     1
 90
        0
176
     1
 90
        0
176
     1
 40
0.6
176
     1
 40
30.0
176
     1
 62
     7
176
     1
 90
        1
176
     1
 90
        4
176
     1
 62
     7
176
     1
 62
   257
176
     1
 90
        7
176
     1
 90
        7
176
     1
 40
1.0
176
     1
 90
        8
176
     1
 62
     7
176
     1
 40
1.0
176
     1
 90
        1
176
     1
 90
        6
176
     1
 90
        2
176
     1
 62
     7
176
     1
 90
        5
176
     1
 90
        0
176
     1
 90
        0
176
     1
290
     0
176
     1
 90
        1
176
     1
 40
0.0
176
     1
 90
        0
176
     1
290
     0
176
     1
290
     1
176
     1
290
     1
176
     1
290
     0
176
     1
290
     0
176
     1
290
     0
176
     1
290
     0
176
     1
290
     0
176
     1
290
     0
176
     1
 90
       50
176
     1
 40
0.0
176
     1
 40
1.0
176
     1
 90
        0
176
     1
 62
    18
420
        0
176
     1
 90
       50
176
     1
 90
        3
176
     1
 62
     5
420
      255
176
     1
290
     0
176
     1
 90
       50
176
     1
 90
       50
176
     1
 90
       50
176
     1
290
     0
176
     1
 90
       50
176
     1
 62
   256
176
     0
 40
1.0
176
     0
 90
        2
176
     1
  1
strokes_ogs.tif
176
     1
290
     0
176
     1
 40
1.0
176
     1
 40
1.0
176
     1
1001
ACAD
1000
AcDbSavedByObjectVersion
1070
     0
  0
VISUALSTYLE
  5
2B0
102
{ACAD_REACTORS
330
299
102
}
330
299
100
AcDbVisualStyle
  2

 70
    21
177
     3
291
     1
 70
    58
 90
        2
176
     0
 90
        2
176
     0
 90
        0
176
     0
 90
        0
176
     0
 40
0.6
176
     0
 40
30.0
176
     0
 62
     7
176
     0
 90
        1
176
     0
 90
        4
176
     0
 62
     7
176
     0
 62
   257
176
     0
 90
        1
176
     0
 90
        1
176
     0
 40
1.0
176
     0
 90
        9
176
     2
 62
     7
176
     0
 40
1.0
176
     0
 90
        1
176
     0
 90
        6
176
     0
 90
        2
176
     0
 62
     7
176
     0
 90
        5
176
     0
 90
        0
176
     0
 90
        0
176
     0
290
     0
176
     0
 90
        1
176
     0
 40
0.0
176
     0
 90
        0
176
     0
290
     0
176
     1
290
     1
176
     1
290
     1
176
     1
290
     0
176
     1
290
     0
176
     1
290
     0
176
     1
290
     0
176
     1
290
     0
176
     1
290
     0
176
     1
 90
       50
176
     0
 40
0.0
176
     0
 40
1.0
176
     0
 90
        0
176
     0
 62
    18
420
        0
176
     0
 90
       50
176
     0
 90
        3
176
     0
 62
     5
420
      255
176
     0
290
     0
176
     1
 90
       50
176
     0
 90
       50
176
     0
 90
       50
176
     0
290
     0
176
     1
 90
       50
176
     0
 62
   256
176
     0
 40
1.0
176
     0
 90
        2
176
     0
  1
strokes_ogs.tif
176
     0
290
     0
176
     1
 40
1.0
176
     0
 40
1.0
176
     0
1001
ACAD
1000
AcDbSavedByObjectVersion
1070
     0
  0
VISUALSTYLE
  5
2A3
102
{ACAD_REACTORS
330
299
102
}
330
299
100
AcDbVisualStyle
  2

 70
     8
177
     3
291
     0
 70
    58
 90
        2
176
     1
 90
        3
176
     1
 90
        0
176
     1
 90
        2
176
     1
 40
0.6
176
     1
 40
30.0
176
     1
 62
     7
176
     1
 90
        0
176
     1
 90
        0
176
     1
 62
     7
176
     1
 62
   257
176
     1
 90
        1
176
     1
 90
        1
176
     1
 40
1.0
176
     1
 90
        8
176
     1
 62
   257
176
     1
 40
1.0
176
     1
 90
        1
176
     1
 90
        6
176
     1
 90
        2
176
     1
 62
     7
176
     1
 90
        3
176
     1
 90
        0
176
     1
 90
        0
176
     1
290
     0
176
     1
 90
       13
176
     1
 40
0.0
176
     1
 90
        0
176
     1
290
     0
176
     1
290
     1
176
     1
290
     1
176
     1
290
     0
176
     1
290
     0
176
     1
290
     0
176
     1
290
     0
176
     1
290
     0
176
     1
290
     0
176
     1
 90
       50
176
     1
 40
0.0
176
     1
 40
1.0
176
     1
 90
        0
176
     1
 62
    18
420
        0
176
     1
 90
       50
176
     1
 90
        3
176
     1
 62
     5
420
      255
176
     1
290
     0
176
     1
 90
       50
176
     1
 90
       50
176
     1
 90
       50
176
     1
290
     0
176
     1
 90
       50
176
     1
 62
   256
176
     0
 40
1.0
176
     0
 90
        2
176
     1
  1
strokes_ogs.tif
176
     1
290
     0
176
     1
 40
1.0
176
     1
 40
1.0
176
     1
1001
ACAD
1000
AcDbSavedByObjectVersion
1070
     0
  0
VISUALSTYLE
  5
2AE
102
{ACAD_REACTORS
330
299
102
}
330
299
100
AcDbVisualStyle
  2

 70
    27
177
     3
291
     0
 70
    58
 90
        2
176
     1
 90
        2
176
     1
 90
        1
176
     1
 90
        2
176
     1
 40
0.6
176
     1
 40
30.0
176
     1
 62
     7
176
     1
 90
        0
176
     1
 90
        4
176
     1
 62
     7
176
     1
 62
   257
176
     1
 90
        1
176
     1
 90
        1
176
     1
 40
1.0
176
     1
 90
        8
176
     1
 62
   257
176
     1
 40
1.0
176
     1
 90
        1
176
     1
 90
        6
176
     1
 90
        2
176
     1
 62
     8
176
     1
 90
        3
176
     1
 90
        0
176
     1
 90
        0
176
     1
290
     0
176
     1
 90
        5
176
     1
 40
0.0
176
     1
 90
        0
176
     1
290
     0
176
     1
290
     1
176
     1
290
     1
176
     1
290
     0
176
     1
290
     0
176
     1
290
     0
176
     1
290
     0
176
     1
290
     0
176
     1
290
     0
176
     1
 90
       50
176
     1
 40
0.0
176
     1
 40
1.0
176
     1
 90
        0
176
     1
 62
    18
420
        0
176
     1
 90
       50
176
     1
 90
        3
176
     1
 62
     5
420
      255
176
     1
290
     0
176
     1
 90
       50
176
     1
 90
       50
176
     1
 90
       50
176
     1
290
     0
176
     1
 90
       50
176
     1
 62
   256
176
     0
 40
1.0
176
     0
 90
        2
176
     1
  1
strokes_ogs.tif
176
     1
290
     0
176
     1
 40
1.0
176
     1
 40
1.0
176
     1
1001
ACAD
1000
AcDbSavedByObjectVersion
1070
     0
  0
VISUALSTYLE
  5
2AD
102
{ACAD_REACTORS
330
299
102
}
330
299
100
AcDbVisualStyle
  2

 70
    26
177
     3
291
     0
 70
    58
 90
        2
176
     1
 90
        2
176
     1
 90
        1
176
     1
 90
        2
176
     1
 40
0.6
176
     1
 40
30.0
176
     1
 62
     7
176
     1
 90
        1
176
     1
 90
       10
176
     1
 62
     7
176
     1
 62
   257
176
     1
 90
        2
176
     1
 90
        1
176
     1
 40
1.0
176
     1
 90
        8
176
     1
 62
   257
176
     1
 40
1.0
176
     1
 90
        1
176
     1
 90
        6
176
     1
 90
        2
176
     1
 62
     7
176
     1
 90
        3
176
     1
 90
        0
176
     1
 90
        0
176
     1
290
     0
176
     1
 90
        5
176
     1
 40
0.0
176
     1
 90
        0
176
     1
290
     0
176
     1
290
     1
176
     1
290
     1
176
     1
290
     0
176
     1
290
     0
176
     1
290
     0
176
     1
290
     0
176
     1
290
     0
176
     1
290
     0
176
     1
 90
       50
176
     1
 40
0.0
176
     1
 40
1.0
176
     1
 90
        0
176
     1
 62
    18
420
        0
176
     1
 90
       50
176
     1
 90
        3
176
     1
 62
     5
420
      255
176
     1
290
     0
176
     1
 90
       50
176
     1
 90
       50
176
     1
 90
       50
176
     1
290
     0
176
     1
 90
       50
176
     1
 62
   256
176
     0
 40
1.0
176
     0
 90
        2
176
     1
  1
strokes_ogs.tif
176
     1
290
     0
176
     1
 40
1.0
176
     1
 40
1.0
176
     1
1001
ACAD
1000
AcDbSavedByObjectVersion
1070
     0
  0
VISUALSTYLE
  5
2AA
102
{ACAD_REACTORS
330
299
102
}
330
299
100
AcDbVisualStyle
  2

 70
    23
177
     3
291
     0
 70
    58
 90
        2
176
     1
 90
        2
176
     1
 90
        3
176
     1
 90
        0
176
     1
 40
0.6
176
     1
 40
30.0
176
     1
 62
     7
176
     1
 90
        2
176
     1
 90
        2
176
     1
 62
     7
176
     1
 62
     7
176
     1
 90
        1
176
     1
 90
        1
176
     1
 40
40.0
176
     1
 90
        8
176
     1
 62
     7
176
     1
 40
1.0
176
     1
 90
        1
176
     1
 90
        6
176
     1
 90
        2
176
     1
 62
     7
176
     1
 90
        3
176
     1
 90
        0
176
     1
 90
        0
176
     1
290
     0
176
     1
 90
        1
176
     1
 40
0.0
176
     1
 90
        0
176
     1
290
     0
176
     1
290
     1
176
     1
290
     1
176
     1
290
     0
176
     1
290
     0
176
     1
290
     0
176
     1
290
     0
176
     1
290
     0
176
     1
290
     0
176
     1
 90
       50
176
     1
 40
0.0
176
     1
 40
1.0
176
     1
 90
        0
176
     1
 62
    18
420
        0
176
     1
 90
       50
176
     1
 90
        3
176
     1
 62
     5
420
      255
176
     1
290
     0
176
     1
 90
       50
176
     1
 90
       50
176
     1
 90
       50
176
     1
290
     0
176
     1
 90
       50
176
     1
 62
   256
176
     0
 40
1.0
176
     0
 90
        2
176
     1
  1
strokes_ogs.tif
176
     1
290
     0
176
     1
 40
1.0
176
     1
 40
1.0
176
     1
1001
ACAD
1000
AcDbSavedByObjectVersion
1070
     0
  0
VISUALSTYLE
  5
2AB
102
{ACAD_REACTORS
330
299
102
}
330
299
100
AcDbVisualStyle
  2

 70
    24
177
     3
291
     0
 70
    58
 90
        1
176
     1
 90
        2
176
     1
 90
        2
176
     1
 90
        0
176
     1
 40
0.6
176
     1
 40
30.0
176
     1
 62
     7
176
     1
 90
        2
176
     1
 90
        2
176
     1
 62
     7
176
     1
 62
     7
176
     1
 90
        1
176
     1
 90
        1
176
     1
 40
40.0
176
     1
 90
       11
176
     1
 62
     7
176
     1
 40
1.0
176
     1
 90
        1
176
     1
 90
        6
176
     1
 90
        2
176
     1
 62
     7
176
     1
 90
        6
176
     1
 90
        0
176
     1
 90
        0
176
     1
290
     0
176
     1
 90
        1
176
     1
 40
0.0
176
     1
 90
        0
176
     1
290
     0
176
     1
290
     1
176
     1
290
     1
176
     1
290
     0
176
     1
290
     0
176
     1
290
     0
176
     1
290
     0
176
     1
290
     0
176
     1
290
     0
176
     1
 90
       50
176
     1
 40
0.0
176
     1
 40
1.0
176
     1
 90
        0
176
     1
 62
    18
420
        0
176
     1
 90
       50
176
     1
 90
        3
176
     1
 62
     5
420
      255
176
     1
290
     0
176
     1
 90
       50
176
     1
 90
       50
176
     1
 90
       50
176
     1
290
     0
176
     1
 90
       50
176
     1
 62
   256
176
     0
 40
1.0
176
     0
 90
        2
176
     1
  1
strokes_ogs.tif
176
     1
290
     0
176
     1
 40
1.0
176
     1
 40
1.0
176
     1
1001
ACAD
1000
AcDbSavedByObjectVersion
1070
     0
  0
VISUALSTYLE
  5
2A6
102
{ACAD_REACTORS
330
299
102
}
330
299
100
AcDbVisualStyle
  2

 70
    13
177
     3
291
     1
 70
    58
 90
        2
176
     1
 90
        2
176
     1
 90
        0
176
     1
 90
        0
176
     1
 40
0.6
176
     1
 40
30.0
176
     1
 62
     7
176
     1
 90
        1
176
     1
 90
        4
176
     1
 62
     7
176
     1
 62
   257
176
     1
 90
        1
176
     1
 90
        1
176
     1
 40
1.0
176
     1
 90
       12
176
     1
 62
     7
176
     1
 40
1.0
176
     1
 90
        1
176
     1
 90
        6
176
     1
 90
        2
176
     1
 62
     7
176
     1
 90
        5
176
     1
 90
        0
176
     1
 90
        0
176
     1
290
     0
176
     1
 90
        1
176
     1
 40
0.0
176
     1
 90
        0
176
     1
290
     0
176
     1
290
     1
176
     1
290
     1
176
     1
290
     0
176
     1
290
     0
176
     1
290
     0
176
     1
290
     0
176
     1
290
     0
176
     1
290
     0
176
     1
 90
       50
176
     1
 40
0.0
176
     1
 40
1.0
176
     1
 90
        0
176
     1
 62
    18
420
        0
176
     1
 90
       50
176
     1
 90
        3
176
     1
 62
     5
420
      255
176
     1
290
     0
176
     1
 90
       50
176
     1
 90
       50
176
     1
 90
       50
176
     1
290
     0
176
     1
 90
       50
176
     1
 62
   256
176
     0
 40
1.0
176
     0
 90
        2
176
     1
  1
strokes_ogs.tif
176
     1
290
     0
176
     1
 40
1.0
176
     1
 40
1.0
176
     1
1001
ACAD
1000
AcDbSavedByObjectVersion
1070
     0
  0
VISUALSTYLE
  5
2A0
102
{ACAD_REACTORS
330
299
102
}
330
299
100
AcDbVisualStyle
  2

 70
     5
177
     3
291
     0
 70
    58
 90
        0
176
     1
 90
        2
176
     1
 90
        0
176
     1
 90
        0
176
     1
 40
0.6
176
     1
 40
30.0
176
     1
 62
     7
176
     1
 90
        1
176
     1
 90
        4
176
     1
 62
     7
176
     1
 62
   257
176
     1
 90
        1
176
     1
 90
        1
176
     1
 40
1.0
176
     1
 90
        0
176
     1
 62
   257
176
     1
 40
1.0
176
     1
 90
        1
176
     1
 90
        6
176
     1
 90
        2
176
     1
 62
     7
176
     1
 90
        3
176
     1
 90
        0
176
     1
 90
        0
176
     1
290
     0
176
     1
 90
        1
176
     1
 40
0.0
176
     1
 90
        0
176
     1
290
     0
176
     1
290
     1
176
     1
290
     1
176
     1
290
     0
176
     1
290
     0
176
     1
290
     0
176
     1
290
     0
176
     1
290
     0
176
     1
290
     0
176
     1
 90
       50
176
     1
 40
0.0
176
     1
 40
1.0
176
     1
 90
        0
176
     1
 62
    18
420
        0
176
     1
 90
       50
176
     1
 90
        3
176
     1
 62
     5
420
      255
176
     1
290
     0
176
     1
 90
       50
176
     1
 90
       50
176
     1
 90
       50
176
     1
290
     0
176
     1
 90
       50
176
     1
 62
   256
176
     0
 40
1.0
176
     0
 90
        2
176
     1
  1
strokes_ogs.tif
176
     1
290
     0
176
     1
 40
1.0
176
     1
 40
1.0
176
     1
1001
ACAD
1000
AcDbSavedByObjectVersion
1070
     0
  0
VISUALSTYLE
  5
2AC
102
{ACAD_REACTORS
330
299
102
}
330
299
100
AcDbVisualStyle
  2

 70
    25
177
     3
291
     0
 70
    58
 90
        2
176
     1
 90
        2
176
     1
 90
        1
176
     1
 90
        1
176
     1
 40
0.5
176
     1
 40
30.0
176
     1
 62
     7
176
     1
 90
        1
176
     1
 90
        0
176
     1
 62
     7
176
     1
 62
   257
176
     1
 90
        1
176
     1
 90
        1
176
     1
 40
1.0
176
     1
 90
        8
176
     1
 62
     7
176
     1
 40
1.0
176
     1
 90
        1
176
     1
 90
        6
176
     1
 90
        2
176
     1
 62
     7
176
     1
 90
        3
176
     1
 90
        0
176
     1
 90
        0
176
     1
290
     0
176
     1
 90
       13
176
     1
 40
0.0
176
     1
 90
        0
176
     1
290
     0
176
     1
290
     1
176
     1
290
     1
176
     1
290
     0
176
     1
290
     0
176
     1
290
     0
176
     1
290
     0
176
     1
290
     0
176
     1
290
     0
176
     1
 90
       50
176
     1
 40
0.0
176
     1
 40
1.0
176
     1
 90
        0
176
     1
 62
    18
420
        0
176
     1
 90
       50
176
     1
 90
        3
176
     1
 62
     5
420
      255
176
     1
290
     0
176
     1
 90
       50
176
     1
 90
       50
176
     1
 90
       50
176
     1
290
     0
176
     1
 90
       50
176
     1
 62
   256
176
     0
 40
1.0
176
     0
 90
        2
176
     1
  1
strokes_ogs.tif
176
     1
290
     0
176
     1
 40
1.0
176
     1
 40
1.0
176
     1
1001
ACAD
1000
AcDbSavedByObjectVersion
1070
     0
  0
DICTIONARYVAR
  5
34A
102
{ACAD_REACTORS
330
1D9
102
}
330
1D9
100
DictionaryVariables
280
     0
  1
1:1
  0
DICTIONARYVAR
  5
347
102
{ACAD_REACTORS
330
1D9
102
}
330
1D9
100
DictionaryVariables
280
     0
  1
STANDARD
  0
DICTIONARYVAR
  5
1DA
102
{ACAD_REACTORS
330
1D9
102
}
330
1D9
100
DictionaryVariables
280
     0
  1
STANDARD
  0
DICTIONARYVAR
  5
348
102
{ACAD_REACTORS
330
1D9
102
}
330
1D9
100
DictionaryVariables
280
     0
  1
Imperial24
  0
DICTIONARYVAR
  5
349
102
{ACAD_REACTORS
330
1D9
102
}
330
1D9
100
DictionaryVariables
280
     0
  1
Imperial24
  0
DICTIONARYVAR
  5
34F
102
{ACAD_REACTORS
330
1D9
102
}
330
1D9
100
DictionaryVariables
280
     0
  1
1
  0
DICTIONARYVAR
  5
34D
102
{ACAD_REACTORS
330
1D9
102
}
330
1D9
100
DictionaryVariables
280
     0
  1
1
  0
DICTIONARYVAR
  5
34C
102
{ACAD_REACTORS
330
1D9
102
}
330
1D9
100
DictionaryVariables
280
     0
  1
0
  0
DICTIONARYVAR
  5
636
102
{ACAD_REACTORS
330
1D9
102
}
330
1D9
100
DictionaryVariables
280
     0
  1
1
  0
DICTIONARYVAR
  5
637
102
{ACAD_REACTORS
330
1D9
102
}
330
1D9
100
DictionaryVariables
280
     0
  1
15
  0
DICTIONARYVAR
  5
635
102
{ACAD_REACTORS
330
1D9
102
}
330
1D9
100
DictionaryVariables
280
     0
  1
0
  0
DICTIONARYVAR
  5
634
102
{ACAD_REACTORS
330
1D9
102
}
330
1D9
100
DictionaryVariables
280
     0
  1
0
  0
DICTIONARYVAR
  5
34B
102
{ACAD_REACTORS
330
1D9
102
}
330
1D9
100
DictionaryVariables
280
     0
  1
127
  0
DICTIONARY
  5
189
102
{ACAD_REACTORS
330
188
102
}
330
188
100
AcDbDictionary
281
     1
  0
XRECORD
  5
255
102
{ACAD_REACTORS
330
188
102
}
330
188
100
AcDbXrecord
280
     1
 90
-1023410169
  0
DICTIONARY
  5
63B
330
2C9
100
AcDbDictionary
280
     1
281
     1
  3
ACAD_XREC_ROUNDTRIP
360
63C
  0
DICTIONARY
  5
28A
330
289
100
AcDbDictionary
280
     1
281
     1
  3
ACAD_XREC_ROUNDTRIP
360
35C
  3
BUMPTILE
360
28C
  3
DIFFUSETILE
360
28B
  3
OPACITYTILE
360
28F
  3
REFLECTIONTILE
360
28E
  3
REFRACTIONTILE
360
290
  3
SPECULARTILE
360
28D
  0
DICTIONARY
  5
282
330
281
100
AcDbDictionary
280
     1
281
     1
  3
ACAD_XREC_ROUNDTRIP
360
35B
  3
BUMPTILE
360
284
  3
DIFFUSETILE
360
283
  3
OPACITYTILE
360
287
  3
REFLECTIONTILE
360
286
  3
REFRACTIONTILE
360
288
  3
SPECULARTILE
360
285
  0
DICTIONARY
  5
292
330
291
100
AcDbDictionary
280
     1
281
     1
  3
ACAD_XREC_ROUNDTRIP
360
35D
  3
BUMPTILE
360
294
  3
DIFFUSETILE
360
293
  3
OPACITYTILE
360
297
  3
REFLECTIONTILE
360
296
  3
REFRACTIONTILE
360
298
  3
SPECULARTILE
360
295
  0
DICTIONARY
  5
639
330
2C7
100
AcDbDictionary
280
     1
281
     1
  3
ACAD_XREC_ROUNDTRIP
360
63A
  0
DICTIONARY
  5
350
330
2D
100
AcDbDictionary
280
     1
281
     1
  3
ACAD_ROUNDTRIP_2008_TABLESTYLE_CELLSTYLEMAP
360
638
  0
XRECORD
  5
63C
102
{ACAD_REACTORS
330
63B
102
}
330
63B
100
AcDbXrecord
280
     1
102
DISPLAYNAME
  1
Imperial24
102
FLAGS
 90
        0
  0
XRECORD
  5
35C
102
{ACAD_REACTORS
330
28A
102
}
330
28A
100
AcDbXrecord
280
     1
102
MATERIAL
148
0.0
149
0.0
149
0.0
 93
        0
 94
      127
282
     0
 72
     0
 77
     0
171
     0
175
     0
179
     0
273
     0
  0
XRECORD
  5
28C
102
{ACAD_REACTORS
330
28A
102
}
330
28A
100
AcDbXrecord
280
     1
270
     1
271
     1
  0
XRECORD
  5
28B
102
{ACAD_REACTORS
330
28A
102
}
330
28A
100
AcDbXrecord
280
     1
270
     1
271
     1
  0
XRECORD
  5
28F
102
{ACAD_REACTORS
330
28A
102
}
330
28A
100
AcDbXrecord
280
     1
270
     1
271
     1
  0
XRECORD
  5
28E
102
{ACAD_REACTORS
330
28A
102
}
330
28A
100
AcDbXrecord
280
     1
270
     1
271
     1
  0
XRECORD
  5
290
102
{ACAD_REACTORS
330
28A
102
}
330
28A
100
AcDbXrecord
280
     1
270
     1
271
     1
  0
XRECORD
  5
28D
102
{ACAD_REACTORS
330
28A
102
}
330
28A
100
AcDbXrecord
280
     1
270
     1
271
     1
  0
XRECORD
  5
35B
102
{ACAD_REACTORS
330
282
102
}
330
282
100
AcDbXrecord
280
     1
102
MATERIAL
148
0.0
149
0.0
149
0.0
 93
        0
 94
      127
282
     0
 72
     0
 77
     0
171
     0
175
     0
179
     0
273
     0
  0
XRECORD
  5
284
102
{ACAD_REACTORS
330
282
102
}
330
282
100
AcDbXrecord
280
     1
270
     1
271
     1
  0
XRECORD
  5
283
102
{ACAD_REACTORS
330
282
102
}
330
282
100
AcDbXrecord
280
     1
270
     1
271
     1
  0
XRECORD
  5
287
102
{ACAD_REACTORS
330
282
102
}
330
282
100
AcDbXrecord
280
     1
270
     1
271
     1
  0
XRECORD
  5
286
102
{ACAD_REACTORS
330
282
102
}
330
282
100
AcDbXrecord
280
     1
270
     1
271
     1
  0
XRECORD
  5
288
102
{ACAD_REACTORS
330
282
102
}
330
282
100
AcDbXrecord
280
     1
270
     1
271
     1
  0
XRECORD
  5
285
102
{ACAD_REACTORS
330
282
102
}
330
282
100
AcDbXrecord
280
     1
270
     1
271
     1
  0
XRECORD
  5
35D
102
{ACAD_REACTORS
330
292
102
}
330
292
100
AcDbXrecord
280
     1
102
MATERIAL
148
0.0
149
0.0
149
0.0
 93
        0
 94
      127
282
     0
 72
     0
 77
     0
171
     0
175
     0
179
     0
273
     0
  0
XRECORD
  5
294
102
{ACAD_REACTORS
330
292
102
}
330
292
100
AcDbXrecord
280
     1
270
     1
271
     1
  0
XRECORD
  5
293
102
{ACAD_REACTORS
330
292
102
}
330
292
100
AcDbXrecord
280
     1
270
     1
271
     1
  0
XRECORD
  5
297
102
{ACAD_REACTORS
330
292
102
}
330
292
100
AcDbXrecord
280
     1
270
     1
271
     1
  0
XRECORD
  5
296
102
{ACAD_REACTORS
330
292
102
}
330
292
100
AcDbXrecord
280
     1
270
     1
271
     1
  0
XRECORD
  5
298
102
{ACAD_REACTORS
330
292
102
}
330
292
100
AcDbXrecord
280
     1
270
     1
271
     1
  0
XRECORD
  5
295
102
{ACAD_REACTORS
330
292
102
}
330
292
100
AcDbXrecord
280
     1
270
     1
271
     1
  0
XRECORD
  5
63A
102
{ACAD_REACTORS
330
639
102
}
330
639
100
AcDbXrecord
280
     1
102
DISPLAYNAME
  1
Imperial24
102
FLAGS
 90
        0
  0
CELLSTYLEMAP
  5
638
102
{ACAD_REACTORS
330
350
102
}
330
350
100
AcDbCellStyleMap
 90
        3
300
CELLSTYLE
  1
TABLEFORMAT_BEGIN
 90
        5
170
     1
 91
        0
 92
    32768
 62
   257
 93
        1
300
CONTENTFORMAT
  1
CONTENTFORMAT_BEGIN
 90
        0
 91
        0
 92
        4
 93
        0
300

 40
0.0
140
1.0
 94
        5
 62
     0
340
15
144
0.25
309
CONTENTFORMAT_END
171
     1
301
MARGIN
  1
CELLMARGIN_BEGIN
 40
0.06
 40
0.06
 40
0.06
 40
0.06
 40
0.18
 40
0.18
309
CELLMARGIN_END
 94
        6
 95
        1
302
GRIDFORMAT
  1
GRIDFORMAT_BEGIN
 90
        0
 91
        1
 62
     0
 92
       -2
340
0
 93
        0
 40
0.045
309
GRIDFORMAT_END
 95
        2
302
GRIDFORMAT
  1
GRIDFORMAT_BEGIN
 90
        0
 91
        1
 62
     0
 92
       -2
340
0
 93
        0
 40
0.045
309
GRIDFORMAT_END
 95
        4
302
GRIDFORMAT
  1
GRIDFORMAT_BEGIN
 90
        0
 91
        1
 62
     0
 92
       -2
340
0
 93
        0
 40
0.045
309
GRIDFORMAT_END
 95
        8
302
GRIDFORMAT
  1
GRIDFORMAT_BEGIN
 90
        0
 91
        1
 62
     0
 92
       -2
340
0
 93
        0
 40
0.045
309
GRIDFORMAT_END
 95
       16
302
GRIDFORMAT
  1
GRIDFORMAT_BEGIN
 90
        0
 91
        1
 62
     0
 92
       -2
340
0
 93
        0
 40
0.045
309
GRIDFORMAT_END
 95
       32
302
GRIDFORMAT
  1
GRIDFORMAT_BEGIN
 90
        0
 91
        1
 62
     0
 92
       -2
340
0
 93
        0
 40
0.045
309
GRIDFORMAT_END
309
TABLEFORMAT_END
  1
CELLSTYLE_BEGIN
 90
        1
 91
        1
300
_TITLE
309
CELLSTYLE_END
300
CELLSTYLE
  1
TABLEFORMAT_BEGIN
 90
        5
170
     1
 91
        0
 92
        0
 62
   257
 93
        1
300
CONTENTFORMAT
  1
CONTENTFORMAT_BEGIN
 90
        0
 91
        0
 92
        4
 93
        0
300

 40
0.0
140
1.0
 94
        5
 62
     0
340
15
144
0.18
309
CONTENTFORMAT_END
171
     1
301
MARGIN
  1
CELLMARGIN_BEGIN
 40
0.06
 40
0.06
 40
0.06
 40
0.06
 40
0.18
 40
0.18
309
CELLMARGIN_END
 94
        6
 95
        1
302
GRIDFORMAT
  1
GRIDFORMAT_BEGIN
 90
        0
 91
        1
 62
     0
 92
       -2
340
0
 93
        0
 40
0.045
309
GRIDFORMAT_END
 95
        2
302
GRIDFORMAT
  1
GRIDFORMAT_BEGIN
 90
        0
 91
        1
 62
     0
 92
       -2
340
0
 93
        0
 40
0.045
309
GRIDFORMAT_END
 95
        4
302
GRIDFORMAT
  1
GRIDFORMAT_BEGIN
 90
        0
 91
        1
 62
     0
 92
       -2
340
0
 93
        0
 40
0.045
309
GRIDFORMAT_END
 95
        8
302
GRIDFORMAT
  1
GRIDFORMAT_BEGIN
 90
        0
 91
        1
 62
     0
 92
       -2
340
0
 93
        0
 40
0.045
309
GRIDFORMAT_END
 95
       16
302
GRIDFORMAT
  1
GRIDFORMAT_BEGIN
 90
        0
 91
        1
 62
     0
 92
       -2
340
0
 93
        0
 40
0.045
309
GRIDFORMAT_END
 95
       32
302
GRIDFORMAT
  1
GRIDFORMAT_BEGIN
 90
        0
 91
        1
 62
     0
 92
       -2
340
0
 93
        0
 40
0.045
309
GRIDFORMAT_END
309
TABLEFORMAT_END
  1
CELLSTYLE_BEGIN
 90
        2
 91
        1
300
_HEADER
309
CELLSTYLE_END
300
CELLSTYLE
  1
TABLEFORMAT_BEGIN
 90
        5
170
     1
 91
        0
 92
        0
 62
   257
 93
        1
300
CONTENTFORMAT
  1
CONTENTFORMAT_BEGIN
 90
        0
 91
        0
 92
        4
 93
        0
300

 40
0.0
140
1.0
 94
        2
 62
     0
340
15
144
0.18
309
CONTENTFORMAT_END
171
     1
301
MARGIN
  1
CELLMARGIN_BEGIN
 40
0.06
 40
0.06
 40
0.06
 40
0.06
 40
0.18
 40
0.18
309
CELLMARGIN_END
 94
        6
 95
        1
302
GRIDFORMAT
  1
GRIDFORMAT_BEGIN
 90
        0
 91
        1
 62
     0
 92
       -2
340
0
 93
        0
 40
0.045
309
GRIDFORMAT_END
 95
        2
302
GRIDFORMAT
  1
GRIDFORMAT_BEGIN
 90
        0
 91
        1
 62
     0
 92
       -2
340
0
 93
        0
 40
0.045
309
GRIDFORMAT_END
 95
        4
302
GRIDFORMAT
  1
GRIDFORMAT_BEGIN
 90
        0
 91
        1
 62
     0
 92
       -2
340
0
 93
        0
 40
0.045
309
GRIDFORMAT_END
 95
        8
302
GRIDFORMAT
  1
GRIDFORMAT_BEGIN
 90
        0
 91
        1
 62
     0
 92
       -2
340
0
 93
        0
 40
0.045
309
GRIDFORMAT_END
 95
       16
302
GRIDFORMAT
  1
GRIDFORMAT_BEGIN
 90
        0
 91
        1
 62
     0
 92
       -2
340
0
 93
        0
 40
0.045
309
GRIDFORMAT_END
 95
       32
302
GRIDFORMAT
  1
GRIDFORMAT_BEGIN
 90
        0
 91
        1
 62
     0
 92
       -2
340
0
 93
        0
 40
0.045
309
GRIDFORMAT_END
309
TABLEFORMAT_END
  1
CELLSTYLE_BEGIN
 90
        3
 91
        2
300
_DATA
309
CELLSTYLE_END
  0
ENDSEC
  0
EOF
