  0
SECTION
  2
HEADER
  9
$ACADVER
  1
AC1015
  9
$ACADMAINTVER
 70
     6
  9
$DWGCODEPAGE
  3
ANSI_1252
  9
$INSBASE
 10
0.0
 20
0.0
 30
0.0
  9
$EXTMIN
 10
0.0
 20
0.0
 30
0.0
  9
$EXTMAX
 10
210.0
 20
297.0
 30
0.0
  9
$LIMMIN
 10
0.0
 20
0.0
  9
$LIMMAX
 10
210.0
 20
297.0
  9
$ORTHOMODE
 70
     0
  9
$REGENMODE
 70
     1
  9
$FILLMODE
 70
     1
  9
$QTEXTMODE
 70
     0
  9
$MIRRTEXT
 70
     1
  9
$LTSCALE
 40
1.0
  9
$ATTMODE
 70
     1
  9
$TEXTSIZE
 40
5.0
  9
$TRACEWID
 40
1.0
  9
$TEXTSTYLE
  7
Standard
  9
$CLAYER
  8
0
  9
$CELTYPE
  6
ByLayer
  9
$CECOLOR
 62
   256
  9
$CELTSCALE
 40
1.0
  9
$DISPSILH
 70
     0
  9
$DIMSCALE
 40
1.0
  9
$DIMASZ
 40
3.5
  9
$DIMEXO
 40
1.0
  9
$DIMDLI
 40
3.75
  9
$DIMRND
 40
0.0
  9
$DIMDLE
 40
0.0
  9
$DIMEXE
 40
1.0
  9
$DIMTP
 40
0.0
  9
$DIMTM
 40
0.0
  9
$DIMTXT
 40
3.5
  9
$DIMCEN
 40
2.5
  9
$DIMTSZ
 40
0.0
  9
$DIMTOL
 70
     0
  9
$DIMLIM
 70
     0
  9
$DIMTIH
 70
     1
  9
$DIMTOH
 70
     1
  9
$DIMSE1
 70
     0
  9
$DIMSE2
 70
     0
  9
$DIMTAD
 70
     1
  9
$DIMZIN
 70
     0
  9
$DIMBLK
  1

  9
$DIMASO
 70
     1
  9
$DIMSHO
 70
     1
  9
$DIMPOST
  1

  9
$DIMAPOST
  1

  9
$DIMALT
 70
     0
  9
$DIMALTD
 70
     3
  9
$DIMALTF
 40
0.0393700787
  9
$DIMLFAC
 40
1.0
  9
$DIMTOFL
 70
     1
  9
$DIMTVP
 40
0.0
  9
$DIMTIX
 70
     0
  9
$DIMSOXD
 70
     0
  9
$DIMSAH
 70
     0
  9
$DIMBLK1
  1

  9
$DIMBLK2
  1

  9
$DIMSTYLE
  2
ISO-25
  9
$DIMCLRD
 70
     0
  9
$DIMCLRE
 70
     0
  9
$DIMCLRT
 70
     0
  9
$DIMTFAC
 40
1.0
  9
$DIMGAP
 40
1.524
  9
$DIMJUST
 70
     0
  9
$DIMSD1
 70
     0
  9
$DIMSD2
 70
     0
  9
$DIMTOLJ
 70
     0
  9
$DIMTZIN
 70
     0
  9
$DIMALTZ
 70
     0
  9
$DIMALTTZ
 70
     0
  9
$DIMUPT
 70
     0
  9
$DIMDEC
 70
     2
  9
$DIMTDEC
 70
     2
  9
$DIMALTU
 70
     2
  9
$DIMALTTD
 70
     3
  9
$DIMTXSTY
  7
Standard
  9
$DIMAUNIT
 70
     0
  9
$DIMADEC
 70
     0
  9
$DIMALTRND
 40
0.0
  9
$DIMAZIN
 70
     0
  9
$DIMDSEP
 70
    44
  9
$DIMATFIT
 70
     3
  9
$DIMFRAC
 70
     0
  9
$DIMLDRBLK
  1

  9
$DIMLUNIT
 70
     2
  9
$DIMLWD
 70
    -2
  9
$DIMLWE
 70
    -2
  9
$DIMTMOVE
 70
     0
  9
$LUNITS
 70
     2
  9
$LUPREC
 70
     2
  9
$SKETCHINC
 40
1.0
  9
$FILLETRAD
 40
10.0
  9
$AUNITS
 70
     0
  9
$AUPREC
 70
     0
  9
$MENU
  1
.
  9
$ELEVATION
 40
0.0
  9
$PELEVATION
 40
0.0
  9
$THICKNESS
 40
0.0
  9
$LIMCHECK
 70
     0
  9
$CHAMFERA
 40
10.0
  9
$CHAMFERB
 40
10.0
  9
$CHAMFERC
 40
20.0
  9
$CHAMFERD
 40
0.0
  9
$SKPOLY
 70
     0
  9
$TDCREATE
 40
2454650.439656551
  9
$TDUCREATE
 40
2454650.314656551
  9
$TDUPDATE
 40
2454650.439656563
  9
$TDUUPDATE
 40
2454650.314656563
  9
$TDINDWG
 40
0.0000000116
  9
$TDUSRTIMER
 40
0.0000000116
  9
$USRTIMER
 70
     1
  9
$ANGBASE
 50
0.0
  9
$ANGDIR
 70
     0
  9
$PDMODE
 70
     0
  9
$PDSIZE
 40
-1.0
  9
$PLINEWID
 40
0.0
  9
$SPLFRAME
 70
     0
  9
$SPLINETYPE
 70
     6
  9
$SPLINESEGS
 70
     8
  9
$HANDSEED
  5
280
  9
$SURFTAB1
 70
     6
  9
$SURFTAB2
 70
     6
  9
$SURFTYPE
 70
     6
  9
$SURFU
 70
     6
  9
$SURFV
 70
     6
  9
$UCSBASE
  2

  9
$UCSNAME
  2

  9
$UCSORG
 10
0.0
 20
0.0
 30
0.0
  9
$UCSXDIR
 10
1.0
 20
0.0
 30
0.0
  9
$UCSYDIR
 10
0.0
 20
1.0
 30
0.0
  9
$UCSORTHOREF
  2

  9
$UCSORTHOVIEW
 70
     0
  9
$UCSORGTOP
 10
0.0
 20
0.0
 30
0.0
  9
$UCSORGBOTTOM
 10
0.0
 20
0.0
 30
0.0
  9
$UCSORGLEFT
 10
0.0
 20
0.0
 30
0.0
  9
$UCSORGRIGHT
 10
0.0
 20
0.0
 30
0.0
  9
$UCSORGFRONT
 10
0.0
 20
0.0
 30
0.0
  9
$UCSORGBACK
 10
0.0
 20
0.0
 30
0.0
  9
$PUCSBASE
  2

  9
$PUCSNAME
  2

  9
$PUCSORG
 10
0.0
 20
0.0
 30
0.0
  9
$PUCSXDIR
 10
1.0
 20
0.0
 30
0.0
  9
$PUCSYDIR
 10
0.0
 20
1.0
 30
0.0
  9
$PUCSORTHOREF
  2

  9
$PUCSORTHOVIEW
 70
     0
  9
$PUCSORGTOP
 10
0.0
 20
0.0
 30
0.0
  9
$PUCSORGBOTTOM
 10
0.0
 20
0.0
 30
0.0
  9
$PUCSORGLEFT
 10
0.0
 20
0.0
 30
0.0
  9
$PUCSORGRIGHT
 10
0.0
 20
0.0
 30
0.0
  9
$PUCSORGFRONT
 10
0.0
 20
0.0
 30
0.0
  9
$PUCSORGBACK
 10
0.0
 20
0.0
 30
0.0
  9
$USERI1
 70
     0
  9
$USERI2
 70
     0
  9
$USERI3
 70
     0
  9
$USERI4
 70
     0
  9
$USERI5
 70
     0
  9
$USERR1
 40
0.0
  9
$USERR2
 40
0.0
  9
$USERR3
 40
0.0
  9
$USERR4
 40
0.0
  9
$USERR5
 40
0.0
  9
$WORLDVIEW
 70
     1
  9
$SHADEDGE
 70
     3
  9
$SHADEDIF
 70
    70
  9
$TILEMODE
 70
     1
  9
$MAXACTVP
 70
    64
  9
$PINSBASE
 10
0.0
 20
0.0
 30
0.0
  9
$PLIMCHECK
 70
     0
  9
$PEXTMIN
 10
1.0000000000E+20
 20
1.0000000000E+20
 30
1.0000000000E+20
  9
$PEXTMAX
 10
-1.0000000000E+20
 20
-1.0000000000E+20
 30
-1.0000000000E+20
  9
$PLIMMIN
 10
0.0
 20
0.0
  9
$PLIMMAX
 10
420.0
 20
297.0
  9
$UNITMODE
 70
     0
  9
$VISRETAIN
 70
     1
  9
$PLINEGEN
 70
     0
  9
$PSLTSCALE
 70
     1
  9
$TREEDEPTH
 70
  3020
  9
$CMLSTYLE
  2
Standard
  9
$CMLJUST
 70
     0
  9
$CMLSCALE
 40
20.0
  9
$PROXYGRAPHICS
 70
     1
  9
$MEASUREMENT
 70
     1
  9
$CELWEIGHT
370
    -1
  9
$ENDCAPS
280
     0
  9
$JOINSTYLE
280
     0
  9
$LWDISPLAY
290
     1
  9
$INSUNITS
 70
     4
  9
$HYPERLINKBASE
  1

  9
$STYLESHEET
  1

  9
$XEDIT
290
     1
  9
$CEPSNTYPE
380
     0
  9
$PSTYLEMODE
290
     1
  9
$FINGERPRINTGUID
  2
{B7A32D49-FB68-4729-A8F0-B76BB994D298}
  9
$VERSIONGUID
  2
{FAEB1C32-E019-11D5-929B-00C0DF256EC4}
  9
$EXTNAMES
290
     1
  9
$PSVPSCALE
 40
0.0
  9
$OLESTARTUP
290
     0
  0
ENDSEC
  0
SECTION
  2
CLASSES
  0
CLASS
  1
ACDBDICTIONARYWDFLT
  2
AcDbDictionaryWithDefault
  3
ObjectDBX Classes
 90
        0
280
     0
281
     0
  0
CLASS
  1
VISUALSTYLE
  2
AcDbVisualStyle
  3
ObjectDBX Classes
 90
     4095
280
     0
281
     0
  0
CLASS
  1
SCALE
  2
AcDbScale
  3
ObjectDBX Classes
 90
     1153
280
     0
281
     0
  0
CLASS
  1
DICTIONARYVAR
  2
AcDbDictionaryVar
  3
ObjectDBX Classes
 90
        0
280
     0
281
     0
  0
CLASS
  1
ACDBPLACEHOLDER
  2
AcDbPlaceHolder
  3
ObjectDBX Classes
 90
        0
280
     0
281
     0
  0
CLASS
  1
LAYOUT
  2
AcDbLayout
  3
ObjectDBX Classes
 90
        0
280
     0
281
     0
  0
ENDSEC
  0
SECTION
  2
TABLES
  0
TABLE
  2
VPORT
  5
8
330
0
100
AcDbSymbolTable
 70
     1
  0
VPORT
  5
29
330
8
100
AcDbSymbolTableRecord
100
AcDbViewportTableRecord
  2
*Active
 70
     0
 10
0.0
 20
0.0
 11
1.0
 21
1.0
 12
105.0
 22
148.5
 13
0.0
 23
0.0
 14
10.0
 24
10.0
 15
10.0
 25
10.0
 16
0.0
 26
0.0
 36
1.0
 17
0.0
 27
0.0
 37
0.0
 40
297.0
 41
0.7070707071
 42
50.0
 43
0.0
 44
0.0
 50
0.0
 51
0.0
 71
     0
 72
  2000
 73
     1
 74
     3
 75
     0
 76
     0
 77
     0
 78
     0
281
     0
 65
     1
110
0.0
120
0.0
130
0.0
111
1.0
121
0.0
131
0.0
112
0.0
122
1.0
132
0.0
 79
     0
146
0.0
  0
ENDTAB
  0
TABLE
  2
LTYPE
  5
5
330
0
100
AcDbSymbolTable
 70
     6
  0
LTYPE
  5
14
330
5
100
AcDbSymbolTableRecord
100
AcDbLinetypeTableRecord
  2
ByBlock
 70
     0
  3

 72
    65
 73
     0
 40
0.0
  0
LTYPE
  5
15
330
5
100
AcDbSymbolTableRecord
100
AcDbLinetypeTableRecord
  2
ByLayer
 70
     0
  3

 72
    65
 73
     0
 40
0.0
  0
LTYPE
  5
16
330
5
100
AcDbSymbolTableRecord
100
AcDbLinetypeTableRecord
  2
Continuous
 70
     0
  3
Solid line
 72
    65
 73
     0
 40
0.0
  0
LTYPE
  5
5D
330
5
100
AcDbSymbolTableRecord
100
AcDbLinetypeTableRecord
  2
HIDDEN
 70
     0
  3
Hidden __ __ __ __ __ __ __ __ __ __ __ __ __ __
 72
    65
 73
     2
 40
1.905
 49
1.27
 74
     0
 49
-0.635
 74
     0
  0
LTYPE
  5
5E
330
5
100
AcDbSymbolTableRecord
100
AcDbLinetypeTableRecord
  2
PHANTOM
 70
     0
  3
Phantom ______  __  __  ______  __  __  ______
 72
    65
 73
     6
 40
12.7
 49
6.35
 74
     0
 49
-1.27
 74
     0
 49
1.27
 74
     0
 49
-1.27
 74
     0
 49
1.27
 74
     0
 49
-1.27
 74
     0
  0
LTYPE
  5
5F
330
5
100
AcDbSymbolTableRecord
100
AcDbLinetypeTableRecord
  2
CENTER
 70
     0
  3
Center ____ _ ____ _ ____ _ ____ _ ____ _ ____
 72
    65
 73
     4
 40
10.16
 49
6.35
 74
     0
 49
-1.27
 74
     0
 49
1.27
 74
     0
 49
-1.27
 74
     0
  0
LTYPE
  5
60
330
5
100
AcDbSymbolTableRecord
100
AcDbLinetypeTableRecord
  2
CENTERX2
 70
     0
  3
Center (2x) ________  __  ________  __  _____
 72
    65
 73
     4
 40
20.32
 49
12.7
 74
     0
 49
-2.54
 74
     0
 49
2.54
 74
     0
 49
-2.54
 74
     0
  0
LTYPE
  5
61
330
5
100
AcDbSymbolTableRecord
100
AcDbLinetypeTableRecord
  2
DOT2
 70
     0
  3
Dot (.5x) ........................................
 72
    65
 73
     2
 40
0.635
 49
0.0
 74
     0
 49
-0.635
 74
     0
  0
ENDTAB
  0
TABLE
  2
LAYER
  5
2
330
0
100
AcDbSymbolTable
 70
     3
  0
LAYER
  5
10
330
2
100
AcDbSymbolTableRecord
100
AcDbLayerTableRecord
  2
0
 70
     0
 62
     7
  6
Continuous
370
    -3
390
F
  0
LAYER
  5
62
330
2
100
AcDbSymbolTableRecord
100
AcDbLayerTableRecord
  2
SLD-0
 70
     0
 62
    19
  6
Continuous
370
    -3
390
F
  0
LAYER
  5
63
330
2
100
AcDbSymbolTableRecord
100
AcDbLayerTableRecord
  2
1
 70
     0
 62
    19
  6
Continuous
370
    -3
390
F
  0
ENDTAB
  0
TABLE
  2
STYLE
  5
3
330
0
100
AcDbSymbolTable
 70
     3
  0
STYLE
  5
11
330
3
100
AcDbSymbolTableRecord
100
AcDbTextStyleTableRecord
  2
Standard
 70
     0
 40
0.0
 41
1.0
 50
0.0
 71
     0
 42
2.5
  3
txt
  4

  0
STYLE
  5
93
330
3
100
AcDbSymbolTableRecord
100
AcDbTextStyleTableRecord
  2
SLDTEXTSTYLE0
 70
     0
 40
0.0
 41
0.605
 50
0.0
 71
     0
 42
0.2
  3
TXT
  4

  0
STYLE
  5
9F
330
3
100
AcDbSymbolTableRecord
100
AcDbTextStyleTableRecord
  2
SLDTEXTSTYLE1
 70
     0
 40
0.0
 41
0.75
 50
0.0
 71
     0
 42
0.2
  3
TXT
  4

  0
ENDTAB
  0
TABLE
  2
VIEW
  5
6
330
0
100
AcDbSymbolTable
 70
     0
  0
ENDTAB
  0
TABLE
  2
UCS
  5
7
330
0
100
AcDbSymbolTable
 70
     0
  0
ENDTAB
  0
TABLE
  2
APPID
  5
9
330
0
100
AcDbSymbolTable
 70
     1
  0
APPID
  5
12
330
9
100
AcDbSymbolTableRecord
100
AcDbRegAppTableRecord
  2
ACAD
 70
     0
  0
ENDTAB
  0
TABLE
  2
DIMSTYLE
  5
A
330
0
100
AcDbSymbolTable
 70
     7
100
AcDbDimStyleTable
  0
DIMSTYLE
105
27
330
A
100
AcDbSymbolTableRecord
100
AcDbDimStyleTableRecord
  2
ISO-25
 70
     0
 41
2.5
 42
0.625
 43
3.75
 44
1.25
 73
     0
 74
     0
 77
     1
 78
     8
140
2.5
141
2.5
143
0.0393700787
147
0.625
171
     3
172
     1
271
     2
272
     2
274
     3
278
    44
283
     0
284
     8
340
11
  0
DIMSTYLE
105
EB
102
{ACAD_REACTORS
330
EA
330
148
102
}
330
A
100
AcDbSymbolTableRecord
100
AcDbDimStyleTableRecord
  2
SLDDIMSTYLE0
 70
     0
 41
0.4333333333
 44
0.0
 45
0.000000001
 78
    12
140
3.5
147
0.875
173
     1
271
     0
272
     0
284
    12
340
93
341
EC
343
EC
344
EC
  0
DIMSTYLE
105
F8
102
{ACAD_REACTORS
330
F7
330
100
330
108
330
110
330
118
330
120
330
128
330
130
330
138
330
140
330
14F
330
157
330
15F
330
167
102
}
330
A
100
AcDbSymbolTableRecord
100
AcDbDimStyleTableRecord
  2
SLDDIMSTYLE1
 70
     0
 41
3.5
 44
0.0
 45
0.000000001
 78
    12
140
3.5
147
0.875
173
     1
271
     2
272
     2
284
    12
340
93
  0
DIMSTYLE
105
170
102
{ACAD_REACTORS
330
16F
330
18C
102
}
330
A
100
AcDbSymbolTableRecord
100
AcDbDimStyleTableRecord
  2
SLDDIMSTYLE2
 70
     0
 41
3.5
 44
0.0
 45
0.000000001
 73
     0
 77
     1
 78
    12
140
3.5
147
0.875
173
     1
271
     2
272
     2
284
    12
340
93
  0
DIMSTYLE
105
17A
102
{ACAD_REACTORS
330
179
330
183
330
197
102
}
330
A
100
AcDbSymbolTableRecord
100
AcDbDimStyleTableRecord
  2
SLDDIMSTYLE3
 70
     0
 41
3.5
 44
0.0
 45
0.000000001
 73
     0
 77
     1
 78
    12
140
3.5
147
0.875
173
     1
271
     2
272
     2
284
    12
340
93
  0
DIMSTYLE
105
1A1
102
{ACAD_REACTORS
330
1A0
330
1ED
330
247
330
26C
102
}
330
A
100
AcDbSymbolTableRecord
100
AcDbDimStyleTableRecord
  2
SLDDIMSTYLE4
 70
     0
 41
3.5
 44
0.0
 45
0.000000001
 73
     0
 77
     1
 78
    12
140
3.5
147
0.875
173
     1
271
     2
272
     2
284
    12
340
93
  0
DIMSTYLE
105
254
102
{ACAD_REACTORS
330
253
330
260
102
}
330
A
100
AcDbSymbolTableRecord
100
AcDbDimStyleTableRecord
  2
SLDDIMSTYLE5
 70
     0
 41
3.5
 44
0.0
 73
     0
 77
     1
 78
    12
140
3.5
147
0.875
173
     1
179
     2
272
     2
284
    12
340
93
  0
ENDTAB
  0
TABLE
  2
BLOCK_RECORD
  5
1
330
0
100
AcDbSymbolTable
 70
    35
  0
BLOCK_RECORD
  5
1F
330
1
100
AcDbSymbolTableRecord
100
AcDbBlockTableRecord
  2
*Model_Space
340
22
  0
BLOCK_RECORD
  5
1B
330
1
100
AcDbSymbolTableRecord
100
AcDbBlockTableRecord
  2
*Paper_Space
340
1E
  0
BLOCK_RECORD
  5
23
330
1
100
AcDbSymbolTableRecord
100
AcDbBlockTableRecord
  2
*Paper_Space0
340
26
  0
BLOCK_RECORD
  5
AB
330
1
100
AcDbSymbolTableRecord
100
AcDbBlockTableRecord
  2
SW_NOTE_0
340
0
102
{BLKREFS
331
B1
102
}
  0
BLOCK_RECORD
  5
B2
330
1
100
AcDbSymbolTableRecord
100
AcDbBlockTableRecord
  2
SW_NOTE_1
340
0
102
{BLKREFS
331
B9
102
}
  0
BLOCK_RECORD
  5
EC
330
1
100
AcDbSymbolTableRecord
100
AcDbBlockTableRecord
  2
_ORIGIN
340
0
102
{BLKREFS
331
F4
331
14C
102
}
  0
BLOCK_RECORD
  5
F1
330
1
100
AcDbSymbolTableRecord
100
AcDbBlockTableRecord
  2
*D4
340
0
  0
BLOCK_RECORD
  5
F9
330
1
100
AcDbSymbolTableRecord
100
AcDbBlockTableRecord
  2
*D5
340
0
  0
BLOCK_RECORD
  5
101
330
1
100
AcDbSymbolTableRecord
100
AcDbBlockTableRecord
  2
*D6
340
0
  0
BLOCK_RECORD
  5
109
330
1
100
AcDbSymbolTableRecord
100
AcDbBlockTableRecord
  2
*D7
340
0
  0
BLOCK_RECORD
  5
111
330
1
100
AcDbSymbolTableRecord
100
AcDbBlockTableRecord
  2
*D8
340
0
  0
BLOCK_RECORD
  5
119
330
1
100
AcDbSymbolTableRecord
100
AcDbBlockTableRecord
  2
*D9
340
0
  0
BLOCK_RECORD
  5
121
330
1
100
AcDbSymbolTableRecord
100
AcDbBlockTableRecord
  2
*D10
340
0
  0
BLOCK_RECORD
  5
129
330
1
100
AcDbSymbolTableRecord
100
AcDbBlockTableRecord
  2
*D11
340
0
  0
BLOCK_RECORD
  5
131
330
1
100
AcDbSymbolTableRecord
100
AcDbBlockTableRecord
  2
*D12
340
0
  0
BLOCK_RECORD
  5
139
330
1
100
AcDbSymbolTableRecord
100
AcDbBlockTableRecord
  2
*D13
340
0
  0
BLOCK_RECORD
  5
141
330
1
100
AcDbSymbolTableRecord
100
AcDbBlockTableRecord
  2
*D14
340
0
  0
BLOCK_RECORD
  5
149
330
1
100
AcDbSymbolTableRecord
100
AcDbBlockTableRecord
  2
*D15
340
0
  0
BLOCK_RECORD
  5
150
330
1
100
AcDbSymbolTableRecord
100
AcDbBlockTableRecord
  2
*D16
340
0
  0
BLOCK_RECORD
  5
158
330
1
100
AcDbSymbolTableRecord
100
AcDbBlockTableRecord
  2
*D17
340
0
  0
BLOCK_RECORD
  5
160
330
1
100
AcDbSymbolTableRecord
100
AcDbBlockTableRecord
  2
*D18
340
0
  0
BLOCK_RECORD
  5
168
330
1
100
AcDbSymbolTableRecord
100
AcDbBlockTableRecord
  2
*D19
340
0
  0
BLOCK_RECORD
  5
171
330
1
100
AcDbSymbolTableRecord
100
AcDbBlockTableRecord
  2
*D20
340
0
  0
BLOCK_RECORD
  5
17B
330
1
100
AcDbSymbolTableRecord
100
AcDbBlockTableRecord
  2
*D21
340
0
  0
BLOCK_RECORD
  5
184
330
1
100
AcDbSymbolTableRecord
100
AcDbBlockTableRecord
  2
*D22
340
0
  0
BLOCK_RECORD
  5
18D
330
1
100
AcDbSymbolTableRecord
100
AcDbBlockTableRecord
  2
*D23
340
0
  0
BLOCK_RECORD
  5
198
330
1
100
AcDbSymbolTableRecord
100
AcDbBlockTableRecord
  2
*D24
340
0
  0
BLOCK_RECORD
  5
1A2
330
1
100
AcDbSymbolTableRecord
100
AcDbBlockTableRecord
  2
*D25
340
0
  0
BLOCK_RECORD
  5
1AC
330
1
100
AcDbSymbolTableRecord
100
AcDbBlockTableRecord
  2
SW_CENTERMARKSYMBOL_0
340
0
102
{BLKREFS
331
1B7
102
}
  0
BLOCK_RECORD
  5
1B8
330
1
100
AcDbSymbolTableRecord
100
AcDbBlockTableRecord
  2
SW_CENTERMARKSYMBOL_1
340
0
102
{BLKREFS
331
1C3
102
}
  0
BLOCK_RECORD
  5
1C4
330
1
100
AcDbSymbolTableRecord
100
AcDbBlockTableRecord
  2
SW_CENTERMARKSYMBOL_2
340
0
102
{BLKREFS
331
1CF
102
}
  0
BLOCK_RECORD
  5
1D0
330
1
100
AcDbSymbolTableRecord
100
AcDbBlockTableRecord
  2
SW_CENTERMARKSYMBOL_3
340
0
102
{BLKREFS
331
1DB
102
}
  0
BLOCK_RECORD
  5
1EE
330
1
100
AcDbSymbolTableRecord
100
AcDbBlockTableRecord
  2
*D30
340
0
  0
BLOCK_RECORD
  5
248
330
1
100
AcDbSymbolTableRecord
100
AcDbBlockTableRecord
  2
*D31
340
0
  0
BLOCK_RECORD
  5
255
330
1
100
AcDbSymbolTableRecord
100
AcDbBlockTableRecord
  2
*D32
340
0
  0
BLOCK_RECORD
  5
261
330
1
100
AcDbSymbolTableRecord
100
AcDbBlockTableRecord
  2
*D33
340
0
  0
BLOCK_RECORD
  5
26D
330
1
100
AcDbSymbolTableRecord
100
AcDbBlockTableRecord
  2
*D34
340
0
  0
ENDTAB
  0
ENDSEC
  0
SECTION
  2
BLOCKS
  0
BLOCK
  5
20
330
1F
100
AcDbEntity
  8
0
100
AcDbBlockBegin
  2
*Model_Space
 70
     0
 10
0.0
 20
0.0
 30
0.0
  3
*Model_Space
  1

  0
ENDBLK
  5
21
330
1F
100
AcDbEntity
  8
0
100
AcDbBlockEnd
  0
BLOCK
  5
1C
330
1B
100
AcDbEntity
 67
     1
  8
0
100
AcDbBlockBegin
  2
*Paper_Space
 70
     0
 10
0.0
 20
0.0
 30
0.0
  3
*Paper_Space
  1

  0
ENDBLK
  5
1D
330
1B
100
AcDbEntity
 67
     1
  8
0
100
AcDbBlockEnd
  0
BLOCK
  5
24
330
23
100
AcDbEntity
  8
0
100
AcDbBlockBegin
  2
*Paper_Space0
 70
     0
 10
0.0
 20
0.0
 30
0.0
  3
*Paper_Space0
  1

  0
ENDBLK
  5
25
330
23
100
AcDbEntity
  8
0
100
AcDbBlockEnd
  0
BLOCK
  5
AC
330
AB
100
AcDbEntity
  8
0
100
AcDbBlockBegin
  2
SW_NOTE_0
 70
     0
 10
0.0
 20
0.0
 30
0.0
  3
SW_NOTE_0
  1

  0
MTEXT
  5
AE
330
AB
100
AcDbEntity
  8
1
 62
     0
100
AcDbMText
 10
0.0
 20
2.3874608764
 30
0.0
 40
1.8520833333
 41
0.0
 71
     1
 72
     1
  1
Tämä piirustus on meidän omaisuut-
  7
SLDTEXTSTYLE0
 73
     1
 44
1.0
  0
MTEXT
  5
AF
330
AB
100
AcDbEntity
  8
1
 62
     0
100
AcDbMText
 10
0.0
 20
-0.0819835382
 30
0.0
 40
1.8520833333
 41
0.0
 71
     1
 72
     1
  1
tamme eikä sitä saa ilman meidän eritystä
  7
SLDTEXTSTYLE0
 73
     1
 44
1.0
  0
MTEXT
  5
B0
330
AB
100
AcDbEntity
  8
1
 62
     0
100
AcDbMText
 10
0.0
 20
-2.5514279528
 30
0.0
 40
1.8520833333
 41
0.0
 71
     1
 72
     1
  1
lupaamme jäljentää tai näyttää sivullisille.
  7
SLDTEXTSTYLE0
 73
     1
 44
1.0
  0
ENDBLK
  5
AD
330
AB
100
AcDbEntity
  8
0
100
AcDbBlockEnd
  0
BLOCK
  5
B3
330
B2
100
AcDbEntity
  8
0
100
AcDbBlockBegin
  2
SW_NOTE_1
 70
     0
 10
0.0
 20
0.0
 30
0.0
  3
SW_NOTE_1
  1

  0
MTEXT
  5
B5
330
B2
100
AcDbEntity
  8
1
 62
     0
100
AcDbMText
 10
0.0
 20
2.3874608764
 30
0.0
 40
1.8520833333
 41
0.0
 71
     1
 72
     1
  1
This document is and stays our exclusive
  7
SLDTEXTSTYLE0
 73
     1
 44
1.0
  0
MTEXT
  5
B6
330
B2
100
AcDbEntity
  8
1
 62
     0
100
AcDbMText
 10
0.0
 20
-0.0819835382
 30
0.0
 40
1.8520833333
 41
0.0
 71
     1
 72
     1
  1
property and as such is not to be copied
  7
SLDTEXTSTYLE0
 73
     1
 44
1.0
  0
MTEXT
  5
B7
330
B2
100
AcDbEntity
  8
1
 62
     0
100
AcDbMText
 10
0.0
 20
-2.5514279528
 30
0.0
 40
1.8520833333
 41
0.0
 71
     1
 72
     1
  1
in whole or in part nor made available to
  7
SLDTEXTSTYLE0
 73
     1
 44
1.0
  0
MTEXT
  5
B8
330
B2
100
AcDbEntity
  8
1
 62
     0
100
AcDbMText
 10
0.0
 20
-5.0208723674
 30
0.0
 40
1.8520833333
 41
0.0
 71
     1
 72
     1
  1
any third party without our permission.
  7
SLDTEXTSTYLE0
 73
     1
 44
1.0
  0
ENDBLK
  5
B4
330
B2
100
AcDbEntity
  8
0
100
AcDbBlockEnd
  0
BLOCK
  5
ED
330
EC
100
AcDbEntity
  8
0
100
AcDbBlockBegin
  2
_ORIGIN
 70
     0
 10
0.0
 20
0.0
 30
0.0
  3
_ORIGIN
  1

  0
CIRCLE
  5
EF
330
EC
100
AcDbEntity
  8
0
  6
ByBlock
 62
     0
370
    -2
100
AcDbCircle
 10
0.0
 20
0.0
 30
0.0
 40
0.5
  0
LINE
  5
F0
330
EC
100
AcDbEntity
  8
0
  6
ByBlock
 62
     0
370
    -2
100
AcDbLine
 10
0.0
 20
0.0
 30
0.0
 11
-1.0
 21
0.0
 31
0.0
  0
ENDBLK
  5
EE
330
EC
100
AcDbEntity
  8
0
100
AcDbBlockEnd
  0
BLOCK
  5
F2
330
F1
100
AcDbEntity
  8
0
100
AcDbBlockBegin
  2
*D4
 70
     1
 10
0.0
 20
0.0
 30
0.0
  3
*D4
  1

  0
INSERT
  5
F4
330
F1
100
AcDbEntity
  8
1
100
AcDbBlockReference
  2
_ORIGIN
 10
105.2042755541
 20
167.2628215877
 30
0.1
 41
1.3
 42
1.3
 50
0.0
  0
LINE
  5
F5
330
F1
100
AcDbEntity
  8
1
100
AcDbLine
 10
90.5860440878
 20
167.2628215877
 30
0.0
 11
106.5042755541
 21
167.2628215877
 31
0.0
  0
MTEXT
  5
F6
330
F1
100
AcDbEntity
  8
1
100
AcDbMText
 10
108.0917755541
 20
169.0898313173
 30
0.0
 40
3.5
 41
0.0
 71
     1
 72
     1
  1
0
  7
SLDTEXTSTYLE0
 73
     1
 44
1.0
  0
ENDBLK
  5
F3
330
F1
100
AcDbEntity
  8
0
100
AcDbBlockEnd
  0
BLOCK
  5
FA
330
F9
100
AcDbEntity
  8
0
100
AcDbBlockBegin
  2
*D5
 70
     1
 10
0.0
 20
0.0
 30
0.0
  3
*D5
  1

  0
SOLID
  5
FC
330
F9
100
AcDbEntity
  8
1
100
AcDbTrace
 10
105.2042755541
 20
186.2628215877
 30
0.0
 11
104.5542755541
 21
182.7628215877
 31
0.0
 12
105.8542755541
 22
182.7628215877
 32
0.0
 13
105.8542755541
 23
182.7628215877
 33
0.0
  0
LINE
  5
FD
330
F9
100
AcDbEntity
  8
1
100
AcDbLine
 10
89.5860440878
 20
186.2628215877
 30
0.0
 11
106.5042755541
 21
186.2628215877
 31
0.0
  0
LINE
  5
FE
330
F9
100
AcDbEntity
  8
1
100
AcDbLine
 10
105.2042755541
 20
167.2628215877
 30
0.0
 11
105.2042755541
 21
186.2628215877
 31
0.0
  0
MTEXT
  5
FF
330
F9
100
AcDbEntity
  8
1
100
AcDbMText
 10
108.0917755541
 20
188.0898313173
 30
0.0
 40
3.5
 41
0.0
 71
     1
 72
     1
  1
19
  7
SLDTEXTSTYLE0
 73
     1
 44
1.0
  0
ENDBLK
  5
FB
330
F9
100
AcDbEntity
  8
0
100
AcDbBlockEnd
  0
BLOCK
  5
102
330
101
100
AcDbEntity
  8
0
100
AcDbBlockBegin
  2
*D6
 70
     1
 10
0.0
 20
0.0
 30
0.0
  3
*D6
  1

  0
SOLID
  5
104
330
101
100
AcDbEntity
  8
1
100
AcDbTrace
 10
105.2042755541
 20
217.7628215877
 30
0.0
 11
104.5542755541
 21
214.2628215877
 31
0.0
 12
105.8542755541
 22
214.2628215877
 32
0.0
 13
105.8542755541
 23
214.2628215877
 33
0.0
  0
LINE
  5
105
330
101
100
AcDbEntity
  8
1
100
AcDbLine
 10
88.3360440878
 20
217.7628215877
 30
0.0
 11
106.5042755541
 21
217.7628215877
 31
0.0
  0
LINE
  5
106
330
101
100
AcDbEntity
  8
1
100
AcDbLine
 10
105.2042755541
 20
167.2628215877
 30
0.0
 11
105.2042755541
 21
217.7628215877
 31
0.0
  0
MTEXT
  5
107
330
101
100
AcDbEntity
  8
1
100
AcDbMText
 10
108.0917755541
 20
219.5898313173
 30
0.0
 40
3.5
 41
0.0
 71
     1
 72
     1
  1
50,5
  7
SLDTEXTSTYLE0
 73
     1
 44
1.0
  0
ENDBLK
  5
103
330
101
100
AcDbEntity
  8
0
100
AcDbBlockEnd
  0
BLOCK
  5
10A
330
109
100
AcDbEntity
  8
0
100
AcDbBlockBegin
  2
*D7
 70
     1
 10
0.0
 20
0.0
 30
0.0
  3
*D7
  1

  0
SOLID
  5
10C
330
109
100
AcDbEntity
  8
1
100
AcDbTrace
 10
105.2042755541
 20
235.2628215877
 30
0.0
 11
104.5542755541
 21
231.7628215877
 31
0.0
 12
105.8542755541
 22
231.7628215877
 32
0.0
 13
105.8542755541
 23
231.7628215877
 33
0.0
  0
LINE
  5
10D
330
109
100
AcDbEntity
  8
1
100
AcDbLine
 10
88.3360440878
 20
235.2628215877
 30
0.0
 11
106.5042755541
 21
235.2628215877
 31
0.0
  0
LINE
  5
10E
330
109
100
AcDbEntity
  8
1
100
AcDbLine
 10
105.2042755541
 20
167.2628215877
 30
0.0
 11
105.2042755541
 21
235.2628215877
 31
0.0
  0
MTEXT
  5
10F
330
109
100
AcDbEntity
  8
1
100
AcDbMText
 10
108.0917755541
 20
237.0898313173
 30
0.0
 40
3.5
 41
0.0
 71
     1
 72
     1
  1
68
  7
SLDTEXTSTYLE0
 73
     1
 44
1.0
  0
ENDBLK
  5
10B
330
109
100
AcDbEntity
  8
0
100
AcDbBlockEnd
  0
BLOCK
  5
112
330
111
100
AcDbEntity
  8
0
100
AcDbBlockBegin
  2
*D8
 70
     1
 10
0.0
 20
0.0
 30
0.0
  3
*D8
  1

  0
SOLID
  5
114
330
111
100
AcDbEntity
  8
1
100
AcDbTrace
 10
105.2042755541
 20
245.2628215877
 30
0.0
 11
104.5542755541
 21
241.7628215877
 31
0.0
 12
105.8542755541
 22
241.7628215877
 32
0.0
 13
105.8542755541
 23
241.7628215877
 33
0.0
  0
LINE
  5
115
330
111
100
AcDbEntity
  8
1
100
AcDbLine
 10
89.3360440878
 20
245.2628215877
 30
0.0
 11
106.5042755541
 21
245.2628215877
 31
0.0
  0
LINE
  5
116
330
111
100
AcDbEntity
  8
1
100
AcDbLine
 10
105.2042755541
 20
167.2628215877
 30
0.0
 11
105.2042755541
 21
245.2628215877
 31
0.0
  0
MTEXT
  5
117
330
111
100
AcDbEntity
  8
1
100
AcDbMText
 10
108.0917755541
 20
247.0898313173
 30
0.0
 40
3.5
 41
0.0
 71
     1
 72
     1
  1
78
  7
SLDTEXTSTYLE0
 73
     1
 44
1.0
  0
ENDBLK
  5
113
330
111
100
AcDbEntity
  8
0
100
AcDbBlockEnd
  0
BLOCK
  5
11A
330
119
100
AcDbEntity
  8
0
100
AcDbBlockBegin
  2
*D9
 70
     1
 10
0.0
 20
0.0
 30
0.0
  3
*D9
  1

  0
SOLID
  5
11C
330
119
100
AcDbEntity
  8
1
100
AcDbTrace
 10
105.2042755541
 20
252.7628215877
 30
0.0
 11
104.5542755541
 21
249.2628215877
 31
0.0
 12
105.8542755541
 22
249.2628215877
 32
0.0
 13
105.8542755541
 23
249.2628215877
 33
0.0
  0
LINE
  5
11D
330
119
100
AcDbEntity
  8
1
100
AcDbLine
 10
94.8360440878
 20
252.7628215877
 30
0.0
 11
106.5042755541
 21
252.7628215877
 31
0.0
  0
LINE
  5
11E
330
119
100
AcDbEntity
  8
1
100
AcDbLine
 10
105.2042755541
 20
167.2628215877
 30
0.0
 11
105.2042755541
 21
252.7628215877
 31
0.0
  0
MTEXT
  5
11F
330
119
100
AcDbEntity
  8
1
100
AcDbMText
 10
108.0917755541
 20
254.5898313173
 30
0.0
 40
3.5
 41
0.0
 71
     1
 72
     1
  1
85,5
  7
SLDTEXTSTYLE0
 73
     1
 44
1.0
  0
ENDBLK
  5
11B
330
119
100
AcDbEntity
  8
0
100
AcDbBlockEnd
  0
BLOCK
  5
122
330
121
100
AcDbEntity
  8
0
100
AcDbBlockBegin
  2
*D10
 70
     1
 10
0.0
 20
0.0
 30
0.0
  3
*D10
  1

  0
SOLID
  5
124
330
121
100
AcDbEntity
  8
1
100
AcDbTrace
 10
105.2042755541
 20
148.2628215877
 30
0.0
 11
105.8542755541
 21
151.7628215877
 31
0.0
 12
104.5542755541
 22
151.7628215877
 32
0.0
 13
104.5542755541
 23
151.7628215877
 33
0.0
  0
LINE
  5
125
330
121
100
AcDbEntity
  8
1
100
AcDbLine
 10
89.5860440878
 20
148.2628215877
 30
0.0
 11
106.5042755541
 21
148.2628215877
 31
0.0
  0
LINE
  5
126
330
121
100
AcDbEntity
  8
1
100
AcDbLine
 10
105.2042755541
 20
167.2628215877
 30
0.0
 11
105.2042755541
 21
148.2628215877
 31
0.0
  0
MTEXT
  5
127
330
121
100
AcDbEntity
  8
1
100
AcDbMText
 10
108.0917755541
 20
150.0898313173
 30
0.0
 40
3.5
 41
0.0
 71
     1
 72
     1
  1
19
  7
SLDTEXTSTYLE0
 73
     1
 44
1.0
  0
ENDBLK
  5
123
330
121
100
AcDbEntity
  8
0
100
AcDbBlockEnd
  0
BLOCK
  5
12A
330
129
100
AcDbEntity
  8
0
100
AcDbBlockBegin
  2
*D11
 70
     1
 10
0.0
 20
0.0
 30
0.0
  3
*D11
  1

  0
SOLID
  5
12C
330
129
100
AcDbEntity
  8
1
100
AcDbTrace
 10
105.2042755541
 20
135.7628215877
 30
0.0
 11
105.8542755541
 21
139.2628215877
 31
0.0
 12
104.5542755541
 22
139.2628215877
 32
0.0
 13
104.5542755541
 23
139.2628215877
 33
0.0
  0
LINE
  5
12D
330
129
100
AcDbEntity
  8
1
100
AcDbLine
 10
88.3360440878
 20
135.7628215877
 30
0.0
 11
106.5042755541
 21
135.7628215877
 31
0.0
  0
LINE
  5
12E
330
129
100
AcDbEntity
  8
1
100
AcDbLine
 10
105.2042755541
 20
167.2628215877
 30
0.0
 11
105.2042755541
 21
135.7628215877
 31
0.0
  0
MTEXT
  5
12F
330
129
100
AcDbEntity
  8
1
100
AcDbMText
 10
108.0917755541
 20
137.5898313173
 30
0.0
 40
3.5
 41
0.0
 71
     1
 72
     1
  1
31,5
  7
SLDTEXTSTYLE0
 73
     1
 44
1.0
  0
ENDBLK
  5
12B
330
129
100
AcDbEntity
  8
0
100
AcDbBlockEnd
  0
BLOCK
  5
132
330
131
100
AcDbEntity
  8
0
100
AcDbBlockBegin
  2
*D12
 70
     1
 10
0.0
 20
0.0
 30
0.0
  3
*D12
  1

  0
SOLID
  5
134
330
131
100
AcDbEntity
  8
1
100
AcDbTrace
 10
105.2042755541
 20
118.2628215877
 30
0.0
 11
105.8542755541
 21
121.7628215877
 31
0.0
 12
104.5542755541
 22
121.7628215877
 32
0.0
 13
104.5542755541
 23
121.7628215877
 33
0.0
  0
LINE
  5
135
330
131
100
AcDbEntity
  8
1
100
AcDbLine
 10
88.3360440878
 20
118.2628215877
 30
0.0
 11
106.5042755541
 21
118.2628215877
 31
0.0
  0
LINE
  5
136
330
131
100
AcDbEntity
  8
1
100
AcDbLine
 10
105.2042755541
 20
167.2628215877
 30
0.0
 11
105.2042755541
 21
118.2628215877
 31
0.0
  0
MTEXT
  5
137
330
131
100
AcDbEntity
  8
1
100
AcDbMText
 10
108.0917755541
 20
120.0898313173
 30
0.0
 40
3.5
 41
0.0
 71
     1
 72
     1
  1
49
  7
SLDTEXTSTYLE0
 73
     1
 44
1.0
  0
ENDBLK
  5
133
330
131
100
AcDbEntity
  8
0
100
AcDbBlockEnd
  0
BLOCK
  5
13A
330
139
100
AcDbEntity
  8
0
100
AcDbBlockBegin
  2
*D13
 70
     1
 10
0.0
 20
0.0
 30
0.0
  3
*D13
  1

  0
SOLID
  5
13C
330
139
100
AcDbEntity
  8
1
100
AcDbTrace
 10
105.2042755541
 20
108.2628215877
 30
0.0
 11
105.8542755541
 21
111.7628215877
 31
0.0
 12
104.5542755541
 22
111.7628215877
 32
0.0
 13
104.5542755541
 23
111.7628215877
 33
0.0
  0
LINE
  5
13D
330
139
100
AcDbEntity
  8
1
100
AcDbLine
 10
89.3360440878
 20
108.2628215877
 30
0.0
 11
106.5042755541
 21
108.2628215877
 31
0.0
  0
LINE
  5
13E
330
139
100
AcDbEntity
  8
1
100
AcDbLine
 10
105.2042755541
 20
167.2628215877
 30
0.0
 11
105.2042755541
 21
108.2628215877
 31
0.0
  0
MTEXT
  5
13F
330
139
100
AcDbEntity
  8
1
100
AcDbMText
 10
108.0917755541
 20
110.0898313173
 30
0.0
 40
3.5
 41
0.0
 71
     1
 72
     1
  1
59
  7
SLDTEXTSTYLE0
 73
     1
 44
1.0
  0
ENDBLK
  5
13B
330
139
100
AcDbEntity
  8
0
100
AcDbBlockEnd
  0
BLOCK
  5
142
330
141
100
AcDbEntity
  8
0
100
AcDbBlockBegin
  2
*D14
 70
     1
 10
0.0
 20
0.0
 30
0.0
  3
*D14
  1

  0
SOLID
  5
144
330
141
100
AcDbEntity
  8
1
100
AcDbTrace
 10
105.2042755541
 20
100.7628215877
 30
0.0
 11
105.8542755541
 21
104.2628215877
 31
0.0
 12
104.5542755541
 22
104.2628215877
 32
0.0
 13
104.5542755541
 23
104.2628215877
 33
0.0
  0
LINE
  5
145
330
141
100
AcDbEntity
  8
1
100
AcDbLine
 10
94.8360440878
 20
100.7628215877
 30
0.0
 11
106.5042755541
 21
100.7628215877
 31
0.0
  0
LINE
  5
146
330
141
100
AcDbEntity
  8
1
100
AcDbLine
 10
105.2042755541
 20
167.2628215877
 30
0.0
 11
105.2042755541
 21
100.7628215877
 31
0.0
  0
MTEXT
  5
147
330
141
100
AcDbEntity
  8
1
100
AcDbMText
 10
108.0917755541
 20
102.5898313173
 30
0.0
 40
3.5
 41
0.0
 71
     1
 72
     1
  1
66,5
  7
SLDTEXTSTYLE0
 73
     1
 44
1.0
  0
ENDBLK
  5
143
330
141
100
AcDbEntity
  8
0
100
AcDbBlockEnd
  0
BLOCK
  5
14A
330
149
100
AcDbEntity
  8
0
100
AcDbBlockBegin
  2
*D15
 70
     1
 10
0.0
 20
0.0
 30
0.0
  3
*D15
  1

  0
INSERT
  5
14C
330
149
100
AcDbEntity
  8
1
100
AcDbBlockReference
  2
_ORIGIN
 10
82.5860440878
 20
264.4861598114
 30
0.1
 41
1.3
 42
1.3
 50
0.0
  0
LINE
  5
14D
330
149
100
AcDbEntity
  8
1
100
AcDbLine
 10
82.5860440878
 20
241.0128215877
 30
0.0
 11
82.5860440878
 21
265.7861598114
 31
0.0
  0
MTEXT
  5
14E
330
149
100
AcDbEntity
  8
1
100
AcDbMText
 10
80.7590343582
 20
267.3736598114
 30
0.0
 40
3.5
 41
0.0
 71
     1
 72
     1
  1
0
  7
SLDTEXTSTYLE0
 11
6.123233995736766E-17
 21
1.0
 31
0.0
 73
     1
 44
1.0
  0
ENDBLK
  5
14B
330
149
100
AcDbEntity
  8
0
100
AcDbBlockEnd
  0
BLOCK
  5
151
330
150
100
AcDbEntity
  8
0
100
AcDbBlockBegin
  2
*D16
 70
     1
 10
0.0
 20
0.0
 30
0.0
  3
*D16
  1

  0
SOLID
  5
153
330
150
100
AcDbEntity
  8
1
100
AcDbTrace
 10
88.3360440878
 20
264.4861598114
 30
0.0
 11
84.8360440878
 21
265.1361598114
 31
0.0
 12
84.8360440878
 22
263.8361598114
 32
0.0
 13
84.8360440878
 23
263.8361598114
 33
0.0
  0
LINE
  5
154
330
150
100
AcDbEntity
  8
1
100
AcDbLine
 10
88.3360440878
 20
246.2628215877
 30
0.0
 11
88.3360440878
 21
265.7861598114
 31
0.0
  0
LINE
  5
155
330
150
100
AcDbEntity
  8
1
100
AcDbLine
 10
82.5860440878
 20
264.4861598114
 30
0.0
 11
88.3360440878
 21
264.4861598114
 31
0.0
  0
MTEXT
  5
156
330
150
100
AcDbEntity
  8
1
100
AcDbMText
 10
86.5090343582
 20
267.3736598114
 30
0.0
 40
3.5
 41
0.0
 71
     1
 72
     1
  1
5,75
  7
SLDTEXTSTYLE0
 11
6.123233995736766E-17
 21
1.0
 31
0.0
 73
     1
 44
1.0
  0
ENDBLK
  5
152
330
150
100
AcDbEntity
  8
0
100
AcDbBlockEnd
  0
BLOCK
  5
159
330
158
100
AcDbEntity
  8
0
100
AcDbBlockBegin
  2
*D17
 70
     1
 10
0.0
 20
0.0
 30
0.0
  3
*D17
  1

  0
SOLID
  5
15B
330
158
100
AcDbEntity
  8
1
100
AcDbTrace
 10
76.8360440878
 20
264.4861598114
 30
0.0
 11
80.3360440878
 21
263.8361598114
 31
0.0
 12
80.3360440878
 22
265.1361598114
 32
0.0
 13
80.3360440878
 23
265.1361598114
 33
0.0
  0
LINE
  5
15C
330
158
100
AcDbEntity
  8
1
100
AcDbLine
 10
76.8360440878
 20
246.2628215877
 30
0.0
 11
76.8360440878
 21
265.7861598114
 31
0.0
  0
LINE
  5
15D
330
158
100
AcDbEntity
  8
1
100
AcDbLine
 10
82.5860440878
 20
264.4861598114
 30
0.0
 11
76.8360440878
 21
264.4861598114
 31
0.0
  0
MTEXT
  5
15E
330
158
100
AcDbEntity
  8
1
100
AcDbMText
 10
75.0090343582
 20
267.3736598114
 30
0.0
 40
3.5
 41
0.0
 71
     1
 72
     1
  1
5,75
  7
SLDTEXTSTYLE0
 11
6.123233995736766E-17
 21
1.0
 31
0.0
 73
     1
 44
1.0
  0
ENDBLK
  5
15A
330
158
100
AcDbEntity
  8
0
100
AcDbBlockEnd
  0
BLOCK
  5
161
330
160
100
AcDbEntity
  8
0
100
AcDbBlockBegin
  2
*D18
 70
     1
 10
0.0
 20
0.0
 30
0.0
  3
*D18
  1

  0
SOLID
  5
163
330
160
100
AcDbEntity
  8
1
100
AcDbTrace
 10
94.8360440878
 20
264.4861598114
 30
0.0
 11
91.3360440878
 21
265.1361598114
 31
0.0
 12
91.3360440878
 22
263.8361598114
 32
0.0
 13
91.3360440878
 23
263.8361598114
 33
0.0
  0
LINE
  5
164
330
160
100
AcDbEntity
  8
1
100
AcDbLine
 10
94.8360440878
 20
252.7628215877
 30
0.0
 11
94.8360440878
 21
265.7861598114
 31
0.0
  0
LINE
  5
165
330
160
100
AcDbEntity
  8
1
100
AcDbLine
 10
82.5860440878
 20
264.4861598114
 30
0.0
 11
94.8360440878
 21
264.4861598114
 31
0.0
  0
MTEXT
  5
166
330
160
100
AcDbEntity
  8
1
100
AcDbMText
 10
93.0090343582
 20
267.3736598114
 30
0.0
 40
3.5
 41
0.0
 71
     1
 72
     1
  1
12,25
  7
SLDTEXTSTYLE0
 11
6.123233995736766E-17
 21
1.0
 31
0.0
 73
     1
 44
1.0
  0
ENDBLK
  5
162
330
160
100
AcDbEntity
  8
0
100
AcDbBlockEnd
  0
BLOCK
  5
169
330
168
100
AcDbEntity
  8
0
100
AcDbBlockBegin
  2
*D19
 70
     1
 10
0.0
 20
0.0
 30
0.0
  3
*D19
  1

  0
SOLID
  5
16B
330
168
100
AcDbEntity
  8
1
100
AcDbTrace
 10
70.3360440878
 20
264.4861598114
 30
0.0
 11
73.8360440878
 21
263.8361598114
 31
0.0
 12
73.8360440878
 22
265.1361598114
 32
0.0
 13
73.8360440878
 23
265.1361598114
 33
0.0
  0
LINE
  5
16C
330
168
100
AcDbEntity
  8
1
100
AcDbLine
 10
70.3360440878
 20
252.7628215877
 30
0.0
 11
70.3360440878
 21
265.7861598114
 31
0.0
  0
LINE
  5
16D
330
168
100
AcDbEntity
  8
1
100
AcDbLine
 10
82.5860440878
 20
264.4861598114
 30
0.0
 11
70.3360440878
 21
264.4861598114
 31
0.0
  0
MTEXT
  5
16E
330
168
100
AcDbEntity
  8
1
100
AcDbMText
 10
68.5090343582
 20
267.3736598114
 30
0.0
 40
3.5
 41
0.0
 71
     1
 72
     1
  1
12,25
  7
SLDTEXTSTYLE0
 11
6.123233995736766E-17
 21
1.0
 31
0.0
 73
     1
 44
1.0
  0
ENDBLK
  5
16A
330
168
100
AcDbEntity
  8
0
100
AcDbBlockEnd
  0
BLOCK
  5
172
330
171
100
AcDbEntity
  8
0
100
AcDbBlockBegin
  2
*D20
 70
     1
 10
0.0
 20
0.0
 30
0.0
  3
*D20
  1

  0
SOLID
  5
174
330
171
100
AcDbEntity
  8
1
100
AcDbTrace
 10
89.5860440878
 20
171.7549401199
 30
0.0
 11
86.0860440878
 21
172.4049401199
 31
0.0
 12
86.0860440878
 22
171.1049401199
 32
0.0
 13
86.0860440878
 23
171.1049401199
 33
0.0
  0
SOLID
  5
175
330
171
100
AcDbEntity
  8
1
100
AcDbTrace
 10
75.5860440878
 20
171.7549401199
 30
0.0
 11
79.0860440878
 21
171.1049401199
 31
0.0
 12
79.0860440878
 22
172.4049401199
 32
0.0
 13
79.0860440878
 23
172.4049401199
 33
0.0
  0
LINE
  5
176
330
171
100
AcDbEntity
  8
1
100
AcDbLine
 10
89.5860440878
 20
171.7549401199
 30
0.0
 11
75.5860440878
 21
171.7549401199
 31
0.0
  0
LINE
  5
177
330
171
100
AcDbEntity
  8
1
100
AcDbLine
 10
75.5860440878
 20
171.7549401199
 30
0.0
 11
56.9527582417
 21
171.7549401199
 31
0.0
  0
MTEXT
  5
178
330
171
100
AcDbEntity
  8
1
100
AcDbMText
 10
58.5402582417
 20
176.2666774419
 30
0.0
 40
3.5
 41
0.0
 71
     1
 72
     1
  1
14
  7
SLDTEXTSTYLE0
 73
     1
 44
1.0
  0
ENDBLK
  5
173
330
171
100
AcDbEntity
  8
0
100
AcDbBlockEnd
  0
BLOCK
  5
17C
330
17B
100
AcDbEntity
  8
0
100
AcDbBlockBegin
  2
*D21
 70
     1
 10
0.0
 20
0.0
 30
0.0
  3
*D21
  1

  0
SOLID
  5
17E
330
17B
100
AcDbEntity
  8
1
100
AcDbTrace
 10
75.8789373066
 20
185.9699283688
 30
0.0
 11
73.8636829803
 21
188.9044215108
 31
0.0
 12
72.9444441647
 22
187.9851826952
 32
0.0
 13
72.9444441647
 23
187.9851826952
 33
0.0
  0
LINE
  5
17F
330
17B
100
AcDbEntity
  8
1
100
AcDbLine
 10
75.8789373066
 20
185.9699283688
 30
0.0
 11
60.699678268
 21
201.1491874075
 31
0.0
  0
LINE
  5
180
330
17B
100
AcDbEntity
  8
1
100
AcDbLine
 10
75.8789373066
 20
185.9699283688
 30
0.0
 11
76.5860440878
 21
185.2628215877
 31
0.0
  0
MTEXT
  5
181
330
17B
100
AcDbEntity
  8
1
100
AcDbMText
 10
64.9917325442
 20
203.1961776535
 30
0.0
 40
3.5
 41
0.0
 71
     1
 72
     1
  1
R
  7
SLDTEXTSTYLE0
 11
0.7071067811865454
 21
-0.7071067811865497
 31
0.0
 73
     1
 44
1.0
  0
MTEXT
  5
182
330
17B
100
AcDbEntity
  8
1
100
AcDbMText
 10
67.4453235126
 20
200.7425866851
 30
0.0
 40
3.5
 41
0.0
 71
     1
 72
     1
  1
1
  7
SLDTEXTSTYLE0
 11
0.7071067811865454
 21
-0.7071067811865497
 31
0.0
 73
     1
 44
1.0
  0
ENDBLK
  5
17D
330
17B
100
AcDbEntity
  8
0
100
AcDbBlockEnd
  0
BLOCK
  5
185
330
184
100
AcDbEntity
  8
0
100
AcDbBlockBegin
  2
*D22
 70
     1
 10
0.0
 20
0.0
 30
0.0
  3
*D22
  1

  0
SOLID
  5
187
330
184
100
AcDbEntity
  8
1
100
AcDbTrace
 10
70.470018684
 20
101.2628215877
 30
0.0
 11
67.1139297708
 21
100.0757381001
 31
0.0
 12
67.7639297708
 22
98.9499050752
 32
0.0
 13
67.7639297708
 23
98.9499050752
 33
0.0
  0
LINE
  5
188
330
184
100
AcDbEntity
  8
1
100
AcDbLine
 10
70.470018684
 20
101.2628215877
 30
0.0
 11
60.9277347293
 21
95.7535813777
 31
0.0
  0
LINE
  5
189
330
184
100
AcDbEntity
  8
1
100
AcDbLine
 10
70.470018684
 20
101.2628215877
 30
0.0
 11
71.3360440878
 21
101.7628215877
 31
0.0
  0
MTEXT
  5
18A
330
184
100
AcDbEntity
  8
1
100
AcDbMText
 10
60.1200125858
 20
100.3275971687
 30
0.0
 40
3.5
 41
0.0
 71
     1
 72
     1
  1
R
  7
SLDTEXTSTYLE0
 11
0.8660254037844376
 21
0.5000000000000018
 31
0.0
 73
     1
 44
1.0
  0
MTEXT
  5
18B
330
184
100
AcDbEntity
  8
1
100
AcDbMText
 10
63.1250355408
 20
102.0625479807
 30
0.0
 40
3.5
 41
0.0
 71
     1
 72
     1
  1
1
  7
SLDTEXTSTYLE0
 11
0.8660254037844376
 21
0.5000000000000018
 31
0.0
 73
     1
 44
1.0
  0
ENDBLK
  5
186
330
184
100
AcDbEntity
  8
0
100
AcDbBlockEnd
  0
BLOCK
  5
18E
330
18D
100
AcDbEntity
  8
0
100
AcDbBlockBegin
  2
*D23
 70
     1
 10
0.0
 20
0.0
 30
0.0
  3
*D23
  1

  0
SOLID
  5
190
330
18D
100
AcDbEntity
  8
1
100
AcDbTrace
 10
88.3360440878
 20
84.0203196316
 30
0.0
 11
84.8360440878
 21
84.6703196316
 31
0.0
 12
84.8360440878
 22
83.3703196316
 32
0.0
 13
84.8360440878
 23
83.3703196316
 33
0.0
  0
SOLID
  5
191
330
18D
100
AcDbEntity
  8
1
100
AcDbTrace
 10
76.8360440878
 20
84.0203196316
 30
0.0
 11
80.3360440878
 21
83.3703196316
 31
0.0
 12
80.3360440878
 22
84.6703196316
 32
0.0
 13
80.3360440878
 23
84.6703196316
 33
0.0
  0
LINE
  5
192
330
18D
100
AcDbEntity
  8
1
100
AcDbLine
 10
88.3360440878
 20
107.2628215877
 30
0.0
 11
88.3360440878
 21
83.0203196316
 31
0.0
  0
LINE
  5
193
330
18D
100
AcDbEntity
  8
1
100
AcDbLine
 10
76.8360440878
 20
107.2628215877
 30
0.0
 11
76.8360440878
 21
83.0203196316
 31
0.0
  0
LINE
  5
194
330
18D
100
AcDbEntity
  8
1
100
AcDbLine
 10
88.3360440878
 20
84.0203196316
 30
0.0
 11
103.0695459668
 21
84.0203196316
 31
0.0
  0
LINE
  5
195
330
18D
100
AcDbEntity
  8
1
100
AcDbLine
 10
88.3360440878
 20
84.0203196316
 30
0.0
 11
76.8360440878
 21
84.0203196316
 31
0.0
  0
MTEXT
  5
196
330
18D
100
AcDbEntity
  8
1
100
AcDbMText
 10
92.1280690699
 20
88.5320569536
 30
0.0
 40
3.5
 41
0.0
 71
     1
 72
     1
  1
11,5
  7
SLDTEXTSTYLE0
 73
     1
 44
1.0
  0
ENDBLK
  5
18F
330
18D
100
AcDbEntity
  8
0
100
AcDbBlockEnd
  0
BLOCK
  5
199
330
198
100
AcDbEntity
  8
0
100
AcDbBlockBegin
  2
*D24
 70
     1
 10
0.0
 20
0.0
 30
0.0
  3
*D24
  1

  0
SOLID
  5
19B
330
198
100
AcDbEntity
  8
1
100
AcDbTrace
 10
73.3719424727
 20
247.2628215877
 30
0.0
 11
70.6658535594
 21
249.5757381001
 31
0.0
 12
70.0158535594
 22
248.4499050752
 32
0.0
 13
70.0158535594
 23
248.4499050752
 33
0.0
  0
LINE
  5
19C
330
198
100
AcDbEntity
  8
1
100
AcDbLine
 10
73.3719424727
 20
247.2628215877
 30
0.0
 11
56.0472370523
 21
257.2652449257
 31
0.0
  0
LINE
  5
19D
330
198
100
AcDbEntity
  8
1
100
AcDbLine
 10
73.3719424727
 20
247.2628215877
 30
0.0
 11
76.8360440878
 21
245.2628215877
 31
0.0
  0
MTEXT
  5
19E
330
198
100
AcDbEntity
  8
1
100
AcDbMText
 10
59.6654128621
 20
260.357109259
 30
0.0
 40
3.5
 41
0.0
 71
     1
 72
     1
  1
R
  7
SLDTEXTSTYLE0
 11
0.8660254037844387
 21
-0.4999999999999998
 31
0.0
 73
     1
 44
1.0
  0
MTEXT
  5
19F
330
198
100
AcDbEntity
  8
1
100
AcDbMText
 10
62.6704358171
 20
258.622158447
 30
0.0
 40
3.5
 41
0.0
 71
     1
 72
     1
  1
4
  7
SLDTEXTSTYLE0
 11
0.8660254037844387
 21
-0.4999999999999998
 31
0.0
 73
     1
 44
1.0
  0
ENDBLK
  5
19A
330
198
100
AcDbEntity
  8
0
100
AcDbBlockEnd
  0
BLOCK
  5
1A3
330
1A2
100
AcDbEntity
  8
0
100
AcDbBlockBegin
  2
*D25
 70
     1
 10
0.0
 20
0.0
 30
0.0
  3
*D25
  1

  0
SOLID
  5
1A5
330
1A2
100
AcDbEntity
  8
1
100
AcDbTrace
 10
70.3360440878
 20
240.3845801483
 30
0.0
 11
66.8360440878
 21
241.0345801483
 31
0.0
 12
66.8360440878
 22
239.7345801483
 32
0.0
 13
66.8360440878
 23
239.7345801483
 33
0.0
  0
SOLID
  5
1A6
330
1A2
100
AcDbEntity
  8
1
100
AcDbTrace
 10
76.8360440878
 20
240.3845801483
 30
0.0
 11
80.3360440878
 21
239.7345801483
 31
0.0
 12
80.3360440878
 22
241.0345801483
 32
0.0
 13
80.3360440878
 23
241.0345801483
 33
0.0
  0
LINE
  5
1A7
330
1A2
100
AcDbEntity
  8
1
100
AcDbLine
 10
76.8360440878
 20
244.2628215877
 30
0.0
 11
76.8360440878
 21
239.3845801483
 31
0.0
  0
LINE
  5
1A8
330
1A2
100
AcDbEntity
  8
1
100
AcDbLine
 10
70.3360440878
 20
240.3845801483
 30
0.0
 11
57.0738995052
 21
240.3845801483
 31
0.0
  0
LINE
  5
1A9
330
1A2
100
AcDbEntity
  8
1
100
AcDbLine
 10
70.3360440878
 20
240.3845801483
 30
0.0
 11
76.8360440878
 21
240.3845801483
 31
0.0
  0
LINE
  5
1AA
330
1A2
100
AcDbEntity
  8
1
100
AcDbLine
 10
76.8360440878
 20
240.3845801483
 30
0.0
 11
81.8360440878
 21
240.3845801483
 31
0.0
  0
MTEXT
  5
1AB
330
1A2
100
AcDbEntity
  8
1
100
AcDbMText
 10
58.6613995052
 20
244.8963174703
 30
0.0
 40
3.5
 41
0.0
 71
     1
 72
     1
  1
6,5
  7
SLDTEXTSTYLE0
 73
     1
 44
1.0
  0
ENDBLK
  5
1A4
330
1A2
100
AcDbEntity
  8
0
100
AcDbBlockEnd
  0
BLOCK
  5
1AD
330
1AC
100
AcDbEntity
  8
0
100
AcDbBlockBegin
  2
SW_CENTERMARKSYMBOL_0
 70
     0
 10
0.0
 20
0.0
 30
0.0
  3
SW_CENTERMARKSYMBOL_0
  1

  0
LINE
  5
1AF
330
1AC
100
AcDbEntity
  8
0
  6
Continuous
 62
     0
370
     0
100
AcDbLine
 10
0.0
 20
0.0
 30
0.0
 11
0.0
 21
2.5
 31
0.0
  0
LINE
  5
1B0
330
1AC
100
AcDbEntity
  8
0
  6
Continuous
 62
     0
370
     0
100
AcDbLine
 10
0.0
 20
0.0
 30
0.0
 11
-2.5
 21
0.0
 31
0.0
  0
LINE
  5
1B1
330
1AC
100
AcDbEntity
  8
0
  6
Continuous
 62
     0
370
     0
100
AcDbLine
 10
0.0
 20
0.0
 30
0.0
 11
0.0
 21
-2.5
 31
0.0
  0
LINE
  5
1B2
330
1AC
100
AcDbEntity
  8
0
  6
Continuous
 62
     0
370
     0
100
AcDbLine
 10
0.0
 20
0.0
 30
0.0
 11
2.5
 21
0.0
 31
0.0
  0
LINE
  5
1B3
330
1AC
100
AcDbEntity
  8
0
  6
Continuous
 62
     0
370
     0
100
AcDbLine
 10
0.0
 20
2.5
 30
0.0
 11
0.0
 21
4.75
 31
0.0
  0
LINE
  5
1B4
330
1AC
100
AcDbEntity
  8
0
  6
Continuous
 62
     0
370
     0
100
AcDbLine
 10
-2.5
 20
0.0
 30
0.0
 11
-4.75
 21
0.0
 31
0.0
  0
LINE
  5
1B5
330
1AC
100
AcDbEntity
  8
0
  6
Continuous
 62
     0
370
     0
100
AcDbLine
 10
0.0
 20
-2.5
 30
0.0
 11
0.0
 21
-4.75
 31
0.0
  0
LINE
  5
1B6
330
1AC
100
AcDbEntity
  8
0
  6
Continuous
 62
     0
370
     0
100
AcDbLine
 10
2.5
 20
0.0
 30
0.0
 11
4.75
 21
0.0
 31
0.0
  0
ENDBLK
  5
1AE
330
1AC
100
AcDbEntity
  8
0
100
AcDbBlockEnd
  0
BLOCK
  5
1B9
330
1B8
100
AcDbEntity
  8
0
100
AcDbBlockBegin
  2
SW_CENTERMARKSYMBOL_1
 70
     0
 10
0.0
 20
0.0
 30
0.0
  3
SW_CENTERMARKSYMBOL_1
  1

  0
LINE
  5
1BB
330
1B8
100
AcDbEntity
  8
0
  6
Continuous
 62
     0
370
     0
100
AcDbLine
 10
0.0
 20
0.0
 30
0.0
 11
0.0
 21
2.5
 31
0.0
  0
LINE
  5
1BC
330
1B8
100
AcDbEntity
  8
0
  6
Continuous
 62
     0
370
     0
100
AcDbLine
 10
0.0
 20
0.0
 30
0.0
 11
-2.5
 21
0.0
 31
0.0
  0
LINE
  5
1BD
330
1B8
100
AcDbEntity
  8
0
  6
Continuous
 62
     0
370
     0
100
AcDbLine
 10
0.0
 20
0.0
 30
0.0
 11
0.0
 21
-2.5
 31
0.0
  0
LINE
  5
1BE
330
1B8
100
AcDbEntity
  8
0
  6
Continuous
 62
     0
370
     0
100
AcDbLine
 10
0.0
 20
0.0
 30
0.0
 11
2.5
 21
0.0
 31
0.0
  0
LINE
  5
1BF
330
1B8
100
AcDbEntity
  8
0
  6
Continuous
 62
     0
370
     0
100
AcDbLine
 10
0.0
 20
2.5
 30
0.0
 11
0.0
 21
4.75
 31
0.0
  0
LINE
  5
1C0
330
1B8
100
AcDbEntity
  8
0
  6
Continuous
 62
     0
370
     0
100
AcDbLine
 10
-2.5
 20
0.0
 30
0.0
 11
-4.75
 21
0.0
 31
0.0
  0
LINE
  5
1C1
330
1B8
100
AcDbEntity
  8
0
  6
Continuous
 62
     0
370
     0
100
AcDbLine
 10
0.0
 20
-2.5
 30
0.0
 11
0.0
 21
-4.75
 31
0.0
  0
LINE
  5
1C2
330
1B8
100
AcDbEntity
  8
0
  6
Continuous
 62
     0
370
     0
100
AcDbLine
 10
2.5
 20
0.0
 30
0.0
 11
4.75
 21
0.0
 31
0.0
  0
ENDBLK
  5
1BA
330
1B8
100
AcDbEntity
  8
0
100
AcDbBlockEnd
  0
BLOCK
  5
1C5
330
1C4
100
AcDbEntity
  8
0
100
AcDbBlockBegin
  2
SW_CENTERMARKSYMBOL_2
 70
     0
 10
0.0
 20
0.0
 30
0.0
  3
SW_CENTERMARKSYMBOL_2
  1

  0
LINE
  5
1C7
330
1C4
100
AcDbEntity
  8
0
  6
Continuous
 62
     0
370
     0
100
AcDbLine
 10
0.0
 20
0.0
 30
0.0
 11
0.0
 21
2.5
 31
0.0
  0
LINE
  5
1C8
330
1C4
100
AcDbEntity
  8
0
  6
Continuous
 62
     0
370
     0
100
AcDbLine
 10
0.0
 20
0.0
 30
0.0
 11
-2.5
 21
0.0
 31
0.0
  0
LINE
  5
1C9
330
1C4
100
AcDbEntity
  8
0
  6
Continuous
 62
     0
370
     0
100
AcDbLine
 10
0.0
 20
0.0
 30
0.0
 11
0.0
 21
-2.5
 31
0.0
  0
LINE
  5
1CA
330
1C4
100
AcDbEntity
  8
0
  6
Continuous
 62
     0
370
     0
100
AcDbLine
 10
0.0
 20
0.0
 30
0.0
 11
2.5
 21
0.0
 31
0.0
  0
LINE
  5
1CB
330
1C4
100
AcDbEntity
  8
0
  6
Continuous
 62
     0
370
     0
100
AcDbLine
 10
0.0
 20
2.5
 30
0.0
 11
0.0
 21
4.75
 31
0.0
  0
LINE
  5
1CC
330
1C4
100
AcDbEntity
  8
0
  6
Continuous
 62
     0
370
     0
100
AcDbLine
 10
-2.5
 20
0.0
 30
0.0
 11
-4.75
 21
0.0
 31
0.0
  0
LINE
  5
1CD
330
1C4
100
AcDbEntity
  8
0
  6
Continuous
 62
     0
370
     0
100
AcDbLine
 10
0.0
 20
-2.5
 30
0.0
 11
0.0
 21
-4.75
 31
0.0
  0
LINE
  5
1CE
330
1C4
100
AcDbEntity
  8
0
  6
Continuous
 62
     0
370
     0
100
AcDbLine
 10
2.5
 20
0.0
 30
0.0
 11
4.75
 21
0.0
 31
0.0
  0
ENDBLK
  5
1C6
330
1C4
100
AcDbEntity
  8
0
100
AcDbBlockEnd
  0
BLOCK
  5
1D1
330
1D0
100
AcDbEntity
  8
0
100
AcDbBlockBegin
  2
SW_CENTERMARKSYMBOL_3
 70
     0
 10
0.0
 20
0.0
 30
0.0
  3
SW_CENTERMARKSYMBOL_3
  1

  0
LINE
  5
1D3
330
1D0
100
AcDbEntity
  8
0
  6
Continuous
 62
     0
370
     0
100
AcDbLine
 10
0.0
 20
0.0
 30
0.0
 11
0.0
 21
2.5
 31
0.0
  0
LINE
  5
1D4
330
1D0
100
AcDbEntity
  8
0
  6
Continuous
 62
     0
370
     0
100
AcDbLine
 10
0.0
 20
0.0
 30
0.0
 11
-2.5
 21
0.0
 31
0.0
  0
LINE
  5
1D5
330
1D0
100
AcDbEntity
  8
0
  6
Continuous
 62
     0
370
     0
100
AcDbLine
 10
0.0
 20
0.0
 30
0.0
 11
0.0
 21
-2.5
 31
0.0
  0
LINE
  5
1D6
330
1D0
100
AcDbEntity
  8
0
  6
Continuous
 62
     0
370
     0
100
AcDbLine
 10
0.0
 20
0.0
 30
0.0
 11
2.5
 21
0.0
 31
0.0
  0
LINE
  5
1D7
330
1D0
100
AcDbEntity
  8
0
  6
Continuous
 62
     0
370
     0
100
AcDbLine
 10
0.0
 20
2.5
 30
0.0
 11
0.0
 21
4.75
 31
0.0
  0
LINE
  5
1D8
330
1D0
100
AcDbEntity
  8
0
  6
Continuous
 62
     0
370
     0
100
AcDbLine
 10
-2.5
 20
0.0
 30
0.0
 11
-4.75
 21
0.0
 31
0.0
  0
LINE
  5
1D9
330
1D0
100
AcDbEntity
  8
0
  6
Continuous
 62
     0
370
     0
100
AcDbLine
 10
0.0
 20
-2.5
 30
0.0
 11
0.0
 21
-4.75
 31
0.0
  0
LINE
  5
1DA
330
1D0
100
AcDbEntity
  8
0
  6
Continuous
 62
     0
370
     0
100
AcDbLine
 10
2.5
 20
0.0
 30
0.0
 11
4.75
 21
0.0
 31
0.0
  0
ENDBLK
  5
1D2
330
1D0
100
AcDbEntity
  8
0
100
AcDbBlockEnd
  0
BLOCK
  5
1EF
330
1EE
100
AcDbEntity
  8
0
100
AcDbBlockBegin
  2
*D30
 70
     1
 10
0.0
 20
0.0
 30
0.0
  3
*D30
  1

  0
SOLID
  5
1F1
330
1EE
100
AcDbEntity
  8
1
100
AcDbTrace
 10
148.7073166846
 20
259.6209019371
 30
0.0
 11
152.2073166846
 21
258.9709019371
 31
0.0
 12
152.2073166846
 22
260.2709019371
 32
0.0
 13
152.2073166846
 23
260.2709019371
 33
0.0
  0
SOLID
  5
1F2
330
1EE
100
AcDbEntity
  8
1
100
AcDbTrace
 10
146.7073166846
 20
259.6209019371
 30
0.0
 11
143.2073166846
 21
260.2709019371
 31
0.0
 12
143.2073166846
 22
258.9709019371
 32
0.0
 13
143.2073166846
 23
258.9709019371
 33
0.0
  0
LINE
  5
1F3
330
1EE
100
AcDbEntity
  8
1
100
AcDbLine
 10
148.7073166846
 20
253.7628215877
 30
0.0
 11
148.7073166846
 21
260.6209019371
 31
0.0
  0
LINE
  5
1F4
330
1EE
100
AcDbEntity
  8
1
100
AcDbLine
 10
146.7073166846
 20
253.7628215877
 30
0.0
 11
146.7073166846
 21
260.6209019371
 31
0.0
  0
LINE
  5
1F5
330
1EE
100
AcDbEntity
  8
1
100
AcDbLine
 10
148.7073166846
 20
259.6209019371
 30
0.0
 11
157.5439015726
 21
259.6209019371
 31
0.0
  0
LINE
  5
1F6
330
1EE
100
AcDbEntity
  8
1
100
AcDbLine
 10
148.7073166846
 20
259.6209019371
 30
0.0
 11
146.7073166846
 21
259.6209019371
 31
0.0
  0
LINE
  5
1F7
330
1EE
100
AcDbEntity
  8
1
100
AcDbLine
 10
146.7073166846
 20
259.6209019371
 30
0.0
 11
141.7073166846
 21
259.6209019371
 31
0.0
  0
MTEXT
  5
1F8
330
1EE
100
AcDbEntity
  8
1
100
AcDbMText
 10
153.2849178795
 20
264.1326392591
 30
0.0
 40
3.5
 41
0.0
 71
     1
 72
     1
  1
2
  7
SLDTEXTSTYLE0
 73
     1
 44
1.0
  0
ENDBLK
  5
1F0
330
1EE
100
AcDbEntity
  8
0
100
AcDbBlockEnd
  0
BLOCK
  5
249
330
248
100
AcDbEntity
  8
0
100
AcDbBlockBegin
  2
*D31
 70
     1
 10
0.0
 20
0.0
 30
0.0
  3
*D31
  1

  0
SOLID
  5
24B
330
248
100
AcDbEntity
  8
1
100
AcDbTrace
 10
42.9479075074
 20
237.5128215877
 30
0.0
 11
43.5979075074
 21
241.0128215877
 31
0.0
 12
42.2979075074
 22
241.0128215877
 32
0.0
 13
42.2979075074
 23
241.0128215877
 33
0.0
  0
SOLID
  5
24C
330
248
100
AcDbEntity
  8
1
100
AcDbTrace
 10
42.9479075074
 20
233.0128215877
 30
0.0
 11
42.2979075074
 21
229.5128215877
 31
0.0
 12
43.5979075074
 22
229.5128215877
 32
0.0
 13
43.5979075074
 23
229.5128215877
 33
0.0
  0
LINE
  5
24D
330
248
100
AcDbEntity
  8
1
100
AcDbLine
 10
35.8884712337
 20
237.5128215877
 30
0.0
 11
43.9479075074
 21
237.5128215877
 31
0.0
  0
LINE
  5
24E
330
248
100
AcDbEntity
  8
1
100
AcDbLine
 10
35.8884712337
 20
233.0128215877
 30
0.0
 11
43.9479075074
 21
233.0128215877
 31
0.0
  0
LINE
  5
24F
330
248
100
AcDbEntity
  8
1
100
AcDbLine
 10
42.9479075074
 20
237.5128215877
 30
0.0
 11
42.9479075074
 21
242.5128215877
 31
0.0
  0
LINE
  5
250
330
248
100
AcDbEntity
  8
1
100
AcDbLine
 10
42.9479075074
 20
237.5128215877
 30
0.0
 11
42.9479075074
 21
233.0128215877
 31
0.0
  0
LINE
  5
251
330
248
100
AcDbEntity
  8
1
100
AcDbLine
 10
42.9479075074
 20
233.0128215877
 30
0.0
 11
42.9479075074
 21
221.3383962844
 31
0.0
  0
MTEXT
  5
252
330
248
100
AcDbEntity
  8
1
100
AcDbMText
 10
38.4361701854
 20
222.9258962844
 30
0.0
 40
3.5
 41
0.0
 71
     1
 72
     1
  1
4,5
  7
SLDTEXTSTYLE0
 11
-7.044195017643634E-15
 21
1.0
 31
0.0
 73
     1
 44
1.0
  0
ENDBLK
  5
24A
330
248
100
AcDbEntity
  8
0
100
AcDbBlockEnd
  0
BLOCK
  5
256
330
255
100
AcDbEntity
  8
0
100
AcDbBlockBegin
  2
*D32
 70
     1
 10
0.0
 20
0.0
 30
0.0
  3
*D32
  1

  0
ARC
  5
258
330
255
100
AcDbEntity
  8
1
100
AcDbCircle
 10
34.6384712337
 20
247.5128215877
 30
0.0
 40
8.861816016240065
100
AcDbArc
 50
135.0
 51
180.0
  0
ARC
  5
259
330
255
100
AcDbEntity
  8
1
100
AcDbCircle
 10
34.6384712337
 20
247.5128215877
 30
0.0
 40
8.861816016240065
100
AcDbArc
 50
103.2162145759
 51
135.0
  0
ARC
  5
25A
330
255
100
AcDbEntity
  8
1
100
AcDbCircle
 10
34.6384712337
 20
247.5128215877
 30
0.0
 40
8.861816016240063
100
AcDbArc
 50
180.0
 51
211.7837854241
  0
SOLID
  5
25B
330
255
100
AcDbEntity
  8
1
100
AcDbTrace
 10
28.3722210349
 20
253.7790717864
 30
0.0
 11
31.6317541643
 21
255.2101356489
 31
0.0
 12
30.9005925096
 22
256.2850322183
 32
0.0
 13
30.9005925096
 23
256.2850322183
 33
0.0
  0
SOLID
  5
25C
330
255
100
AcDbEntity
  8
1
100
AcDbTrace
 10
25.7766552174
 20
247.5128215877
 30
0.0
 11
25.7925022177
 21
243.9530113578
 31
0.0
 12
27.0695782351
 22
244.1960686469
 32
0.0
 13
27.0695782351
 23
244.1960686469
 33
0.0
  0
LINE
  5
25D
330
255
100
AcDbEntity
  8
1
100
AcDbLine
 10
32.1813644525
 20
249.9699283688
 30
0.0
 11
27.6651142538
 21
254.4861785676
 31
0.0
  0
LINE
  5
25E
330
255
100
AcDbEntity
  8
1
100
AcDbLine
 10
33.6384712337
 20
247.5128215877
 30
0.0
 11
24.7766552174
 21
247.5128215877
 31
0.0
  0
MTEXT
  5
25F
330
255
100
AcDbEntity
  8
1
100
AcDbMText
 10
20.8920544191
 20
249.2728146812
 30
0.0
 40
3.5
 41
0.0
 71
     1
 72
     1
  1
45°
  7
SLDTEXTSTYLE0
 11
0.3826834323650804
 21
0.9238795325112906
 31
0.0
 73
     1
 44
1.0
  0
ENDBLK
  5
257
330
255
100
AcDbEntity
  8
0
100
AcDbBlockEnd
  0
BLOCK
  5
262
330
261
100
AcDbEntity
  8
0
100
AcDbBlockBegin
  2
*D33
 70
     1
 10
0.0
 20
0.0
 30
0.0
  3
*D33
  1

  0
ARC
  5
264
330
261
100
AcDbEntity
  8
1
100
AcDbCircle
 10
34.6384712337
 20
233.0128215877
 30
0.0
 40
11.5945591233727
100
AcDbArc
 50
180.0
 51
225.0
  0
ARC
  5
265
330
261
100
AcDbEntity
  8
1
100
AcDbCircle
 10
34.6384712337
 20
233.0128215877
 30
0.0
 40
11.5945591233727
100
AcDbArc
 50
155.5207475022
 51
180.0
  0
ARC
  5
266
330
261
100
AcDbEntity
  8
1
100
AcDbCircle
 10
34.6384712337
 20
233.0128215877
 30
0.0
 40
11.59455912337269
100
AcDbArc
 50
225.0
 51
249.4792524978
  0
SOLID
  5
267
330
261
100
AcDbEntity
  8
1
100
AcDbTrace
 10
23.0439121103
 20
233.0128215877
 30
0.0
 11
24.1981493688
 21
236.3803483286
 31
0.0
 12
22.9120908046
 22
236.570225577
 32
0.0
 13
22.9120908046
 23
236.570225577
 33
0.0
  0
SOLID
  5
268
330
261
100
AcDbEntity
  8
1
100
AcDbTrace
 10
26.4398798526
 20
224.8142302067
 30
0.0
 11
28.8621325977
 21
222.2055539832
 31
0.0
 12
29.6372498396
 22
223.2491982049
 32
0.0
 13
29.6372498396
 23
223.2491982049
 33
0.0
  0
LINE
  5
269
330
261
100
AcDbEntity
  8
1
100
AcDbLine
 10
33.6384712337
 20
233.0128215877
 30
0.0
 11
22.0439121103
 21
233.0128215877
 31
0.0
  0
LINE
  5
26A
330
261
100
AcDbEntity
  8
1
100
AcDbLine
 10
32.1813644525
 20
230.5557148065
 30
0.0
 11
25.7327730715
 21
224.1071234255
 31
0.0
  0
MTEXT
  5
26B
330
261
100
AcDbEntity
  8
1
100
AcDbMText
 10
26.7039325306
 20
233.6601872307
 30
0.0
 40
3.5
 41
0.0
 71
     1
 72
     1
  1
45°
  7
SLDTEXTSTYLE0
 11
0.3826834323651023
 21
-0.9238795325112815
 31
0.0
 73
     1
 44
1.0
  0
ENDBLK
  5
263
330
261
100
AcDbEntity
  8
0
100
AcDbBlockEnd
  0
BLOCK
  5
26E
330
26D
100
AcDbEntity
  8
0
100
AcDbBlockBegin
  2
*D34
 70
     1
 10
0.0
 20
0.0
 30
0.0
  3
*D34
  1

  0
SOLID
  5
270
330
26D
100
AcDbEntity
  8
1
100
AcDbTrace
 10
42.9479075074
 20
243.0128215877
 30
0.0
 11
42.2979075074
 21
239.5128215877
 31
0.0
 12
43.5979075074
 22
239.5128215877
 32
0.0
 13
43.5979075074
 23
239.5128215877
 33
0.0
  0
SOLID
  5
271
330
26D
100
AcDbEntity
  8
1
100
AcDbTrace
 10
42.9479075074
 20
247.5128215877
 30
0.0
 11
43.5979075074
 21
251.0128215877
 31
0.0
 12
42.2979075074
 22
251.0128215877
 32
0.0
 13
42.2979075074
 23
251.0128215877
 33
0.0
  0
LINE
  5
272
330
26D
100
AcDbEntity
  8
1
100
AcDbLine
 10
35.8884712337
 20
243.0128215877
 30
0.0
 11
43.9479075074
 21
243.0128215877
 31
0.0
  0
LINE
  5
273
330
26D
100
AcDbEntity
  8
1
100
AcDbLine
 10
35.6384712337
 20
247.5128215877
 30
0.0
 11
43.9479075074
 21
247.5128215877
 31
0.0
  0
LINE
  5
274
330
26D
100
AcDbEntity
  8
1
100
AcDbLine
 10
42.9479075074
 20
243.0128215877
 30
0.0
 11
42.9479075074
 21
238.0128215877
 31
0.0
  0
LINE
  5
275
330
26D
100
AcDbEntity
  8
1
100
AcDbLine
 10
42.9479075074
 20
243.0128215877
 30
0.0
 11
42.9479075074
 21
247.5128215877
 31
0.0
  0
LINE
  5
276
330
26D
100
AcDbEntity
  8
1
100
AcDbLine
 10
42.9479075074
 20
247.5128215877
 30
0.0
 11
42.9479075074
 21
257.1559914046
 31
0.0
  0
MTEXT
  5
277
330
26D
100
AcDbEntity
  8
1
100
AcDbMText
 10
38.4361701854
 20
248.8859982007
 30
0.0
 40
3.5
 41
0.0
 71
     1
 72
     1
  1
4,5
  7
SLDTEXTSTYLE0
 11
6.123233995736766E-17
 21
1.0
 31
0.0
 73
     1
 44
1.0
  0
ENDBLK
  5
26F
330
26D
100
AcDbEntity
  8
0
100
AcDbBlockEnd
  0
ENDSEC
  0
SECTION
  2
ENTITIES
  0
LINE
  5
64
330
1F
100
AcDbEntity
  8
1
 62
     7
100
AcDbLine
 10
186.0
 20
35.0
 30
0.0
 11
130.0
 21
35.0
 31
0.0
  0
LINE
  5
65
330
1F
100
AcDbEntity
  8
1
 62
     7
100
AcDbLine
 10
186.0
 20
25.0
 30
0.0
 11
205.0
 21
25.0
 31
0.0
  0
LINE
  5
66
330
1F
100
AcDbEntity
  8
1
 62
     7
370
    15
100
AcDbLine
 10
205.0
 20
30.0
 30
0.0
 11
205.0
 21
284.0
 31
0.0
  0
LINE
  5
67
330
1F
100
AcDbEntity
  8
1
 62
     7
100
AcDbLine
 10
168.0
 20
45.0
 30
0.0
 11
168.0
 21
55.0
 31
0.0
  0
LINE
  5
68
330
1F
100
AcDbEntity
  8
1
 62
     7
370
    15
100
AcDbLine
 10
205.0
 20
290.0
 30
0.0
 11
187.0
 21
290.0
 31
0.0
  0
LINE
  5
69
330
1F
100
AcDbEntity
  8
1
 62
     7
370
    15
100
AcDbLine
 10
5.0
 20
290.0
 30
0.0
 11
5.0
 21
284.0
 31
0.0
  0
LINE
  5
6A
330
1F
100
AcDbEntity
  8
1
 62
     7
100
AcDbLine
 10
55.0
 20
25.0
 30
0.0
 11
55.0
 21
5.0
 31
0.0
  0
LINE
  5
6B
330
1F
100
AcDbEntity
  8
1
 62
     7
370
    15
100
AcDbLine
 10
5.0
 20
5.0
 30
0.0
 11
205.0
 21
5.0
 31
0.0
  0
LINE
  5
6C
330
1F
100
AcDbEntity
  8
1
100
AcDbLine
 10
30.1517862562
 20
289.9573552842
 30
0.0
 11
30.1517862562
 21
283.9573552842
 31
0.0
  0
LINE
  5
6D
330
1F
100
AcDbEntity
  8
1
100
AcDbLine
 10
5.1517862562
 20
283.9573552842
 30
0.0
 11
205.1517862562
 21
283.9573552842
 31
0.0
  0
LINE
  5
6E
330
1F
100
AcDbEntity
  8
1
100
AcDbLine
 10
168.1517862562
 20
289.9573552842
 30
0.0
 11
168.1517862562
 21
283.9573552842
 31
0.0
  0
LINE
  5
6F
330
1F
100
AcDbEntity
  8
1
100
AcDbLine
 10
187.1517862562
 20
289.9573552842
 30
0.0
 11
187.1517862562
 21
283.9573552842
 31
0.0
  0
LINE
  5
70
330
1F
100
AcDbEntity
  8
1
 62
     7
100
AcDbLine
 10
5.0
 20
25.0
 30
0.0
 11
186.0
 21
25.0
 31
0.0
  0
LINE
  5
71
330
1F
100
AcDbEntity
  8
1
 62
     7
100
AcDbLine
 10
5.0
 20
55.0
 30
0.0
 11
30.0
 21
55.0
 31
0.0
  0
LINE
  5
72
330
1F
100
AcDbEntity
  8
1
 62
     7
100
AcDbLine
 10
55.0
 20
55.0
 30
0.0
 11
55.0
 21
40.0
 31
0.0
  0
LINE
  5
73
330
1F
100
AcDbEntity
  8
1
 62
     7
100
AcDbLine
 10
55.0
 20
40.0
 30
0.0
 11
130.0
 21
40.0
 31
0.0
  0
LINE
  5
74
330
1F
100
AcDbEntity
  8
1
 62
     7
100
AcDbLine
 10
55.0
 20
40.0
 30
0.0
 11
55.0
 21
25.0
 31
0.0
  0
LINE
  5
75
330
1F
100
AcDbEntity
  8
1
 62
     7
100
AcDbLine
 10
130.0
 20
25.0
 30
0.0
 11
130.0
 21
55.0
 31
0.0
  0
LINE
  5
76
330
1F
100
AcDbEntity
  8
1
 62
     7
370
    15
100
AcDbLine
 10
205.0
 20
290.0
 30
0.0
 11
205.0
 21
284.0
 31
0.0
  0
LINE
  5
77
330
1F
100
AcDbEntity
  8
1
  6
CENTERX2
 62
     7
100
AcDbLine
 10
141.0
 20
30.0
 30
0.0
 11
149.0
 21
30.0
 31
0.0
  0
LINE
  5
78
330
1F
100
AcDbEntity
  8
1
  6
CENTERX2
 62
     4
100
AcDbLine
 10
130.0
 20
30.0
 30
0.0
 11
131.0
 21
30.0
 31
0.0
  0
LINE
  5
79
330
1F
100
AcDbEntity
  8
1
 62
     7
100
AcDbLine
 10
131.0
 20
30.0
 30
0.0
 11
131.0
 21
32.0
 31
0.0
  0
LINE
  5
7A
330
1F
100
AcDbEntity
  8
1
  6
CENTERX2
 62
     7
100
AcDbLine
 10
131.0
 20
30.0
 30
0.0
 11
139.0
 21
30.0
 31
0.0
  0
LINE
  5
7B
330
1F
100
AcDbEntity
  8
1
 62
     7
100
AcDbLine
 10
139.0
 20
30.0
 30
0.0
 11
139.0
 21
33.0
 31
0.0
  0
LINE
  5
7C
330
1F
100
AcDbEntity
  8
1
  6
CENTERX2
 62
     7
100
AcDbLine
 10
139.0
 20
30.0
 30
0.0
 11
140.0
 21
30.0
 31
0.0
  0
LINE
  5
7D
330
1F
100
AcDbEntity
  8
1
 62
     7
100
AcDbLine
 10
131.0
 20
32.0
 30
0.0
 11
139.0
 21
33.0
 31
0.0
  0
LINE
  5
7E
330
1F
100
AcDbEntity
  8
1
 62
     7
100
AcDbLine
 10
131.0
 20
28.0
 30
0.0
 11
131.0
 21
30.0
 31
0.0
  0
LINE
  5
7F
330
1F
100
AcDbEntity
  8
1
 62
     7
100
AcDbLine
 10
139.0
 20
27.0
 30
0.0
 11
131.0
 21
28.0
 31
0.0
  0
LINE
  5
80
330
1F
100
AcDbEntity
  8
1
 62
     7
100
AcDbLine
 10
139.0
 20
27.0
 30
0.0
 11
139.0
 21
30.0
 31
0.0
  0
LINE
  5
81
330
1F
100
AcDbEntity
  8
1
  6
CENTERX2
 62
     7
100
AcDbLine
 10
145.0
 20
34.0
 30
0.0
 11
145.0
 21
25.0
 31
0.0
  0
LINE
  5
82
330
1F
100
AcDbEntity
  8
1
 62
     7
100
AcDbLine
 10
150.0
 20
5.0
 30
0.0
 11
150.0
 21
55.0
 31
0.0
  0
LINE
  5
83
330
1F
100
AcDbEntity
  8
1
 62
     7
100
AcDbLine
 10
150.0
 20
50.0
 30
0.0
 11
205.0
 21
50.0
 31
0.0
  0
LINE
  5
84
330
1F
100
AcDbEntity
  8
1
 62
     7
100
AcDbLine
 10
205.0
 20
35.0
 30
0.0
 11
186.0
 21
35.0
 31
0.0
  0
LINE
  5
85
330
1F
100
AcDbEntity
  8
1
 62
     7
100
AcDbLine
 10
186.0
 20
55.0
 30
0.0
 11
186.0
 21
45.0
 31
0.0
  0
LINE
  5
86
330
1F
100
AcDbEntity
  8
1
 62
     7
100
AcDbLine
 10
150.0
 20
45.0
 30
0.0
 11
205.0
 21
45.0
 31
0.0
  0
LINE
  5
87
330
1F
100
AcDbEntity
  8
1
 62
     7
370
    15
100
AcDbLine
 10
205.0
 20
5.0
 30
0.0
 11
205.0
 21
30.0
 31
0.0
  0
LINE
  5
88
330
1F
100
AcDbEntity
  8
1
 62
     7
370
    15
100
AcDbLine
 10
5.0
 20
284.0
 30
0.0
 11
5.0
 21
5.0
 31
0.0
  0
LINE
  5
89
330
1F
100
AcDbEntity
  8
1
 62
     7
100
AcDbLine
 10
30.0
 20
55.0
 30
0.0
 11
130.0
 21
55.0
 31
0.0
  0
LINE
  5
8A
330
1F
100
AcDbEntity
  8
1
 62
     7
370
    15
100
AcDbLine
 10
30.0
 20
290.0
 30
0.0
 11
5.0
 21
290.0
 31
0.0
  0
LINE
  5
8B
330
1F
100
AcDbEntity
  8
1
 62
     7
370
    15
100
AcDbLine
 10
150.0
 20
290.0
 30
0.0
 11
30.0
 21
290.0
 31
0.0
  0
LINE
  5
8C
330
1F
100
AcDbEntity
  8
1
 62
     7
370
    15
100
AcDbLine
 10
168.0
 20
290.0
 30
0.0
 11
150.0
 21
290.0
 31
0.0
  0
LINE
  5
8D
330
1F
100
AcDbEntity
  8
1
 62
     7
370
    15
100
AcDbLine
 10
187.0
 20
290.0
 30
0.0
 11
168.0
 21
290.0
 31
0.0
  0
LINE
  5
8E
330
1F
100
AcDbEntity
  8
1
 62
     7
100
AcDbLine
 10
130.0
 20
55.0
 30
0.0
 11
186.0
 21
55.0
 31
0.0
  0
LINE
  5
8F
330
1F
100
AcDbEntity
  8
1
 62
     7
100
AcDbLine
 10
186.0
 20
55.0
 30
0.0
 11
205.0
 21
55.0
 31
0.0
  0
LINE
  5
90
330
1F
100
AcDbEntity
  8
1
 62
     7
370
    15
100
AcDbLine
 10
205.0
 20
61.0
 30
0.0
 11
5.0
 21
61.0
 31
0.0
  0
CIRCLE
  5
91
330
1F
100
AcDbEntity
  8
1
 62
     7
100
AcDbCircle
 10
145.0
 20
30.0
 30
0.0
 40
2.0
  0
CIRCLE
  5
92
330
1F
100
AcDbEntity
  8
1
 62
     7
100
AcDbCircle
 10
145.0
 20
30.0
 30
0.0
 40
3.0
  0
MTEXT
  5
94
330
1F
100
AcDbEntity
  8
1
100
AcDbMText
 10
67.1067490445
 20
18.7956714587
 30
0.0
 40
5.0
 41
0.0
 71
     1
 72
     1
  1
EA306
  7
SLDTEXTSTYLE0
 73
     1
 44
1.0
  0
MTEXT
  5
95
330
1F
100
AcDbEntity
  8
1
100
AcDbMText
 10
168.796827427
 20
54.0482594593
 30
0.0
 40
3.175
 41
0.0
 71
     1
 72
     1
  1
MATTIT
  7
SLDTEXTSTYLE0
 73
     1
 44
1.0
  0
MTEXT
  5
96
330
1F
100
AcDbEntity
  8
1
100
AcDbMText
 10
160.5332857467
 20
32.9146386542
 30
0.0
 40
5.0
 41
0.0
 71
     1
 72
     1
  1
1:1
  7
SLDTEXTSTYLE0
 73
     1
 44
1.0
  0
MTEXT
  5
97
330
1F
100
AcDbEntity
  8
1
100
AcDbMText
 10
67.1067490445
 20
50.5698030355
 30
0.0
 40
5.0
 41
0.0
 71
     1
 72
     1
  1
EA306
  7
SLDTEXTSTYLE0
 73
     1
 44
1.0
  0
MTEXT
  5
98
330
1F
100
AcDbEntity
  8
1
100
AcDbMText
 10
57.0
 20
22.9336015491
 30
0.0
 40
1.5
 41
0.0
 71
     1
 72
     1
  1
TITLE
  7
SLDTEXTSTYLE0
 73
     1
 44
1.0
  0
MTEXT
  5
99
330
1F
100
AcDbEntity
  8
1
100
AcDbMText
 10
152.0
 20
22.9336015491
 30
0.0
 40
1.5
 41
0.0
 71
     1
 72
     1
  1
DRAWING
  7
SLDTEXTSTYLE0
 73
     1
 44
1.0
  0
MTEXT
  5
9A
330
1F
100
AcDbEntity
  8
1
100
AcDbMText
 10
57.0
 20
37.9336015491
 30
0.0
 40
1.5
 41
0.0
 71
     1
 72
     1
  1
ASSEMBLY
  7
SLDTEXTSTYLE0
 73
     1
 44
1.0
  0
MTEXT
  5
9B
330
1F
100
AcDbEntity
  8
1
100
AcDbMText
 10
57.0
 20
52.9336015491
 30
0.0
 40
1.5
 41
0.0
 71
     1
 72
     1
  1
PRODUCT
  7
SLDTEXTSTYLE0
 73
     1
 44
1.0
  0
MTEXT
  5
9C
330
1F
100
AcDbEntity
  8
1
100
AcDbMText
 10
152.0
 20
32.9336015491
 30
0.0
 40
1.5
 41
0.0
 71
     1
 72
     1
  1
SCALE
  7
SLDTEXTSTYLE0
 73
     1
 44
1.0
  0
MTEXT
  5
9D
330
1F
100
AcDbEntity
  8
1
100
AcDbMText
 10
132.0
 20
52.9336015491
 30
0.0
 40
1.5
 41
0.0
 71
     1
 72
     1
  1
SURFACE AREA
  7
SLDTEXTSTYLE0
 73
     1
 44
1.0
  0
MTEXT
  5
9E
330
1F
100
AcDbEntity
  8
1
100
AcDbMText
 10
144.0
 20
47.4336015491
 30
0.0
 40
1.5
 41
0.0
 71
     1
 72
     1
  1
dm
  7
SLDTEXTSTYLE0
 73
     1
 44
1.0
  0
MTEXT
  5
A0
330
1F
100
AcDbEntity
  8
1
100
AcDbMText
 10
146.9391003813
 20
48.3812299688
 30
0.0
 40
1.0
 41
0.0
 71
     1
 72
     1
  1
2
  7
SLDTEXTSTYLE1
 73
     1
 44
1.0
  0
MTEXT
  5
A1
330
1F
100
AcDbEntity
  8
1
100
AcDbMText
 10
144.0
 20
40.4336015491
 30
0.0
 40
1.5
 41
0.0
 71
     1
 72
     1
  1
dm
  7
SLDTEXTSTYLE0
 73
     1
 44
1.0
  0
MTEXT
  5
A2
330
1F
100
AcDbEntity
  8
1
100
AcDbMText
 10
146.9391003813
 20
41.3812299688
 30
0.0
 40
1.0
 41
0.0
 71
     1
 72
     1
  1
2
  7
SLDTEXTSTYLE1
 73
     1
 44
1.0
  0
MTEXT
  5
A3
330
1F
100
AcDbEntity
  8
1
100
AcDbMText
 10
151.5700227822
 20
52.8293127054
 30
0.0
 40
1.5
 41
0.0
 71
     1
 72
     1
  1
DRAWN
  7
SLDTEXTSTYLE0
 73
     1
 44
1.0
  0
MTEXT
  5
A4
330
1F
100
AcDbEntity
  8
1
100
AcDbMText
 10
151.5454806934
 20
47.9336015491
 30
0.0
 40
1.5
 41
0.0
 71
     1
 72
     1
  1
CHECKED
  7
SLDTEXTSTYLE0
 73
     1
 44
1.0
  0
MTEXT
  5
A5
330
1F
100
AcDbEntity
  8
1
100
AcDbMText
 10
173.5559791718
 20
287.7954376275
 30
0.0
 40
1.5
 41
0.0
 71
     1
 72
     1
  1
DRAWN
  7
SLDTEXTSTYLE0
 73
     1
 44
1.0
  0
MTEXT
  5
A6
330
1F
100
AcDbEntity
  8
1
100
AcDbMText
 10
83.1465338493
 20
287.7667174844
 30
0.0
 40
1.5
 41
0.0
 71
     1
 72
     1
  1
DESCRIPTION
  7
SLDTEXTSTYLE0
 73
     1
 44
1.0
  0
MTEXT
  5
A7
330
1F
100
AcDbEntity
  8
1
100
AcDbMText
 10
12.7086682515
 20
287.7702822706
 30
0.0
 40
1.5
 41
0.0
 71
     1
 72
     1
  1
REV
  7
SLDTEXTSTYLE0
 73
     1
 44
1.0
  0
MTEXT
  5
A8
330
1F
100
AcDbEntity
  8
1
100
AcDbMText
 10
191.5950705303
 20
287.7667004614
 30
0.0
 40
1.5
 41
0.0
 71
     1
 72
     1
  1
DATE
  7
SLDTEXTSTYLE0
 73
     1
 44
1.0
  0
MTEXT
  5
A9
330
1F
100
AcDbEntity
  8
1
100
AcDbMText
 10
10.2009728192
 20
8.5482791348
 30
0.0
 40
1.5
 41
0.0
 71
     1
 72
     1
  1
An ASSA ABLOY Group brand
  7
SLDTEXTSTYLE0
 73
     1
 44
1.0
  0
MTEXT
  5
AA
330
1F
100
AcDbEntity
  8
1
100
AcDbMText
 10
10.2860152862
 20
11.5603683027
 30
0.0
 40
1.5
 41
0.0
 71
     1
 72
     1
  1
Abloy Oy
  7
SLDTEXTSTYLE0
 73
     1
 44
1.0
  0
INSERT
  5
B1
330
1F
100
AcDbEntity
  8
1
100
AcDbBlockReference
  2
SW_NOTE_0
 10
8.153755411
 20
35.3910105451
 30
0.0
  0
INSERT
  5
B9
330
1F
100
AcDbEntity
  8
1
100
AcDbBlockReference
  2
SW_NOTE_1
 10
8.0494226461
 20
50.5532587888
 30
0.0
  0
ARC
  5
BA
330
1F
100
AcDbEntity
  8
0
  6
Continuous
 62
     7
370
    15
100
AcDbCircle
 10
71.3360440878
 20
101.7628215877
 30
0.0
 40
1.0
100
AcDbArc
 50
180.0
 51
270.0
  0
ARC
  5
BB
330
1F
100
AcDbEntity
  8
0
  6
Continuous
 62
     7
370
    15
100
AcDbCircle
 10
71.3360440878
 20
251.7628215877
 30
0.0
 40
1.0
100
AcDbArc
 50
90.0
 51
180.0
  0
ARC
  5
BC
330
1F
100
AcDbEntity
  8
0
  6
Continuous
 62
     7
370
    15
100
AcDbCircle
 10
93.8360440878
 20
251.7628215877
 30
0.0
 40
1.0
100
AcDbArc
 50
0.0
 51
90.0
  0
ARC
  5
BD
330
1F
100
AcDbEntity
  8
0
  6
Continuous
 62
     7
370
    15
100
AcDbCircle
 10
93.8360440878
 20
101.7628215877
 30
0.0
 40
1.0
100
AcDbArc
 50
270.0
 51
0.0
  0
ARC
  5
BE
330
1F
100
AcDbEntity
  8
0
  6
Continuous
 62
     7
370
    15
100
AcDbCircle
 10
76.5860440878
 20
149.2628215877
 30
0.0
 40
1.000000000000014
100
AcDbArc
 50
180.0
 51
270.0
  0
LINE
  5
BF
330
1F
100
AcDbEntity
  8
0
  6
Continuous
 62
     7
370
    15
100
AcDbLine
 10
76.5860440357
 20
148.2628209916
 30
0.0
 11
88.58604414
 21
148.2628209916
 31
0.0
  0
ARC
  5
C0
330
1F
100
AcDbEntity
  8
0
  6
Continuous
 62
     7
370
    15
100
AcDbCircle
 10
88.5860440878
 20
149.2628215877
 30
0.0
 40
1.0
100
AcDbArc
 50
270.0
 51
0.0
  0
LINE
  5
C1
330
1F
100
AcDbEntity
  8
0
  6
Continuous
 62
     7
370
    15
100
AcDbLine
 10
89.5860443039
 20
149.2628230182
 30
0.0
 11
89.5860443039
 21
185.2628214685
 31
0.0
  0
ARC
  5
C2
330
1F
100
AcDbEntity
  8
0
  6
Continuous
 62
     7
370
    15
100
AcDbCircle
 10
88.5860440878
 20
185.2628215877
 30
0.0
 40
1.0
100
AcDbArc
 50
0.0
 51
90.0
  0
LINE
  5
C3
330
1F
100
AcDbEntity
  8
0
  6
Continuous
 62
     7
370
    15
100
AcDbLine
 10
88.58604414
 20
186.262823495
 30
0.0
 11
76.5860440357
 21
186.262823495
 31
0.0
  0
ARC
  5
C4
330
1F
100
AcDbEntity
  8
0
  6
Continuous
 62
     7
370
    15
100
AcDbCircle
 10
76.5860440878
 20
185.2628215877
 30
0.0
 40
1.000000000000014
100
AcDbArc
 50
90.0
 51
180.0
  0
LINE
  5
C5
330
1F
100
AcDbEntity
  8
0
  6
Continuous
 62
     7
370
    15
100
AcDbLine
 10
75.5860438718
 20
185.2628214685
 30
0.0
 11
75.5860438718
 21
149.2628230182
 31
0.0
  0
ARC
  5
C6
330
1F
100
AcDbEntity
  8
0
  6
Continuous
 62
     7
370
    15
100
AcDbCircle
 10
88.3360440878
 20
245.2628215877
 30
0.0
 40
4.0
100
AcDbArc
 50
270.0
 51
90.0
  0
LINE
  5
C7
330
1F
100
AcDbEntity
  8
0
  6
Continuous
 62
     7
370
    15
100
AcDbLine
 10
76.8360440766
 20
249.2628170577
 30
0.0
 11
88.336044099
 21
249.2628170577
 31
0.0
  0
ARC
  5
C8
330
1F
100
AcDbEntity
  8
0
  6
Continuous
 62
     7
370
    15
100
AcDbCircle
 10
76.8360440878
 20
245.2628215877
 30
0.0
 40
4.0
100
AcDbArc
 50
90.0
 51
270.0
  0
LINE
  5
C9
330
1F
100
AcDbEntity
  8
0
  6
Continuous
 62
     7
370
    15
100
AcDbLine
 10
88.336044099
 20
241.2628157464
 30
0.0
 11
76.8360440766
 21
241.2628157464
 31
0.0
  0
LINE
  5
CA
330
1F
100
AcDbEntity
  8
0
  6
Continuous
 62
     7
370
    15
100
AcDbLine
 10
76.8360440766
 20
112.5128211853
 30
0.0
 11
88.336044099
 21
112.5128211853
 31
0.0
  0
ARC
  5
CB
330
1F
100
AcDbEntity
  8
0
  6
Continuous
 62
     7
370
    15
100
AcDbCircle
 10
76.8360440878
 20
108.2628215877
 30
0.0
 40
4.25
100
AcDbArc
 50
90.0
 51
270.0
  0
LINE
  5
CC
330
1F
100
AcDbEntity
  8
0
  6
Continuous
 62
     7
370
    15
100
AcDbLine
 10
88.336044099
 20
104.0128216547
 30
0.0
 11
76.8360440766
 21
104.0128216547
 31
0.0
  0
ARC
  5
CD
330
1F
100
AcDbEntity
  8
0
  6
Continuous
 62
     7
370
    15
100
AcDbCircle
 10
88.3360440878
 20
108.2628215877
 30
0.0
 40
4.25
100
AcDbArc
 50
270.0
 51
90.0
  0
CIRCLE
  5
CE
330
1F
100
AcDbEntity
  8
0
  6
Continuous
 62
     7
370
    15
100
AcDbCircle
 10
82.5860440878
 20
118.2628215877
 30
0.0
 40
4.000000000000014
  0
CIRCLE
  5
CF
330
1F
100
AcDbEntity
  8
0
  6
Continuous
 62
     7
370
    15
100
AcDbCircle
 10
82.5860440878
 20
235.2628215877
 30
0.0
 40
4.000000000000014
  0
CIRCLE
  5
D0
330
1F
100
AcDbEntity
  8
0
  6
Continuous
 62
     7
370
    15
100
AcDbCircle
 10
82.5860440878
 20
217.7628215877
 30
0.0
 40
4.000000000000014
  0
CIRCLE
  5
D1
330
1F
100
AcDbEntity
  8
0
  6
Continuous
 62
     7
370
    15
100
AcDbCircle
 10
82.5860440878
 20
135.7628215877
 30
0.0
 40
4.000000000000014
  0
LINE
  5
D2
330
1F
100
AcDbEntity
  8
0
  6
Continuous
 62
     7
370
    15
100
AcDbLine
 10
93.8360445349
 20
252.7628167001
 30
0.0
 11
71.3360436408
 21
252.7628167001
 31
0.0
  0
LINE
  5
D3
330
1F
100
AcDbEntity
  8
0
  6
Continuous
 62
     7
370
    15
100
AcDbLine
 10
94.8360437674
 20
101.7628216352
 30
0.0
 11
94.8360437674
 21
251.7628146735
 31
0.0
  0
LINE
  5
D4
330
1F
100
AcDbEntity
  8
0
  6
Continuous
 62
     7
370
    15
100
AcDbLine
 10
71.3360436408
 20
100.7628215877
 30
0.0
 11
93.8360445349
 21
100.7628215877
 31
0.0
  0
LINE
  5
D5
330
1F
100
AcDbEntity
  8
0
  6
Continuous
 62
     7
370
    15
100
AcDbLine
 10
70.3360444082
 20
251.7628146735
 30
0.0
 11
70.3360444082
 21
101.7628216352
 31
0.0
  0
ARC
  5
D6
330
1F
100
AcDbEntity
  8
0
  6
Continuous
 62
     7
370
    15
100
AcDbCircle
 10
88.3360440878
 20
245.2628215877
 30
0.0
 40
2.250000000000028
100
AcDbArc
 50
270.0
 51
90.0
  0
LINE
  5
D7
330
1F
100
AcDbEntity
  8
0
  6
Continuous
 62
     7
370
    15
100
AcDbLine
 10
88.336044099
 20
247.5128246871
 30
0.0
 11
88.336044099
 21
249.2628170577
 31
0.0
  0
LINE
  5
D8
330
1F
100
AcDbEntity
  8
0
  6
Continuous
 62
     7
370
    15
100
AcDbLine
 10
88.336044099
 20
241.2628157464
 30
0.0
 11
88.336044099
 21
243.0128230182
 31
0.0
  0
CIRCLE
  5
D9
330
1F
100
AcDbEntity
  8
0
  6
Continuous
 62
     7
370
    15
100
AcDbCircle
 10
82.5860440878
 20
135.7628215877
 30
0.0
 40
2.25
  0
CIRCLE
  5
DA
330
1F
100
AcDbEntity
  8
0
  6
Continuous
 62
     7
370
    15
100
AcDbCircle
 10
82.5860440878
 20
217.7628215877
 30
0.0
 40
2.25
  0
CIRCLE
  5
DB
330
1F
100
AcDbEntity
  8
0
  6
Continuous
 62
     7
370
    15
100
AcDbCircle
 10
82.5860440878
 20
235.2628215877
 30
0.0
 40
2.25
  0
CIRCLE
  5
DC
330
1F
100
AcDbEntity
  8
0
  6
Continuous
 62
     7
370
    15
100
AcDbCircle
 10
82.5860440878
 20
118.2628215877
 30
0.0
 40
2.25
  0
ARC
  5
DD
330
1F
100
AcDbEntity
  8
0
  6
Continuous
 62
     7
370
    15
100
AcDbCircle
 10
76.8360440878
 20
108.2628215877
 30
0.0
 40
2.5
100
AcDbArc
 50
90.0
 51
270.0
  0
LINE
  5
DE
330
1F
100
AcDbEntity
  8
0
  6
Continuous
 62
     7
370
    15
100
AcDbLine
 10
76.8360440766
 20
105.7628214759
 30
0.0
 11
76.8360440766
 21
104.0128216547
 31
0.0
  0
LINE
  5
DF
330
1F
100
AcDbEntity
  8
0
  6
Continuous
 62
     7
370
    15
100
AcDbLine
 10
76.8360440766
 20
110.7628213641
 30
0.0
 11
76.8360440766
 21
112.5128211853
 31
0.0
  0
LINE
  5
E0
330
1F
100
AcDbEntity
  8
0
  6
Continuous
 62
     7
370
    15
100
AcDbLine
 10
88.336044099
 20
110.7628213641
 30
0.0
 11
76.8360440766
 21
110.7628213641
 31
0.0
  0
LINE
  5
E1
330
1F
100
AcDbEntity
  8
0
  6
Continuous
 62
     7
370
    15
100
AcDbLine
 10
88.336044099
 20
112.5128211853
 30
0.0
 11
88.336044099
 21
110.7628213641
 31
0.0
  0
LINE
  5
E2
330
1F
100
AcDbEntity
  8
0
  6
Continuous
 62
     7
370
    15
100
AcDbLine
 10
76.8360440766
 20
105.7628214759
 30
0.0
 11
88.336044099
 21
105.7628214759
 31
0.0
  0
LINE
  5
E3
330
1F
100
AcDbEntity
  8
0
  6
Continuous
 62
     7
370
    15
100
AcDbLine
 10
88.336044099
 20
104.0128216547
 30
0.0
 11
88.336044099
 21
105.7628214759
 31
0.0
  0
ARC
  5
E4
330
1F
100
AcDbEntity
  8
0
  6
Continuous
 62
     7
370
    15
100
AcDbCircle
 10
88.3360440878
 20
108.2628215877
 30
0.0
 40
2.5
100
AcDbArc
 50
270.0
 51
90.0
  0
LINE
  5
E5
330
1F
100
AcDbEntity
  8
0
  6
Continuous
 62
     7
370
    15
100
AcDbLine
 10
88.336044099
 20
247.5128246871
 30
0.0
 11
76.8360440766
 21
247.5128246871
 31
0.0
  0
LINE
  5
E6
330
1F
100
AcDbEntity
  8
0
  6
Continuous
 62
     7
370
    15
100
AcDbLine
 10
76.8360440766
 20
247.5128246871
 30
0.0
 11
76.8360440766
 21
249.2628170577
 31
0.0
  0
LINE
  5
E7
330
1F
100
AcDbEntity
  8
0
  6
Continuous
 62
     7
370
    15
100
AcDbLine
 10
76.8360440766
 20
241.2628157464
 30
0.0
 11
76.8360440766
 21
243.0128230182
 31
0.0
  0
LINE
  5
E8
330
1F
100
AcDbEntity
  8
0
  6
Continuous
 62
     7
370
    15
100
AcDbLine
 10
76.8360440766
 20
243.0128230182
 30
0.0
 11
88.336044099
 21
243.0128230182
 31
0.0
  0
ARC
  5
E9
330
1F
100
AcDbEntity
  8
0
  6
Continuous
 62
     7
370
    15
100
AcDbCircle
 10
76.8360440878
 20
245.2628215877
 30
0.0
 40
2.250000000000028
100
AcDbArc
 50
90.0
 51
270.0
  0
DIMENSION
  5
EA
330
1F
100
AcDbEntity
  8
1
100
AcDbDimension
  2
*D4
 10
89.5860440878
 20
167.2628215877
 30
0.1
 11
109.4275174006
 21
167.2628215877
 31
0.0
 70
    38
 71
     5
 42
-1.0
  3
SLDDIMSTYLE0
100
AcDbOrdinateDimension
 13
89.5860440878
 23
167.2628215877
 33
0.1
 14
106.5042755541
 24
167.2628215877
 34
0.1
  0
DIMENSION
  5
F7
330
1F
100
AcDbEntity
  8
1
100
AcDbDimension
  2
*D5
 10
89.5860440878
 20
167.2628215877
 30
0.1
 11
110.7651512328
 21
186.2628215877
 31
0.0
 70
    38
 71
     5
 42
-1.0
  3
SLDDIMSTYLE1
100
AcDbOrdinateDimension
 13
88.5860440878
 23
186.2628215877
 33
0.1
 14
106.5042755541
 24
186.2628215877
 34
0.1
  0
DIMENSION
  5
100
330
1F
100
AcDbEntity
  8
1
100
AcDbDimension
  2
*D6
 10
89.5860440878
 20
167.2628215877
 30
0.1
 11
112.7687640026
 21
217.7628215877
 31
0.0
 70
    38
 71
     5
 42
-1.0
  3
SLDDIMSTYLE1
100
AcDbOrdinateDimension
 13
87.3360440878
 23
217.7628215877
 33
0.1
 14
106.5042755541
 24
217.7628215877
 34
0.1
  0
DIMENSION
  5
108
330
1F
100
AcDbEntity
  8
1
100
AcDbDimension
  2
*D7
 10
89.5860440878
 20
167.2628215877
 30
0.1
 11
110.7651512328
 21
235.2628215877
 31
0.0
 70
    38
 71
     5
 42
-1.0
  3
SLDDIMSTYLE1
100
AcDbOrdinateDimension
 13
87.3360440878
 23
235.2628215877
 33
0.1
 14
106.5042755541
 24
235.2628215877
 34
0.1
  0
DIMENSION
  5
110
330
1F
100
AcDbEntity
  8
1
100
AcDbDimension
  2
*D8
 10
89.5860440878
 20
167.2628215877
 30
0.1
 11
110.7651512328
 21
245.2628215877
 31
0.0
 70
    38
 71
     5
 42
-1.0
  3
SLDDIMSTYLE1
100
AcDbOrdinateDimension
 13
88.3360440878
 23
245.2628215877
 33
0.1
 14
106.5042755541
 24
245.2628215877
 34
0.1
  0
DIMENSION
  5
118
330
1F
100
AcDbEntity
  8
1
100
AcDbDimension
  2
*D9
 10
89.5860440878
 20
167.2628215877
 30
0.1
 11
112.7687640026
 21
252.7628215877
 31
0.0
 70
    38
 71
     5
 42
-1.0
  3
SLDDIMSTYLE1
100
AcDbOrdinateDimension
 13
93.8360440878
 23
252.7628215877
 33
0.1
 14
106.5042755541
 24
252.7628215877
 34
0.1
  0
DIMENSION
  5
120
330
1F
100
AcDbEntity
  8
1
100
AcDbDimension
  2
*D10
 10
89.5860440878
 20
167.2628215877
 30
0.1
 11
110.7651512328
 21
148.2628215877
 31
0.0
 70
    38
 71
     5
 42
-1.0
  3
SLDDIMSTYLE1
100
AcDbOrdinateDimension
 13
88.5860440878
 23
148.2628215877
 33
0.1
 14
106.5042755541
 24
148.2628215877
 34
0.1
  0
DIMENSION
  5
128
330
1F
100
AcDbEntity
  8
1
100
AcDbDimension
  2
*D11
 10
89.5860440878
 20
167.2628215877
 30
0.1
 11
112.7687640026
 21
135.7628215877
 31
0.0
 70
    38
 71
     5
 42
-1.0
  3
SLDDIMSTYLE1
100
AcDbOrdinateDimension
 13
87.3360440878
 23
135.7628215877
 33
0.1
 14
106.5042755541
 24
135.7628215877
 34
0.1
  0
DIMENSION
  5
130
330
1F
100
AcDbEntity
  8
1
100
AcDbDimension
  2
*D12
 10
89.5860440878
 20
167.2628215877
 30
0.1
 11
110.7651512328
 21
118.2628215877
 31
0.0
 70
    38
 71
     5
 42
-1.0
  3
SLDDIMSTYLE1
100
AcDbOrdinateDimension
 13
87.3360440878
 23
118.2628215877
 33
0.1
 14
106.5042755541
 24
118.2628215877
 34
0.1
  0
DIMENSION
  5
138
330
1F
100
AcDbEntity
  8
1
100
AcDbDimension
  2
*D13
 10
89.5860440878
 20
167.2628215877
 30
0.1
 11
110.7651512328
 21
108.2628215877
 31
0.0
 70
    38
 71
     5
 42
-1.0
  3
SLDDIMSTYLE1
100
AcDbOrdinateDimension
 13
88.3360440878
 23
108.2628215877
 33
0.1
 14
106.5042755541
 24
108.2628215877
 34
0.1
  0
DIMENSION
  5
140
330
1F
100
AcDbEntity
  8
1
100
AcDbDimension
  2
*D14
 10
89.5860440878
 20
167.2628215877
 30
0.1
 11
112.7687640026
 21
100.7628215877
 31
0.0
 70
    38
 71
     5
 42
-1.0
  3
SLDDIMSTYLE1
100
AcDbOrdinateDimension
 13
93.8360440878
 23
100.7628215877
 33
0.1
 14
106.5042755541
 24
100.7628215877
 34
0.1
  0
DIMENSION
  5
148
330
1F
100
AcDbEntity
  8
1
100
AcDbDimension
  2
*D15
 10
82.5860440878
 20
240.0128215877
 30
0.1
 11
82.5860440878
 21
268.7094016579
 31
0.0
 70
   102
 71
     5
 42
-1.0
  3
SLDDIMSTYLE0
100
AcDbOrdinateDimension
 13
82.5860440878
 23
240.0128215877
 33
0.1
 14
82.5860440878
 24
265.7861598114
 34
0.1
  0
DIMENSION
  5
14F
330
1F
100
AcDbEntity
  8
1
100
AcDbDimension
  2
*D16
 10
82.5860440878
 20
240.0128215877
 30
0.1
 11
88.3360440878
 21
272.0506482598
 31
0.0
 70
   102
 71
     5
 42
-1.0
  3
SLDDIMSTYLE1
100
AcDbOrdinateDimension
 13
88.3360440878
 23
245.2628215877
 33
0.1
 14
88.3360440878
 24
265.7861598114
 34
0.1
  0
DIMENSION
  5
157
330
1F
100
AcDbEntity
  8
1
100
AcDbDimension
  2
*D17
 10
82.5860440878
 20
240.0128215877
 30
0.1
 11
76.8360440878
 21
272.0506482598
 31
0.0
 70
   102
 71
     5
 42
-1.0
  3
SLDDIMSTYLE1
100
AcDbOrdinateDimension
 13
76.8360440878
 23
245.2628215877
 33
0.1
 14
76.8360440878
 24
265.7861598114
 34
0.1
  0
DIMENSION
  5
15F
330
1F
100
AcDbEntity
  8
1
100
AcDbDimension
  2
*D18
 10
82.5860440878
 20
240.0128215877
 30
0.1
 11
94.8360440878
 21
273.388282092
 31
0.0
 70
   102
 71
     5
 42
-1.0
  3
SLDDIMSTYLE1
100
AcDbOrdinateDimension
 13
94.8360440878
 23
251.7628215877
 33
0.1
 14
94.8360440878
 24
265.7861598114
 34
0.1
  0
DIMENSION
  5
167
330
1F
100
AcDbEntity
  8
1
100
AcDbDimension
  2
*D19
 10
82.5860440878
 20
240.0128215877
 30
0.1
 11
70.3360440878
 21
273.388282092
 31
0.0
 70
   102
 71
     5
 42
-1.0
  3
SLDDIMSTYLE1
100
AcDbOrdinateDimension
 13
70.3360440878
 23
251.7628215877
 33
0.1
 14
70.3360440878
 24
265.7861598114
 34
0.1
  0
DIMENSION
  5
16F
330
1F
100
AcDbEntity
  8
1
100
AcDbDimension
  2
*D20
 10
75.5860440878
 20
171.7549401199
 30
0.0
 11
61.2136339204
 21
171.7549401199
 31
0.0
 70
   160
 71
     2
 42
-1.0
  3
SLDDIMSTYLE2
100
AcDbAlignedDimension
 13
89.5860440878
 23
185.2628215877
 33
0.0
 14
75.5860440878
 24
185.2628215877
 34
0.0
100
AcDbRotatedDimension
  0
DIMENSION
  5
179
330
1F
100
AcDbEntity
  8
1
100
AcDbDimension
  2
*D21
 10
76.5860440878
 20
185.2628215877
 30
0.0
 11
63.8543136161
 21
197.9945720594
 31
0.0
 70
   164
  1
<>
 71
     1
 42
-1.0
  3
SLDDIMSTYLE3
100
AcDbRadialDimension
 15
75.8789373066
 25
185.9699283688
 35
0.0
 40
0.0
  0
DIMENSION
  5
183
330
1F
100
AcDbEntity
  8
1
100
AcDbDimension
  2
*D22
 10
71.3360440878
 20
101.7628215877
 30
0.0
 11
64.5935242791
 21
97.8700301876
 31
0.0
 70
   164
  1
<>
 71
     1
 42
-1.0
  3
SLDDIMSTYLE3
100
AcDbRadialDimension
 15
70.470018684
 25
101.2628215877
 35
0.0
 40
0.0
  0
DIMENSION
  5
18C
330
1F
100
AcDbEntity
  8
1
100
AcDbDimension
  2
*D23
 10
76.8360440878
 20
84.0203196316
 30
0.0
 11
96.8050575183
 21
84.0203196316
 31
0.0
 70
   160
 71
     2
 42
-1.0
  3
SLDDIMSTYLE2
100
AcDbAlignedDimension
 13
88.3360440878
 23
108.2628215877
 33
0.0
 14
76.8360440878
 24
108.2628215877
 34
0.0
100
AcDbRotatedDimension
  0
DIMENSION
  5
197
330
1F
100
AcDbEntity
  8
1
100
AcDbDimension
  2
*D24
 10
76.8360440878
 20
245.2628215877
 30
0.0
 11
59.9237711509
 21
255.0271426939
 31
0.0
 70
   164
  1
<>
 71
     1
 42
-1.0
  3
SLDDIMSTYLE3
100
AcDbRadialDimension
 15
73.3719424727
 25
247.2628215877
 35
0.0
 40
0.0
  0
DIMENSION
  5
1A0
330
1F
100
AcDbEntity
  8
1
100
AcDbDimension
  2
*D25
 10
76.8360440878
 20
240.3845801483
 30
0.0
 11
62.0026461071
 21
240.3845801483
 31
0.0
 70
   160
 71
     2
 42
-1.0
  3
SLDDIMSTYLE4
100
AcDbAlignedDimension
 13
70.3360440878
 23
251.7628215877
 33
0.0
 14
76.8360440878
 24
245.2628215877
 34
0.0
100
AcDbRotatedDimension
  0
INSERT
  5
1B7
330
1F
100
AcDbEntity
  8
0
  6
Continuous
 62
     7
370
     0
100
AcDbBlockReference
  2
SW_CENTERMARKSYMBOL_0
 10
82.5860440878
 20
135.7628215877
 30
0.0
  0
INSERT
  5
1C3
330
1F
100
AcDbEntity
  8
0
  6
Continuous
 62
     7
370
     0
100
AcDbBlockReference
  2
SW_CENTERMARKSYMBOL_1
 10
82.5860440878
 20
217.7628215877
 30
0.0
  0
INSERT
  5
1CF
330
1F
100
AcDbEntity
  8
0
  6
Continuous
 62
     7
370
     0
100
AcDbBlockReference
  2
SW_CENTERMARKSYMBOL_2
 10
82.5860440878
 20
235.2628215877
 30
0.0
  0
INSERT
  5
1DB
330
1F
100
AcDbEntity
  8
0
  6
Continuous
 62
     7
370
     0
100
AcDbBlockReference
  2
SW_CENTERMARKSYMBOL_3
 10
82.5860440878
 20
118.2628215877
 30
0.0
  0
LINE
  5
1DC
330
1F
100
AcDbEntity
  8
0
  6
CENTER
 62
     7
370
    30
100
AcDbLine
 10
82.5860440878
 20
259.5238753877
 30
0.0
 11
82.5860440878
 21
91.6544942229
 31
0.0
  0
LINE
  5
1DD
330
1F
100
AcDbEntity
  8
0
  6
Continuous
 62
     7
370
    30
100
AcDbLine
 10
94.5860440878
 20
257.5238753877
 30
0.0
 11
82.5860440878
 21
257.5238753877
 31
0.0
  0
SOLID
  5
1DE
330
1F
100
AcDbEntity
  8
0
  6
Continuous
 62
     7
370
    30
100
AcDbTrace
 10
82.5860440878
 20
257.5238753877
 30
0.0
 11
86.0860440878
 21
256.7738753877
 31
0.0
 12
86.0860440878
 22
258.2738753877
 32
0.0
 13
86.0860440878
 23
258.2738753877
 33
0.0
  0
LINE
  5
1DF
330
1F
100
AcDbEntity
  8
0
  6
Continuous
 62
     7
370
    30
100
AcDbLine
 10
94.5860440878
 20
93.6544942229
 30
0.0
 11
82.5860440878
 21
93.6544942229
 31
0.0
  0
SOLID
  5
1E0
330
1F
100
AcDbEntity
  8
0
  6
Continuous
 62
     7
370
    30
100
AcDbTrace
 10
82.5860440878
 20
93.6544942229
 30
0.0
 11
86.0860440878
 21
92.9044942229
 31
0.0
 12
86.0860440878
 22
94.4044942229
 32
0.0
 13
86.0860440878
 23
94.4044942229
 33
0.0
  0
MTEXT
  5
1E1
330
1F
100
AcDbEntity
  8
0
  6
Continuous
 62
     7
100
AcDbMText
 10
95.7638637445
 20
260.3945471452
 30
0.0
 40
5.0
 41
0.0
 71
     1
 72
     1
  1
B
  7
SLDTEXTSTYLE0
 73
     1
 44
1.0
  0
MTEXT
  5
1E2
330
1F
100
AcDbEntity
  8
0
  6
Continuous
 62
     7
100
AcDbMText
 10
96.2546959588
 20
97.3962610214
 30
0.0
 40
5.0
 41
0.0
 71
     1
 72
     1
  1
B
  7
SLDTEXTSTYLE0
 73
     1
 44
1.0
  0
LINE
  5
1E3
330
1F
100
AcDbEntity
  8
0
  6
Continuous
 62
     7
370
    15
100
AcDbLine
 10
148.7073167321
 20
251.7628146735
 30
0.0
 11
146.7073166371
 21
251.7628146735
 31
0.0
  0
LINE
  5
1E4
330
1F
100
AcDbEntity
  8
0
  6
Continuous
 62
     7
370
    15
100
AcDbLine
 10
148.7073167321
 20
251.7628146735
 30
0.0
 11
148.7073167321
 21
101.7628216352
 31
0.0
  0
LINE
  5
1E5
330
1F
100
AcDbEntity
  8
0
  6
Continuous
 62
     7
370
    15
100
AcDbLine
 10
146.7073166371
 20
101.7628216352
 30
0.0
 11
148.7073167321
 21
101.7628216352
 31
0.0
  0
LINE
  5
1E6
330
1F
100
AcDbEntity
  8
0
  6
Continuous
 62
     7
370
    15
100
AcDbLine
 10
146.7073166371
 20
251.7628146735
 30
0.0
 11
146.7073166371
 21
101.7628216352
 31
0.0
  0
LINE
  5
1E7
330
1F
100
AcDbEntity
  8
0
  6
Continuous
 62
     7
370
    15
100
AcDbLine
 10
146.7073166371
 20
251.7628146735
 30
0.0
 11
146.7073166371
 21
252.7628167001
 31
0.0
  0
LINE
  5
1E8
330
1F
100
AcDbEntity
  8
0
  6
Continuous
 62
     7
370
    15
100
AcDbLine
 10
146.7073166371
 20
252.7628167001
 30
0.0
 11
148.7073167321
 21
252.7628167001
 31
0.0
  0
LINE
  5
1E9
330
1F
100
AcDbEntity
  8
0
  6
Continuous
 62
     7
370
    15
100
AcDbLine
 10
148.7073167321
 20
252.7628167001
 30
0.0
 11
148.7073167321
 21
251.7628146735
 31
0.0
  0
LINE
  5
1EA
330
1F
100
AcDbEntity
  8
0
  6
Continuous
 62
     7
370
    15
100
AcDbLine
 10
148.7073167321
 20
100.7628215877
 30
0.0
 11
146.7073166371
 21
100.7628215877
 31
0.0
  0
LINE
  5
1EB
330
1F
100
AcDbEntity
  8
0
  6
Continuous
 62
     7
370
    15
100
AcDbLine
 10
148.7073167321
 20
101.7628216352
 30
0.0
 11
148.7073167321
 21
100.7628215877
 31
0.0
  0
LINE
  5
1EC
330
1F
100
AcDbEntity
  8
0
  6
Continuous
 62
     7
370
    15
100
AcDbLine
 10
146.7073166371
 20
100.7628215877
 30
0.0
 11
146.7073166371
 21
101.7628216352
 31
0.0
  0
DIMENSION
  5
1ED
330
1F
100
AcDbEntity
  8
1
100
AcDbDimension
  2
*D30
 10
146.7073166846
 20
259.6209019371
 30
0.0
 11
154.620659726
 21
259.6209019371
 31
0.0
 70
   160
 71
     2
 42
-1.0
  3
SLDDIMSTYLE4
100
AcDbAlignedDimension
 13
148.7073166846
 23
252.7628215877
 33
0.0
 14
146.7073166846
 24
252.7628215877
 34
0.0
100
AcDbRotatedDimension
  0
LINE
  5
1F9
330
1F
100
AcDbEntity
  8
0
  6
Continuous
 62
     7
370
    15
100
AcDbLine
 10
34.8884712811
 20
133.5128209022
 30
0.0
 11
34.6384712402
 21
133.5128209022
 31
0.0
  0
LINE
  5
1FA
330
1F
100
AcDbEntity
  8
0
  6
Continuous
 62
     7
370
    15
100
AcDbLine
 10
34.6384712402
 20
138.0128225711
 30
0.0
 11
34.6384712402
 21
133.5128209022
 31
0.0
  0
LINE
  5
1FB
330
1F
100
AcDbEntity
  8
0
  6
Continuous
 62
     7
370
    15
100
AcDbLine
 10
34.6384712402
 20
138.0128225711
 30
0.0
 11
34.8884712811
 21
138.0128225711
 31
0.0
  0
LINE
  5
1FC
330
1F
100
AcDbEntity
  8
0
  6
Continuous
 62
     7
370
    15
100
AcDbLine
 10
34.8884712811
 20
138.0128225711
 30
0.0
 11
34.8884712811
 21
133.5128209022
 31
0.0
  0
LINE
  5
1FD
330
1F
100
AcDbEntity
  8
0
  6
Continuous
 62
     7
370
    15
100
AcDbLine
 10
34.8884712811
 20
215.5128194419
 30
0.0
 11
34.6384712402
 21
215.5128194419
 31
0.0
  0
LINE
  5
1FE
330
1F
100
AcDbEntity
  8
0
  6
Continuous
 62
     7
370
    15
100
AcDbLine
 10
34.6384712402
 20
220.0128211108
 30
0.0
 11
34.6384712402
 21
215.5128194419
 31
0.0
  0
LINE
  5
1FF
330
1F
100
AcDbEntity
  8
0
  6
Continuous
 62
     7
370
    15
100
AcDbLine
 10
34.6384712402
 20
220.0128211108
 30
0.0
 11
34.8884712811
 21
220.0128211108
 31
0.0
  0
LINE
  5
200
330
1F
100
AcDbEntity
  8
0
  6
Continuous
 62
     7
370
    15
100
AcDbLine
 10
34.8884712811
 20
220.0128211108
 30
0.0
 11
34.8884712811
 21
215.5128194419
 31
0.0
  0
LINE
  5
201
330
1F
100
AcDbEntity
  8
0
  6
Continuous
 62
     7
370
    15
100
AcDbLine
 10
34.8884712811
 20
233.0128176538
 30
0.0
 11
34.6384712402
 21
233.0128176538
 31
0.0
  0
LINE
  5
202
330
1F
100
AcDbEntity
  8
0
  6
Continuous
 62
     7
370
    15
100
AcDbLine
 10
34.6384712402
 20
237.5128193227
 30
0.0
 11
34.6384712402
 21
233.0128176538
 31
0.0
  0
LINE
  5
203
330
1F
100
AcDbEntity
  8
0
  6
Continuous
 62
     7
370
    15
100
AcDbLine
 10
34.6384712402
 20
237.5128193227
 30
0.0
 11
34.8884712811
 21
237.5128193227
 31
0.0
  0
LINE
  5
204
330
1F
100
AcDbEntity
  8
0
  6
Continuous
 62
     7
370
    15
100
AcDbLine
 10
34.8884712811
 20
237.5128193227
 30
0.0
 11
34.8884712811
 21
233.0128176538
 31
0.0
  0
LINE
  5
205
330
1F
100
AcDbEntity
  8
0
  6
Continuous
 62
     7
370
    15
100
AcDbLine
 10
34.8884712811
 20
116.012821759
 30
0.0
 11
34.6384712402
 21
116.012821759
 31
0.0
  0
LINE
  5
206
330
1F
100
AcDbEntity
  8
0
  6
Continuous
 62
     7
370
    15
100
AcDbLine
 10
34.6384712402
 20
120.5128224966
 30
0.0
 11
34.6384712402
 21
116.012821759
 31
0.0
  0
LINE
  5
207
330
1F
100
AcDbEntity
  8
0
  6
Continuous
 62
     7
370
    15
100
AcDbLine
 10
34.6384712402
 20
120.5128224966
 30
0.0
 11
34.8884712811
 21
120.5128224966
 31
0.0
  0
LINE
  5
208
330
1F
100
AcDbEntity
  8
0
  6
Continuous
 62
     7
370
    15
100
AcDbLine
 10
34.8884712811
 20
120.5128224966
 30
0.0
 11
34.8884712811
 21
116.012821759
 31
0.0
  0
LINE
  5
209
330
1F
100
AcDbEntity
  8
0
  6
Continuous
 62
     7
370
    15
100
AcDbLine
 10
32.8884711862
 20
112.5128211853
 30
0.0
 11
32.8884711862
 21
114.2628219378
 31
0.0
  0
LINE
  5
20A
330
1F
100
AcDbEntity
  8
0
  6
Continuous
 62
     7
370
    15
100
AcDbLine
 10
32.8884711862
 20
114.2628219378
 30
0.0
 11
34.6384712402
 21
116.012821759
 31
0.0
  0
LINE
  5
20B
330
1F
100
AcDbEntity
  8
0
  6
Continuous
 62
     7
370
    15
100
AcDbLine
 10
34.6384712402
 20
110.7628213641
 30
0.0
 11
32.8884711862
 21
112.5128211853
 31
0.0
  0
LINE
  5
20C
330
1F
100
AcDbEntity
  8
0
  6
Continuous
 62
     7
370
    15
100
AcDbLine
 10
34.8884712811
 20
110.7628213641
 30
0.0
 11
34.8884712811
 21
116.012821759
 31
0.0
  0
LINE
  5
20D
330
1F
100
AcDbEntity
  8
0
  6
Continuous
 62
     7
370
    15
100
AcDbLine
 10
34.6384712402
 20
110.7628213641
 30
0.0
 11
34.8884712811
 21
110.7628213641
 31
0.0
  0
LINE
  5
20E
330
1F
100
AcDbEntity
  8
0
  6
Continuous
 62
     7
370
    15
100
AcDbLine
 10
32.8884711862
 20
221.762820932
 30
0.0
 11
32.8884711862
 21
231.2628252832
 31
0.0
  0
LINE
  5
20F
330
1F
100
AcDbEntity
  8
0
  6
Continuous
 62
     7
370
    15
100
AcDbLine
 10
32.8884711862
 20
231.2628252832
 30
0.0
 11
34.6384712402
 21
233.0128176538
 31
0.0
  0
LINE
  5
210
330
1F
100
AcDbEntity
  8
0
  6
Continuous
 62
     7
370
    15
100
AcDbLine
 10
34.6384712402
 20
220.0128211108
 30
0.0
 11
32.8884711862
 21
221.762820932
 31
0.0
  0
LINE
  5
211
330
1F
100
AcDbEntity
  8
0
  6
Continuous
 62
     7
370
    15
100
AcDbLine
 10
34.8884712811
 20
220.0128211108
 30
0.0
 11
34.8884712811
 21
233.0128176538
 31
0.0
  0
LINE
  5
212
330
1F
100
AcDbEntity
  8
0
  6
Continuous
 62
     7
370
    15
100
AcDbLine
 10
34.6384712402
 20
237.5128193227
 30
0.0
 11
32.8884711862
 21
239.2628265945
 31
0.0
  0
LINE
  5
213
330
1F
100
AcDbEntity
  8
0
  6
Continuous
 62
     7
370
    15
100
AcDbLine
 10
32.8884711862
 20
239.2628265945
 30
0.0
 11
32.8884711862
 21
241.2628157464
 31
0.0
  0
LINE
  5
214
330
1F
100
AcDbEntity
  8
0
  6
Continuous
 62
     7
370
    15
100
AcDbLine
 10
32.8884711862
 20
241.2628157464
 30
0.0
 11
34.6384712402
 21
243.0128230182
 31
0.0
  0
LINE
  5
215
330
1F
100
AcDbEntity
  8
0
  6
Continuous
 62
     7
370
    15
100
AcDbLine
 10
34.8884712811
 20
243.0128230182
 30
0.0
 11
34.6384712402
 21
243.0128230182
 31
0.0
  0
LINE
  5
216
330
1F
100
AcDbEntity
  8
0
  6
Continuous
 62
     7
370
    15
100
AcDbLine
 10
34.8884712811
 20
237.5128193227
 30
0.0
 11
34.8884712811
 21
243.0128230182
 31
0.0
  0
LINE
  5
217
330
1F
100
AcDbEntity
  8
0
  6
Continuous
 62
     7
370
    15
100
AcDbLine
 10
32.8884711862
 20
213.7628196207
 30
0.0
 11
34.6384712402
 21
215.5128194419
 31
0.0
  0
LINE
  5
218
330
1F
100
AcDbEntity
  8
0
  6
Continuous
 62
     7
370
    15
100
AcDbLine
 10
32.8884711862
 20
186.262823495
 30
0.0
 11
32.8884711862
 21
213.7628196207
 31
0.0
  0
LINE
  5
219
330
1F
100
AcDbEntity
  8
0
  6
Continuous
 62
     7
370
    15
100
AcDbLine
 10
32.8884711862
 20
186.262823495
 30
0.0
 11
34.8884712811
 21
186.262823495
 31
0.0
  0
LINE
  5
21A
330
1F
100
AcDbEntity
  8
0
  6
Continuous
 62
     7
370
    15
100
AcDbLine
 10
34.8884712811
 20
186.262823495
 30
0.0
 11
34.8884712811
 21
215.5128194419
 31
0.0
  0
LINE
  5
21B
330
1F
100
AcDbEntity
  8
0
  6
Continuous
 62
     7
370
    15
100
AcDbLine
 10
34.6384712402
 20
138.0128225711
 30
0.0
 11
32.8884711862
 21
139.7628223923
 31
0.0
  0
LINE
  5
21C
330
1F
100
AcDbEntity
  8
0
  6
Continuous
 62
     7
370
    15
100
AcDbLine
 10
32.8884711862
 20
139.7628223923
 30
0.0
 11
32.8884711862
 21
148.2628209916
 31
0.0
  0
LINE
  5
21D
330
1F
100
AcDbEntity
  8
0
  6
Continuous
 62
     7
370
    15
100
AcDbLine
 10
34.8884712811
 20
148.2628209916
 30
0.0
 11
32.8884711862
 21
148.2628209916
 31
0.0
  0
LINE
  5
21E
330
1F
100
AcDbEntity
  8
0
  6
Continuous
 62
     7
370
    15
100
AcDbLine
 10
34.8884712811
 20
138.0128225711
 30
0.0
 11
34.8884712811
 21
148.2628209916
 31
0.0
  0
LINE
  5
21F
330
1F
100
AcDbEntity
  8
0
  6
Continuous
 62
     7
370
    15
100
AcDbLine
 10
34.6384712402
 20
247.5128246871
 30
0.0
 11
32.8884711862
 21
249.2628170577
 31
0.0
  0
LINE
  5
220
330
1F
100
AcDbEntity
  8
0
  6
Continuous
 62
     7
370
    15
100
AcDbLine
 10
32.8884711862
 20
249.2628170577
 30
0.0
 11
32.8884711862
 21
252.7628167001
 31
0.0
  0
LINE
  5
221
330
1F
100
AcDbEntity
  8
0
  6
Continuous
 62
     7
370
    15
100
AcDbLine
 10
34.6384712402
 20
247.5128246871
 30
0.0
 11
34.8884712811
 21
247.5128246871
 31
0.0
  0
LINE
  5
222
330
1F
100
AcDbEntity
  8
0
  6
Continuous
 62
     7
370
    15
100
AcDbLine
 10
34.8884712811
 20
247.5128246871
 30
0.0
 11
34.8884712811
 21
252.7628167001
 31
0.0
  0
LINE
  5
223
330
1F
100
AcDbEntity
  8
0
  6
Continuous
 62
     7
370
    15
100
AcDbLine
 10
34.8884712811
 20
252.7628167001
 30
0.0
 11
32.8884711862
 21
252.7628167001
 31
0.0
  0
LINE
  5
224
330
1F
100
AcDbEntity
  8
0
  6
Continuous
 62
     7
370
    15
100
AcDbLine
 10
32.8884711862
 20
104.0128216547
 30
0.0
 11
34.6384712402
 21
105.7628214759
 31
0.0
  0
LINE
  5
225
330
1F
100
AcDbEntity
  8
0
  6
Continuous
 62
     7
370
    15
100
AcDbLine
 10
32.8884711862
 20
100.7628215877
 30
0.0
 11
32.8884711862
 21
104.0128216547
 31
0.0
  0
LINE
  5
226
330
1F
100
AcDbEntity
  8
0
  6
Continuous
 62
     7
370
    15
100
AcDbLine
 10
34.8884712811
 20
105.7628214759
 30
0.0
 11
34.6384712402
 21
105.7628214759
 31
0.0
  0
LINE
  5
227
330
1F
100
AcDbEntity
  8
0
  6
Continuous
 62
     7
370
    15
100
AcDbLine
 10
34.8884712811
 20
100.7628215877
 30
0.0
 11
34.8884712811
 21
105.7628214759
 31
0.0
  0
LINE
  5
228
330
1F
100
AcDbEntity
  8
0
  6
Continuous
 62
     7
370
    15
100
AcDbLine
 10
32.8884711862
 20
100.7628215877
 30
0.0
 11
34.8884712811
 21
100.7628215877
 31
0.0
  0
LINE
  5
229
330
1F
100
AcDbEntity
  8
0
  6
Continuous
 62
     7
370
    15
100
AcDbLine
 10
34.6384712402
 20
120.5128224966
 30
0.0
 11
32.8884711862
 21
122.2628223178
 31
0.0
  0
LINE
  5
22A
330
1F
100
AcDbEntity
  8
0
  6
Continuous
 62
     7
370
    15
100
AcDbLine
 10
32.8884711862
 20
122.2628223178
 30
0.0
 11
32.8884711862
 21
131.762821081
 31
0.0
  0
LINE
  5
22B
330
1F
100
AcDbEntity
  8
0
  6
Continuous
 62
     7
370
    15
100
AcDbLine
 10
32.8884711862
 20
131.762821081
 30
0.0
 11
34.6384712402
 21
133.5128209022
 31
0.0
  0
LINE
  5
22C
330
1F
100
AcDbEntity
  8
0
  6
Continuous
 62
     7
370
    15
100
AcDbLine
 10
34.8884712811
 20
120.5128224966
 30
0.0
 11
34.8884712811
 21
133.5128209022
 31
0.0
  0
LINE
  5
22D
330
1F
100
AcDbEntity
  8
0
  6
Continuous
 62
     7
370
    15
100
AcDbLine
 10
32.8884711862
 20
231.2628252832
 30
0.0
 11
32.8884711862
 21
239.2628265945
 31
0.0
  0
LINE
  5
22E
330
1F
100
AcDbEntity
  8
0
  6
Continuous
 62
     7
370
    15
100
AcDbLine
 10
32.8884711862
 20
114.2628219378
 30
0.0
 11
32.8884711862
 21
122.2628223178
 31
0.0
  0
LINE
  5
22F
330
1F
100
AcDbEntity
  8
0
  6
Continuous
 62
     7
370
    15
100
AcDbLine
 10
32.8884711862
 20
213.7628196207
 30
0.0
 11
32.8884711862
 21
221.762820932
 31
0.0
  0
LINE
  5
230
330
1F
100
AcDbEntity
  8
0
  6
Continuous
 62
     7
370
    15
100
AcDbLine
 10
32.8884711862
 20
131.762821081
 30
0.0
 11
32.8884711862
 21
139.7628223923
 31
0.0
  0
LINE
  5
231
330
1F
100
AcDbEntity
  8
0
  6
Continuous
 62
     7
370
    15
100
AcDbLine
 10
34.6384712402
 20
247.5128246871
 30
0.0
 11
34.6384712402
 21
243.0128230182
 31
0.0
  0
LINE
  5
232
330
1F
100
AcDbEntity
  8
0
  6
Continuous
 62
     7
370
    15
100
AcDbLine
 10
32.8884711862
 20
241.2628157464
 30
0.0
 11
32.8884711862
 21
249.2628170577
 31
0.0
  0
LINE
  5
233
330
1F
100
AcDbEntity
  8
0
  6
Continuous
 62
     7
370
    15
100
AcDbLine
 10
34.8884712811
 20
247.5128246871
 30
0.0
 11
34.8884712811
 21
243.0128230182
 31
0.0
  0
LINE
  5
234
330
1F
100
AcDbEntity
  8
0
  6
Continuous
 62
     7
370
    15
100
AcDbLine
 10
34.6384712402
 20
110.7628213641
 30
0.0
 11
34.6384712402
 21
105.7628214759
 31
0.0
  0
LINE
  5
235
330
1F
100
AcDbEntity
  8
0
  6
Continuous
 62
     7
370
    15
100
AcDbLine
 10
34.8884712811
 20
110.7628213641
 30
0.0
 11
34.8884712811
 21
105.7628214759
 31
0.0
  0
LINE
  5
236
330
1F
100
AcDbEntity
  8
0
  6
Continuous
 62
     7
370
    15
100
AcDbLine
 10
32.8884711862
 20
104.0128216547
 30
0.0
 11
32.8884711862
 21
112.5128211853
 31
0.0
  0
LINE
  5
237
330
1F
100
AcDbEntity
  8
0
  6
Continuous
 62
     7
370
    15
100
AcDbLine
 10
32.8884711862
 20
149.2628230182
 30
0.0
 11
34.8884712811
 21
149.2628230182
 31
0.0
  0
LINE
  5
238
330
1F
100
AcDbEntity
  8
0
  6
Continuous
 62
     7
370
    15
100
AcDbLine
 10
32.8884711862
 20
148.2628209916
 30
0.0
 11
32.8884711862
 21
149.2628230182
 31
0.0
  0
LINE
  5
239
330
1F
100
AcDbEntity
  8
0
  6
Continuous
 62
     7
370
    15
100
AcDbLine
 10
34.8884712811
 20
149.2628230182
 30
0.0
 11
34.8884712811
 21
148.2628209916
 31
0.0
  0
LINE
  5
23A
330
1F
100
AcDbEntity
  8
0
  6
Continuous
 62
     7
370
    15
100
AcDbLine
 10
34.8884712811
 20
185.2628214685
 30
0.0
 11
32.8884711862
 21
185.2628214685
 31
0.0
  0
LINE
  5
23B
330
1F
100
AcDbEntity
  8
0
  6
Continuous
 62
     7
370
    15
100
AcDbLine
 10
32.8884711862
 20
185.2628214685
 30
0.0
 11
32.8884711862
 21
186.262823495
 31
0.0
  0
LINE
  5
23C
330
1F
100
AcDbEntity
  8
0
  6
Continuous
 62
     7
370
    15
100
AcDbLine
 10
34.8884712811
 20
186.262823495
 30
0.0
 11
34.8884712811
 21
185.2628214685
 31
0.0
  0
LINE
  5
23D
330
1F
100
AcDbEntity
  8
0
  6
Continuous
 62
     7
370
    15
100
AcDbLine
 10
32.8884711862
 20
185.2628214685
 30
0.0
 11
32.8884711862
 21
149.2628230182
 31
0.0
  0
LINE
  5
23E
330
1F
100
AcDbEntity
  8
0
  6
Continuous
 62
     7
370
    15
100
AcDbLine
 10
34.8884712811
 20
185.2628214685
 30
0.0
 11
34.8884712811
 21
149.2628230182
 31
0.0
  0
HATCH
  5
23F
330
1F
100
AcDbEntity
  8
0
  6
Continuous
 62
     7
370
     0
100
AcDbHatch
 10
0.0
 20
0.0
 30
0.0
210
0.0
220
0.0
230
1.0
  2
ANSI31
 70
     0
 71
     0
 91
        1
 92
        0
 93
        6
 72
     1
 10
32.88847123365177
 20
112.5128215876625
 11
34.63847123365175
 21
110.7628215876625
 72
     1
 10
34.63847123365175
 20
110.7628215876625
 11
34.88847123365178
 21
110.7628215876625
 72
     1
 10
34.88847123365178
 20
110.7628215876625
 11
34.88847123365178
 21
116.0128215876625
 72
     1
 10
34.88847123365178
 20
116.0128215876625
 11
34.63847123365178
 21
116.0128215876625
 72
     1
 10
34.63847123365178
 20
116.0128215876625
 11
32.88847123365177
 21
114.2628215876625
 72
     1
 10
32.88847123365177
 20
114.2628215876625
 11
32.88847123365177
 21
112.5128215876625
 97
        0
 75
     0
 76
     1
 52
0.0
 41
1.0
 77
     0
 78
     1
 53
45.0
 43
0.0
 44
0.0
 45
-2.245064030267288
 46
2.245064030267288
 79
     0
 98
        1
 10
0.0
 20
0.0
  0
HATCH
  5
240
330
1F
100
AcDbEntity
  8
0
  6
Continuous
 62
     7
370
     0
100
AcDbHatch
 10
0.0
 20
0.0
 30
0.0
210
0.0
220
0.0
230
1.0
  2
ANSI31
 70
     0
 71
     0
 91
        1
 92
        0
 93
        6
 72
     1
 10
34.88847123365178
 20
120.5128215876625
 11
34.88847123365178
 21
133.5128215876625
 72
     1
 10
34.88847123365178
 20
133.5128215876625
 11
34.63847123365177
 21
133.5128215876625
 72
     1
 10
34.63847123365177
 20
133.5128215876625
 11
32.88847123365177
 21
131.7628215876625
 72
     1
 10
32.88847123365177
 20
131.7628215876625
 11
32.88847123365177
 21
122.2628215876626
 72
     1
 10
32.88847123365177
 20
122.2628215876626
 11
34.63847123365178
 21
120.5128215876625
 72
     1
 10
34.63847123365178
 20
120.5128215876625
 11
34.88847123365178
 21
120.5128215876625
 97
        0
 75
     0
 76
     1
 52
0.0
 41
1.0
 77
     0
 78
     1
 53
45.0
 43
0.0
 44
0.0
 45
-2.245064030267288
 46
2.245064030267288
 79
     0
 98
        1
 10
0.0
 20
0.0
  0
HATCH
  5
241
330
1F
100
AcDbEntity
  8
0
  6
Continuous
 62
     7
370
     0
100
AcDbHatch
 10
0.0
 20
0.0
 30
0.0
210
0.0
220
0.0
230
1.0
  2
ANSI31
 70
     0
 71
     0
 91
        1
 92
        0
 93
        6
 72
     1
 10
32.88847123365177
 20
221.7628215876626
 11
34.63847123365177
 21
220.0128215876626
 72
     1
 10
34.63847123365177
 20
220.0128215876626
 11
34.88847123365178
 21
220.0128215876626
 72
     1
 10
34.88847123365178
 20
220.0128215876626
 11
34.88847123365178
 21
233.0128215876626
 72
     1
 10
34.88847123365178
 20
233.0128215876626
 11
34.63847123365177
 21
233.0128215876626
 72
     1
 10
34.63847123365177
 20
233.0128215876626
 11
32.88847123365179
 21
231.2628215876625
 72
     1
 10
32.88847123365179
 20
231.2628215876625
 11
32.88847123365177
 21
221.7628215876626
 97
        0
 75
     0
 76
     1
 52
0.0
 41
1.0
 77
     0
 78
     1
 53
45.0
 43
0.0
 44
0.0
 45
-2.245064030267288
 46
2.245064030267288
 79
     0
 98
        1
 10
0.0
 20
0.0
  0
HATCH
  5
242
330
1F
100
AcDbEntity
  8
0
  6
Continuous
 62
     7
370
     0
100
AcDbHatch
 10
0.0
 20
0.0
 30
0.0
210
0.0
220
0.0
230
1.0
  2
ANSI31
 70
     0
 71
     0
 91
        1
 92
        0
 93
        6
 72
     1
 10
34.88847123365178
 20
237.5128215876626
 11
34.88847123365178
 21
243.0128215876626
 72
     1
 10
34.88847123365178
 20
243.0128215876626
 11
34.63847123365175
 21
243.0128215876626
 72
     1
 10
34.63847123365175
 20
243.0128215876626
 11
32.88847123365177
 21
241.2628215876626
 72
     1
 10
32.88847123365177
 20
241.2628215876626
 11
32.88847123365177
 21
239.2628215876626
 72
     1
 10
32.88847123365177
 20
239.2628215876626
 11
34.63847123365177
 21
237.5128215876626
 72
     1
 10
34.63847123365177
 20
237.5128215876626
 11
34.88847123365178
 21
237.5128215876626
 97
        0
 75
     0
 76
     1
 52
0.0
 41
1.0
 77
     0
 78
     1
 53
45.0
 43
0.0
 44
0.0
 45
-2.245064030267288
 46
2.245064030267288
 79
     0
 98
        1
 10
0.0
 20
0.0
  0
HATCH
  5
243
330
1F
100
AcDbEntity
  8
0
  6
Continuous
 62
     7
370
     0
100
AcDbHatch
 10
0.0
 20
0.0
 30
0.0
210
0.0
220
0.0
230
1.0
  2
ANSI31
 70
     0
 71
     0
 91
        1
 92
        0
 93
        5
 72
     1
 10
32.88847123365177
 20
213.7628215876625
 11
32.88847123365177
 21
186.2628215876626
 72
     1
 10
32.88847123365177
 20
186.2628215876626
 11
34.88847123365178
 21
186.2628215876626
 72
     1
 10
34.88847123365178
 20
186.2628215876626
 11
34.88847123365178
 21
215.5128215876626
 72
     1
 10
34.88847123365178
 20
215.5128215876626
 11
34.63847123365177
 21
215.5128215876626
 72
     1
 10
34.63847123365177
 20
215.5128215876626
 11
32.88847123365177
 21
213.7628215876625
 97
        0
 75
     0
 76
     1
 52
0.0
 41
1.0
 77
     0
 78
     1
 53
45.0
 43
0.0
 44
0.0
 45
-2.245064030267288
 46
2.245064030267288
 79
     0
 98
        1
 10
0.0
 20
0.0
  0
HATCH
  5
244
330
1F
100
AcDbEntity
  8
0
  6
Continuous
 62
     7
370
     0
100
AcDbHatch
 10
0.0
 20
0.0
 30
0.0
210
0.0
220
0.0
230
1.0
  2
ANSI31
 70
     0
 71
     0
 91
        1
 92
        0
 93
        5
 72
     1
 10
34.88847123365178
 20
138.0128215876625
 11
34.88847123365178
 21
148.2628215876626
 72
     1
 10
34.88847123365178
 20
148.2628215876626
 11
32.88847123365177
 21
148.2628215876626
 72
     1
 10
32.88847123365177
 20
148.2628215876626
 11
32.88847123365177
 21
139.7628215876626
 72
     1
 10
32.88847123365177
 20
139.7628215876626
 11
34.63847123365177
 21
138.0128215876625
 72
     1
 10
34.63847123365177
 20
138.0128215876625
 11
34.88847123365178
 21
138.0128215876625
 97
        0
 75
     0
 76
     1
 52
0.0
 41
1.0
 77
     0
 78
     1
 53
45.0
 43
0.0
 44
0.0
 45
-2.245064030267288
 46
2.245064030267288
 79
     0
 98
        1
 10
0.0
 20
0.0
  0
HATCH
  5
245
330
1F
100
AcDbEntity
  8
0
  6
Continuous
 62
     7
370
     0
100
AcDbHatch
 10
0.0
 20
0.0
 30
0.0
210
0.0
220
0.0
230
1.0
  2
ANSI31
 70
     0
 71
     0
 91
        1
 92
        0
 93
        5
 72
     1
 10
34.88847123365178
 20
247.5128215876626
 11
34.88847123365178
 21
252.7628215876626
 72
     1
 10
34.88847123365178
 20
252.7628215876626
 11
32.88847123365177
 21
252.7628215876626
 72
     1
 10
32.88847123365177
 20
252.7628215876626
 11
32.88847123365177
 21
249.2628215876626
 72
     1
 10
32.88847123365177
 20
249.2628215876626
 11
34.63847123365175
 21
247.5128215876626
 72
     1
 10
34.63847123365175
 20
247.5128215876626
 11
34.88847123365178
 21
247.5128215876626
 97
        0
 75
     0
 76
     1
 52
0.0
 41
1.0
 77
     0
 78
     1
 53
45.0
 43
0.0
 44
0.0
 45
-2.245064030267288
 46
2.245064030267288
 79
     0
 98
        1
 10
0.0
 20
0.0
  0
HATCH
  5
246
330
1F
100
AcDbEntity
  8
0
  6
Continuous
 62
     7
370
     0
100
AcDbHatch
 10
0.0
 20
0.0
 30
0.0
210
0.0
220
0.0
230
1.0
  2
ANSI31
 70
     0
 71
     0
 91
        1
 92
        0
 93
        5
 72
     1
 10
32.88847123365177
 20
104.0128215876626
 11
32.88847123365177
 21
100.7628215876625
 72
     1
 10
32.88847123365177
 20
100.7628215876625
 11
34.88847123365178
 21
100.7628215876625
 72
     1
 10
34.88847123365178
 20
100.7628215876625
 11
34.88847123365178
 21
105.7628215876626
 72
     1
 10
34.88847123365178
 20
105.7628215876626
 11
34.63847123365175
 21
105.7628215876626
 72
     1
 10
34.63847123365175
 20
105.7628215876626
 11
32.88847123365177
 21
104.0128215876626
 97
        0
 75
     0
 76
     1
 52
0.0
 41
1.0
 77
     0
 78
     1
 53
45.0
 43
0.0
 44
0.0
 45
-2.245064030267288
 46
2.245064030267288
 79
     0
 98
        1
 10
0.0
 20
0.0
  0
DIMENSION
  5
247
330
1F
100
AcDbEntity
  8
1
100
AcDbDimension
  2
*D31
 10
42.9479075074
 20
233.0128215877
 30
0.0
 11
42.9479075074
 21
226.2671428863
 31
0.0
 70
   160
 71
     2
 42
-1.0
  3
SLDDIMSTYLE4
100
AcDbAlignedDimension
 13
34.8884712337
 23
237.5128215877
 33
0.0
 14
34.8884712337
 24
233.0128215877
 34
0.0
 50
90.0
100
AcDbRotatedDimension
  0
DIMENSION
  5
253
330
1F
100
AcDbEntity
  8
1
100
AcDbDimension
  2
*D32
 10
34.6384712337
 20
247.5128215877
 30
0.0
 11
26.4512207954
 21
250.9040917577
 31
0.0
 70
   162
 71
     1
 42
-1.0
  3
SLDDIMSTYLE5
100
AcDb2LineAngularDimension
 13
34.6384712337
 23
247.5128215877
 33
0.0
 14
32.8884712337
 24
249.2628215877
 34
0.0
 15
34.8884712337
 25
247.5128215877
 35
0.0
 16
27.2701405063
 26
252.4361827768
 36
0.0
  0
DIMENSION
  5
260
330
1F
100
AcDbEntity
  8
1
100
AcDbDimension
  2
*D33
 10
34.8884712337
 20
233.0128215877
 30
0.0
 11
23.9264953711
 21
228.5757759056
 31
0.0
 70
   162
 71
     1
 42
-1.0
  3
SLDDIMSTYLE5
100
AcDb2LineAngularDimension
 13
32.8884712337
 23
231.2628215877
 33
0.0
 14
34.6384712337
 24
233.0128215877
 34
0.0
 15
34.6384712337
 25
233.0128215877
 35
0.0
 16
23.2666983127
 26
230.7508353146
 36
0.0
  0
DIMENSION
  5
26C
330
1F
100
AcDbEntity
  8
1
100
AcDbDimension
  2
*D34
 10
42.9479075074
 20
247.5128215877
 30
0.0
 11
42.9479075074
 21
252.2272448027
 31
0.0
 70
   160
 71
     2
 42
-1.0
  3
SLDDIMSTYLE4
100
AcDbAlignedDimension
 13
34.8884712337
 23
243.0128215877
 33
0.0
 14
34.6384712337
 24
247.5128215877
 34
0.0
 50
90.0
100
AcDbRotatedDimension
  0
MTEXT
  5
278
330
1F
100
AcDbEntity
  8
1
100
AcDbMText
 10
11.9440284697
 20
83.0498270587
 30
0.0
 40
5.0
 41
0.0
 71
     1
 72
     1
  1
SECTION B-B
  7
SLDTEXTSTYLE0
 73
     1
 44
1.0
  0
OLE2FRAME
  5
279
330
1F
100
AcDbEntity
  8
0
100
AcDbOle2Frame
 70
     2
  3
Kuva (metatiedosto)
 10
9.9375818569
 20
21.7458086712
 30
0.0
 11
51.1260958156
 21
14.7094375366
 31
0.0
 71
     3
 72
     0
 73
     1
 90
     6272
310
80551416A9BA0AE02340B8CC2B51EDBE35400000000000000000DC1A5EE82390
310
4940B8CC2B51EDBE35400000000000000000DC1A5EE8239049400D2E94653B6B
310
2D4000000000000000001416A9BA0AE023400D2E94653B6B2D40000000000000
310
0000000000000100000000010000010000000100000000000100000000180000
310
D0CF11E0A1B11AE1000000000000000000000000000000003E000300FEFF0900
310
0600000000000000000000000100000001000000000000000010000002000000
310
01000000FEFFFFFF0000000000000000FFFFFFFFFFFFFFFFFFFFFFFFFFFFFFFF
310
FFFFFFFFFFFFFFFFFFFFFFFFFFFFFFFFFFFFFFFFFFFFFFFFFFFFFFFFFFFFFFFF
310
FFFFFFFFFFFFFFFFFFFFFFFFFFFFFFFFFFFFFFFFFFFFFFFFFFFFFFFFFFFFFFFF
310
FFFFFFFFFFFFFFFFFFFFFFFFFFFFFFFFFFFFFFFFFFFFFFFFFFFFFFFFFFFFFFFF
310
FFFFFFFFFFFFFFFFFFFFFFFFFFFFFFFFFFFFFFFFFFFFFFFFFFFFFFFFFFFFFFFF
310
FFFFFFFFFFFFFFFFFFFFFFFFFFFFFFFFFFFFFFFFFFFFFFFFFFFFFFFFFFFFFFFF
310
FFFFFFFFFFFFFFFFFFFFFFFFFFFFFFFFFFFFFFFFFFFFFFFFFFFFFFFFFFFFFFFF
310
FFFFFFFFFFFFFFFFFFFFFFFFFFFFFFFFFFFFFFFFFFFFFFFFFFFFFFFFFFFFFFFF
310
FFFFFFFFFFFFFFFFFFFFFFFFFFFFFFFFFFFFFFFFFFFFFFFFFFFFFFFFFFFFFFFF
310
FFFFFFFFFFFFFFFFFFFFFFFFFFFFFFFFFFFFFFFFFFFFFFFFFFFFFFFFFFFFFFFF
310
FFFFFFFFFFFFFFFFFFFFFFFFFFFFFFFFFFFFFFFFFFFFFFFFFFFFFFFFFFFFFFFF
310
FFFFFFFFFFFFFFFFFFFFFFFFFFFFFFFFFFFFFFFFFFFFFFFFFFFFFFFFFFFFFFFF
310
FFFFFFFFFFFFFFFFFFFFFFFFFFFFFFFFFFFFFFFFFFFFFFFFFFFFFFFFFFFFFFFF
310
FFFFFFFFFFFFFFFFFFFFFFFFFFFFFFFFFFFFFFFFFFFFFFFFFFFFFFFFFFFFFFFF
310
FDFFFFFFFEFFFFFFFEFFFFFF0400000005000000060000000700000008000000
310
090000000A000000FEFFFFFFFFFFFFFFFFFFFFFFFFFFFFFFFFFFFFFFFFFFFFFF
310
FFFFFFFFFFFFFFFFFFFFFFFFFFFFFFFFFFFFFFFFFFFFFFFFFFFFFFFFFFFFFFFF
310
FFFFFFFFFFFFFFFFFFFFFFFFFFFFFFFFFFFFFFFFFFFFFFFFFFFFFFFFFFFFFFFF
310
FFFFFFFFFFFFFFFFFFFFFFFFFFFFFFFFFFFFFFFFFFFFFFFFFFFFFFFFFFFFFFFF
310
FFFFFFFFFFFFFFFFFFFFFFFFFFFFFFFFFFFFFFFFFFFFFFFFFFFFFFFFFFFFFFFF
310
FFFFFFFFFFFFFFFFFFFFFFFFFFFFFFFFFFFFFFFFFFFFFFFFFFFFFFFFFFFFFFFF
310
FFFFFFFFFFFFFFFFFFFFFFFFFFFFFFFFFFFFFFFFFFFFFFFFFFFFFFFFFFFFFFFF
310
FFFFFFFFFFFFFFFFFFFFFFFFFFFFFFFFFFFFFFFFFFFFFFFFFFFFFFFFFFFFFFFF
310
FFFFFFFFFFFFFFFFFFFFFFFFFFFFFFFFFFFFFFFFFFFFFFFFFFFFFFFFFFFFFFFF
310
FFFFFFFFFFFFFFFFFFFFFFFFFFFFFFFFFFFFFFFFFFFFFFFFFFFFFFFFFFFFFFFF
310
FFFFFFFFFFFFFFFFFFFFFFFFFFFFFFFFFFFFFFFFFFFFFFFFFFFFFFFFFFFFFFFF
310
FFFFFFFFFFFFFFFFFFFFFFFFFFFFFFFFFFFFFFFFFFFFFFFFFFFFFFFFFFFFFFFF
310
FFFFFFFFFFFFFFFFFFFFFFFFFFFFFFFFFFFFFFFFFFFFFFFFFFFFFFFFFFFFFFFF
310
FFFFFFFFFFFFFFFFFFFFFFFFFFFFFFFFFFFFFFFFFFFFFFFFFFFFFFFFFFFFFFFF
310
FFFFFFFFFFFFFFFFFFFFFFFFFFFFFFFFFFFFFFFFFFFFFFFFFFFFFFFFFFFFFFFF
310
52006F006F007400200045006E00740072007900000000000000000000000000
310
0000000000000000000000000000000000000000000000000000000000000000
310
16000500FFFFFFFFFFFFFFFF020000001503000000000000C000000000000046
310
000000000000000000000000206279DE15DCC80103000000000F000000000000
310
01004F006C006500000000000000000000000000000000000000000000000000
310
0000000000000000000000000000000000000000000000000000000000000000
310
0A000200FFFFFFFFFFFFFFFFFFFFFFFF00000000000000000000000000000000
310
0000000000000000000000000000000000000000000000001400000000000000
310
010043006F006D0070004F0062006A0000000000000000000000000000000000
310
0000000000000000000000000000000000000000000000000000000000000000
310
120002010100000003000000FFFFFFFF00000000000000000000000000000000
310
0000000000000000000000000000000000000000010000005E00000000000000
310
43004F004E00540045004E005400530000000000000000000000000000000000
310
0000000000000000000000000000000000000000000000000000000000000000
310
12000200FFFFFFFFFFFFFFFFFFFFFFFF00000000000000000000000000000000
310
000000000000000000000000000000000000000003000000040E000000000000
310
FEFFFFFF02000000FEFFFFFF0400000005000000060000000700000008000000
310
090000000A0000000B0000000C0000000D0000000E0000000F00000010000000
310
1100000012000000130000001400000015000000160000001700000018000000
310
190000001A0000001B0000001C0000001D0000001E0000001F00000020000000
310
2100000022000000230000002400000025000000260000002700000028000000
310
290000002A0000002B0000002C0000002D0000002E0000002F00000030000000
310
3100000032000000330000003400000035000000360000003700000038000000
310
390000003A0000003B000000FEFFFFFFFFFFFFFFFFFFFFFFFFFFFFFFFFFFFFFF
310
FFFFFFFFFFFFFFFFFFFFFFFFFFFFFFFFFFFFFFFFFFFFFFFFFFFFFFFFFFFFFFFF
310
FFFFFFFFFFFFFFFFFFFFFFFFFFFFFFFFFFFFFFFFFFFFFFFFFFFFFFFFFFFFFFFF
310
FFFFFFFFFFFFFFFFFFFFFFFFFFFFFFFFFFFFFFFFFFFFFFFFFFFFFFFFFFFFFFFF
310
FFFFFFFFFFFFFFFFFFFFFFFFFFFFFFFFFFFFFFFFFFFFFFFFFFFFFFFFFFFFFFFF
310
FFFFFFFFFFFFFFFFFFFFFFFFFFFFFFFFFFFFFFFFFFFFFFFFFFFFFFFFFFFFFFFF
310
FFFFFFFFFFFFFFFFFFFFFFFFFFFFFFFFFFFFFFFFFFFFFFFFFFFFFFFFFFFFFFFF
310
FFFFFFFFFFFFFFFFFFFFFFFFFFFFFFFFFFFFFFFFFFFFFFFFFFFFFFFFFFFFFFFF
310
FFFFFFFFFFFFFFFFFFFFFFFFFFFFFFFFFFFFFFFFFFFFFFFFFFFFFFFFFFFFFFFF
310
0100000200000000000000000000000000000000000000000000000000000000
310
0000000000000000000000000000000000000000000000000000000000000000
310
0100FEFF030A0000FFFFFFFF1503000000000000C00000000000004613000000
310
5069637475726520284D65746166696C652900FFFFFFFF030000000F00000053
310
74617469634D65746166696C6500F439B2710000000000000000000000000000
310
0000000000000000000000000000000000000000000000000000000000000000
310
D7CDC69A0000000000009C0394004002000000005956010009000003EE060000
310
05001602000000000400000003010800050000000B0200000000050000000C02
310
A000A80308000000FA0200000100000000000000040000002D01000007000000
310
FC020000000000000000040000002D0101000500000009020000000005000000
310
0102FFFFFF00050000000201020000000500000004010D00000008000000FA02
310
00000100000000000000040000002D01020007000000FC020000000000000000
310
040000002D01030004000000F001000004000000F00101000500000009020000
310
0000050000000102FFFFFF000500000002010200000008000000FA0205000100
310
000000000000040000002D010000050000000601010000000102000038050900
310
090004003100140014000700430040000A000A019C0029019C003B0174007201
310
740082019C00A2019C00610101004A0101000A019C0045015800560129006601
310
580045015800AB019C00D2019C00DD019C00E8019A00EE019900F3019700F801
310
9500FD01920001028F0005028B00080286000B0282000D027D000E0278000F02
310
730010026D000F0267000E0261000C025B000902560007025300050251000102
310
4D00FB014A00F5014800F9014500FD01420000023F0002023B00040237000502
310
330006022F0006022A000602250005021F0003021A0000021600FD011100F901
310
0D00F5010A00F0010700EB010500E6010400E1010300DC010200D2010100C701
310
0100AB010100AB019C00C8018000C8015900D4015900DF015900E4015A00E901
310
5C00ED015F00F0016300F2016700F3016900F3016C00F3017100F1017500EF01
310
7800EB017B00E6017E00E0018000DA018000D4018000C8018000C8013D00C801
310
1D00CD011D00D7011D00DB011D00E0011F00E2012000E4012100E7012400E901
310
2800EA012C00E9013100E7013500E4013800E1013B00DF013B00DC013C00D701
310
3D00CD013D00C8013D001E029C006A029C006A0280003B0280003B0201001E02
310
01001E029C00B202FEFFAA02FFFFA20200009A020200920205008B0208008502
310
0C007E0211007902160073021C006F0222006B02290067023000650237006302
310
3F00610247006102500061025800630260006502680067026F006B0276006F02
310
7D0074028300790289007F028E0082029000850292008C02960093029A009A02
310
9D00A2029F00AA02A000B202A000BA02A000C2029F00CA029D00D1029A00D802
310
9600DF029200E5028E00E8028B00EB028900F0028300F5027D00F9027600FC02
310
6F00FF0268000103600002035800030350000203470001033F00FF023700FC02
310
3000F9022900F5022200F0021C00EB021600E5021100DF020C00D8020800D102
310
0500CA020200C2020000BA02FFFFB202FEFFB2021A00B7021B00BC021B00C102
310
1D00C6021E00CB022100CF022300D3022600D7022A00DA022D00DD023200E002
310
3600E2023A00E3023F00E5024400E6024A00E6024F00E6025400E5025A00E302
310
5F00E2026300DF026800DD026C00DA027100D6027400D3027800CF027B00CA02
310
7E00C6028000C1028200BC028300B7028400B2028400AD028400A7028300A202
310
82009E02800099027E0095027B008D0274008A02710087026C00840268008202
310
630080025F007F025A007E0254007E024F007E024A007F02440080023F008202
310
3A0084023600870232008A022D008D022A009102260095022300990221009D02
310
1E00A2021D00A7021B00AC021B00B2021A0029039C0046039C00460363007903
310
0100590301003803490016030100F60201002903630029039C00040000002D01
310
02000500000006010100000008000000FA0200000100000000336F0004000000
310
2D01010007000000FC02000000336F000000040000002D01040004000000F001
310
020004000000F001030005000000090200336F00050000000102FFFFFF000500
310
0000020102000000040000002D01000005000000060101000000400000002403
310
1E005E000100DF000100E3000200E7000300EB000500EE000800F0000B00F200
310
0E00F4001200F4001700F4008700F4008B00F2008F00F0009300EE009600EB00
310
9900E7009B00E3009C00DF009C0016009C0012009C000E009B000A0099000700
310
96000500930003008F0001008B000100870001005F005E000100040000002D01
310
0100050000000601010000000500000006010200000008000000FA0206000200
310
000000336F00040000002D01020004000000F00101004000000025031E005E00
310
0100DF000100E3000200E7000300EB000500EE000800F0000B00F2000E00F400
310
1200F4001700F4008700F4008B00F2008F00F0009300EE009600EB009900E700
310
9B00E3009C00DF009C0016009C0012009C000E009B000A009900070096000500
310
930003008F0001008B000100870001005F005E00010008000000FA0200000100
310
0000FFFFFF00040000002D01010007000000FC020000FFFFFF00000004000000
310
2D01030004000000F001020004000000F0010400050000000902FFFFFF000500
310
00000102FFFFFF0005000000020102000000040000002D010000050000000601
310
0100000016020000380506004B004000490017000D000E00C0002F00C2003100
310
C4003400C7003A00C8003D00C9004000C9004300C9004600C7004700C4004900
310
C3004B00C2004E00C2005000C2005200C3005400C4005500C7005800CA005A00
310
C9006000C7006600C4006B00C0007000BB007400B6007800B1007B00AC007E00
310
A40080009D00810095008000920080008E007F008A007E0087007D0080007A00
310
7A00760078007300750071009200600096006100990061009E006000A2005F00
310
A6005D00A8005B00A9005900AA005700AB005400AC004F00AC004C00AB004A00
310
AA004700A9004500A8004400A6004300A30040009E003E0098003E0093003D00
310
8E003C008A003A008100350075002F007A002A007F002500850022008B002000
310
92001E0099001D009C001D00A0001E00A7001F00AE002200B5002500BB002A00
310
C0002F00DA003800DD003F00DE004200DE004500DD004600DB004600D9004800
310
D7004B00D6004E00D6005000D6005200D9005500DB005800DE005A00DC006200
310
D9006900D7006C00D5006F00D0007400CA007800C3007C00C0007D00BC007E00
310
B4008000B2008000B7007D00BD007A00C2007600C8007100CA006F00CC006C00
310
CE006900D0006600D3006000D4005900D1005800CF005600CD005300CC005000
310
CC004E00CD004C00CD004B00CF004900D1004700D4004500D4004100D3003E00
310
D0003800CE003500CC003200C8002D00C3002800BD002400B7002100B2001F00
310
B8002000BE002100C4002300C7002500CA002600CF002A00D3002E00D7003300
310
DA003800F0003C00F1004000F2004100F2004300F1004500F0004600EF004700
310
ED004800EB004B00EA004E00EA005000EB005300EE005500EF005600F0005700
310
F1005900F1005C00F1005F00F0006200EE006700EA006C00E6007100E1007600
310
DE007800DB007900D6007C00CF007F00CC007F00C9008000C5008000C2007F00
310
C9007E00D0007B00D3007900D6007700D9007500DB007200DE007000E0006D00
310
E4006700E7006000E9005900E3005600E1005400E0005100E0004D00E2004A00
310
E4004800E6004600E8004400E9004300E9004200E9004100E9003F00E6003B00
310
E4003600E1003200DF002F00DD002D00D9002900D4002600CF002300CA002100
310
C5001F00CC001F00D3002100D6002200D9002400DF002700E4002B00E9003000
310
ED003600F0003C00920043009500430097004400980044009900450099004700
310
9900480098005B0090005C0049007F004700800045007F0041007D003E007900
310
3D0075002D005100360039003C002E00420021004400200046001F004C002000
310
920043005E003B005E0050005E00660055006A0050006C0049006E0045006600
310
41005F003E0058003B004F0049003000540036005E003B00A6004B00A6005000
310
A6005200A5005400A4005600A3005800A10059009F005A009C005A009C004400
310
9F004500A2004600A4004800A6004B00040000002D0101000500000006010100
310
000008000000FA0200000100000000336F00040000002D01020007000000FC02
310
000000336F000000040000002D01040004000000F001010004000000F0010300
310
05000000090200336F00050000000102FFFFFF00050000000201020000000400
310
00002D010000050000000601010000001C00000024030C0001003D0001001700
310
0100120003000E0005000B00070008000A0005000E0003001200020016000100
310
3E00010001003D00040000002D01020005000000060101000000050000000601
310
0200000008000000FA0206000200000000336F00040000002D01010004000000
310
F00102001C00000025030C0001003D00010017000100120003000E0005000B00
310
070008000A0005000E00030012000200160001003E00010001003D0008000000
310
FA0200000100000000000000040000002D01020007000000FC02000000000000
310
0000040000002D01030004000000F001010004000000F0010400050000000902
310
00000000050000000102FFFFFF000500000002010200000008000000FA020000
310
0100000000000000040000002D01010004000000F001020007000000FC020100
310
000000000000040000002D0102000700000018042700A10302007D0304000000
310
2D010300040000002D0100000500000006010100000042000000380502001200
310
0C00920316009403160096031500970313009703110097030F0097030E009503
310
0D0092030C008F030B0088030B0088031F008B031F008B0317008F0317009503
310
1F0099031F00920316008B0315008B030D008F030D0092030D0094030E009503
310
0F0095031100950313009403140092031500900315008B031500040000002D01
310
0100050000000601010000000300000000000000000000000000000000000000
310
0000000000000000000000000000000000000000000000000000000000000000
310
0000000000000000000000000000000000000000000000000000000000000000
310
0000000000000000000000000000000000000000000000000000000000000000
310
0000000000000000000000000000000000000000000000000000000000000000
310
00000000000000000000000000000000000000003487A3090C00000090044464
310
8B4CD1118B70080036B11A03030000001F00000000000F000000110000004B00
310
6500730074006F00000000000000000000000000000000000000000000000000
310
0000000000000000000000000000000000000000000000000000000000000000
310
0000000000000000000000000000000000000000000000000000000000000000
310
0000000000000000000000000000000000000000000000000000000000000000
  1
OLE
  0
ENDSEC
  0
SECTION
  2
OBJECTS
  0
DICTIONARY
  5
C
330
0
100
AcDbDictionary
281
     1
  3
ACAD_GROUP
350
D
  3
ACAD_LAYOUT
350
1A
  3
ACAD_MLEADERSTYLE
350
27D
  3
ACAD_MLINESTYLE
350
17
  3
ACAD_PLOTSETTINGS
350
19
  3
ACAD_PLOTSTYLENAME
350
E
  3
ACAD_SCALELIST
350
3B
  3
ACAD_TABLESTYLE
350
27C
  3
ACAD_VISUALSTYLE
350
2A
  3
AcDbVariableDictionary
350
27A
  0
DICTIONARY
  5
D
102
{ACAD_REACTORS
330
C
102
}
330
C
100
AcDbDictionary
281
     1
  0
DICTIONARY
  5
1A
102
{ACAD_REACTORS
330
C
102
}
330
C
100
AcDbDictionary
281
     1
  3
Layout1
350
1E
  3
Layout2
350
26
  3
Model
350
22
  0
DICTIONARY
  5
27D
102
{ACAD_REACTORS
330
C
102
}
330
C
100
AcDbDictionary
281
     1
  0
DICTIONARY
  5
17
102
{ACAD_REACTORS
330
C
102
}
330
C
100
AcDbDictionary
281
     1
  3
Standard
350
18
  0
DICTIONARY
  5
19
102
{ACAD_REACTORS
330
C
102
}
330
C
100
AcDbDictionary
281
     1
  0
ACDBDICTIONARYWDFLT
  5
E
102
{ACAD_REACTORS
330
C
102
}
330
C
100
AcDbDictionary
281
     1
  3
Normal
350
F
100
AcDbDictionaryWithDefault
340
F
  0
DICTIONARY
  5
3B
102
{ACAD_REACTORS
330
C
102
}
330
C
100
AcDbDictionary
281
     1
  3
A0
350
3C
  3
A1
350
3D
  3
A2
350
3E
  3
A3
350
3F
  3
A4
350
40
  3
A5
350
41
  3
A6
350
42
  3
A7
350
43
  3
A8
350
44
  3
A9
350
45
  3
B0
350
46
  3
B1
350
47
  3
B2
350
48
  3
B3
350
49
  3
B4
350
4A
  3
B5
350
4B
  3
B6
350
4C
  3
B7
350
4D
  3
B8
350
4E
  3
B9
350
4F
  3
C0
350
50
  3
C1
350
51
  3
C2
350
52
  3
C3
350
53
  3
C4
350
54
  3
C5
350
55
  3
C6
350
56
  3
C7
350
57
  3
C8
350
58
  3
C9
350
59
  3
D0
350
5A
  3
D1
350
5B
  3
D2
350
5C
  0
DICTIONARY
  5
27C
102
{ACAD_REACTORS
330
C
102
}
330
C
100
AcDbDictionary
281
     1
  0
DICTIONARY
  5
2A
102
{ACAD_REACTORS
330
C
102
}
330
C
100
AcDbDictionary
281
     1
  3
2dWireframe
350
2F
  3
3D Hidden
350
31
  3
3dWireframe
350
30
  3
Basic
350
32
  3
Brighten
350
36
  3
ColorChange
350
3A
  3
Conceptual
350
34
  3
Dim
350
35
  3
Facepattern
350
39
  3
Flat
350
2B
  3
FlatWithEdges
350
2C
  3
Gouraud
350
2D
  3
GouraudWithEdges
350
2E
  3
Linepattern
350
38
  3
Realistic
350
33
  3
Thicken
350
37
  0
DICTIONARY
  5
27A
102
{ACAD_REACTORS
330
C
102
}
330
C
100
AcDbDictionary
281
     1
  3
CANNOSCALE
350
27B
  3
PSOLHEIGHT
350
27F
  3
PSOLWIDTH
350
27E
  0
LAYOUT
  5
1E
102
{ACAD_REACTORS
330
1A
102
}
330
1A
100
AcDbPlotSettings
  1

  2
none_device
  4

  6

 40
0.0
 41
0.0
 42
0.0
 43
0.0
 44
0.0
 45
0.0
 46
0.0
 47
0.0
 48
0.0
 49
0.0
140
0.0
141
0.0
142
1.0
143
1.0
 70
   688
 72
     0
 73
     0
 74
     5
  7

 75
    16
147
1.0
148
0.0
149
0.0
100
AcDbLayout
  1
Layout1
 70
     1
 71
     1
 10
0.0
 20
0.0
 11
420.0
 21
297.0
 12
0.0
 22
0.0
 32
0.0
 14
1.0000000000E+20
 24
1.0000000000E+20
 34
1.0000000000E+20
 15
-1.0000000000E+20
 25
-1.0000000000E+20
 35
-1.0000000000E+20
146
0.0
 13
0.0
 23
0.0
 33
0.0
 16
1.0
 26
0.0
 36
0.0
 17
0.0
 27
1.0
 37
0.0
 76
     0
330
1B
  0
LAYOUT
  5
26
102
{ACAD_REACTORS
330
1A
102
}
330
1A
100
AcDbPlotSettings
  1

  2
none_device
  4

  6

 40
0.0
 41
0.0
 42
0.0
 43
0.0
 44
0.0
 45
0.0
 46
0.0
 47
0.0
 48
0.0
 49
0.0
140
0.0
141
0.0
142
1.0
143
1.0
 70
   688
 72
     0
 73
     0
 74
     5
  7

 75
    16
147
1.0
148
0.0
149
0.0
100
AcDbLayout
  1
Layout2
 70
     1
 71
     2
 10
0.0
 20
0.0
 11
0.0
 21
0.0
 12
0.0
 22
0.0
 32
0.0
 14
0.0
 24
0.0
 34
0.0
 15
0.0
 25
0.0
 35
0.0
146
0.0
 13
0.0
 23
0.0
 33
0.0
 16
1.0
 26
0.0
 36
0.0
 17
0.0
 27
1.0
 37
0.0
 76
     0
330
23
  0
LAYOUT
  5
22
102
{ACAD_REACTORS
330
1A
102
}
330
1A
100
AcDbPlotSettings
  1

  2
none_device
  4

  6

 40
0.0
 41
0.0
 42
0.0
 43
0.0
 44
0.0
 45
0.0
 46
0.0
 47
0.0
 48
0.0
 49
0.0
140
0.0
141
0.0
142
1.0
143
1.0
 70
  1712
 72
     0
 73
     0
 74
     0
  7

 75
     0
147
1.0
148
0.0
149
0.0
100
AcDbLayout
  1
Model
 70
     1
 71
     0
 10
0.0
 20
0.0
 11
210.0
 21
297.0
 12
0.0
 22
0.0
 32
0.0
 14
0.0
 24
0.0
 34
0.0
 15
210.0
 25
297.0
 35
0.0
146
0.0
 13
0.0
 23
0.0
 33
0.0
 16
1.0
 26
0.0
 36
0.0
 17
0.0
 27
1.0
 37
0.0
 76
     0
330
1F
331
29
  0
MLINESTYLE
  5
18
102
{ACAD_REACTORS
330
17
102
}
330
17
100
AcDbMlineStyle
  2
Standard
 70
     0
  3

 62
   256
 51
90.0
 52
90.0
 71
     2
 49
0.5
 62
   256
  6
BYLAYER
 49
-0.5
 62
   256
  6
BYLAYER
  0
ACDBPLACEHOLDER
  5
F
102
{ACAD_REACTORS
330
E
102
}
330
E
  0
SCALE
  5
3C
102
{ACAD_REACTORS
330
3B
102
}
330
3B
100
AcDbScale
 70
     0
300
1:1
140
1.0
141
1.0
290
     1
  0
SCALE
  5
3D
102
{ACAD_REACTORS
330
3B
102
}
330
3B
100
AcDbScale
 70
     0
300
1:2
140
1.0
141
2.0
290
     0
  0
SCALE
  5
3E
102
{ACAD_REACTORS
330
3B
102
}
330
3B
100
AcDbScale
 70
     0
300
1:4
140
1.0
141
4.0
290
     0
  0
SCALE
  5
3F
102
{ACAD_REACTORS
330
3B
102
}
330
3B
100
AcDbScale
 70
     0
300
1:5
140
1.0
141
5.0
290
     0
  0
SCALE
  5
40
102
{ACAD_REACTORS
330
3B
102
}
330
3B
100
AcDbScale
 70
     0
300
1:8
140
1.0
141
8.0
290
     0
  0
SCALE
  5
41
102
{ACAD_REACTORS
330
3B
102
}
330
3B
100
AcDbScale
 70
     0
300
1:10
140
1.0
141
10.0
290
     0
  0
SCALE
  5
42
102
{ACAD_REACTORS
330
3B
102
}
330
3B
100
AcDbScale
 70
     0
300
1:16
140
1.0
141
16.0
290
     0
  0
SCALE
  5
43
102
{ACAD_REACTORS
330
3B
102
}
330
3B
100
AcDbScale
 70
     0
300
1:20
140
1.0
141
20.0
290
     0
  0
SCALE
  5
44
102
{ACAD_REACTORS
330
3B
102
}
330
3B
100
AcDbScale
 70
     0
300
1:30
140
1.0
141
30.0
290
     0
  0
SCALE
  5
45
102
{ACAD_REACTORS
330
3B
102
}
330
3B
100
AcDbScale
 70
     0
300
1:40
140
1.0
141
40.0
290
     0
  0
SCALE
  5
46
102
{ACAD_REACTORS
330
3B
102
}
330
3B
100
AcDbScale
 70
     0
300
1:50
140
1.0
141
50.0
290
     0
  0
SCALE
  5
47
102
{ACAD_REACTORS
330
3B
102
}
330
3B
100
AcDbScale
 70
     0
300
1:100
140
1.0
141
100.0
290
     0
  0
SCALE
  5
48
102
{ACAD_REACTORS
330
3B
102
}
330
3B
100
AcDbScale
 70
     0
300
2:1
140
2.0
141
1.0
290
     0
  0
SCALE
  5
49
102
{ACAD_REACTORS
330
3B
102
}
330
3B
100
AcDbScale
 70
     0
300
4:1
140
4.0
141
1.0
290
     0
  0
SCALE
  5
4A
102
{ACAD_REACTORS
330
3B
102
}
330
3B
100
AcDbScale
 70
     0
300
8:1
140
8.0
141
1.0
290
     0
  0
SCALE
  5
4B
102
{ACAD_REACTORS
330
3B
102
}
330
3B
100
AcDbScale
 70
     0
300
10:1
140
10.0
141
1.0
290
     0
  0
SCALE
  5
4C
102
{ACAD_REACTORS
330
3B
102
}
330
3B
100
AcDbScale
 70
     0
300
100:1
140
100.0
141
1.0
290
     0
  0
SCALE
  5
4D
102
{ACAD_REACTORS
330
3B
102
}
330
3B
100
AcDbScale
 70
     0
300
1/128" = 1'-0"
140
0.0078125
141
12.0
290
     0
  0
SCALE
  5
4E
102
{ACAD_REACTORS
330
3B
102
}
330
3B
100
AcDbScale
 70
     0
300
1/64" = 1'-0"
140
0.015625
141
12.0
290
     0
  0
SCALE
  5
4F
102
{ACAD_REACTORS
330
3B
102
}
330
3B
100
AcDbScale
 70
     0
300
1/32" = 1'-0"
140
0.03125
141
12.0
290
     0
  0
SCALE
  5
50
102
{ACAD_REACTORS
330
3B
102
}
330
3B
100
AcDbScale
 70
     0
300
1/16" = 1'-0"
140
0.0625
141
12.0
290
     0
  0
SCALE
  5
51
102
{ACAD_REACTORS
330
3B
102
}
330
3B
100
AcDbScale
 70
     0
300
3/32" = 1'-0"
140
0.09375
141
12.0
290
     0
  0
SCALE
  5
52
102
{ACAD_REACTORS
330
3B
102
}
330
3B
100
AcDbScale
 70
     0
300
1/8" = 1'-0"
140
0.125
141
12.0
290
     0
  0
SCALE
  5
53
102
{ACAD_REACTORS
330
3B
102
}
330
3B
100
AcDbScale
 70
     0
300
3/16" = 1'-0"
140
0.1875
141
12.0
290
     0
  0
SCALE
  5
54
102
{ACAD_REACTORS
330
3B
102
}
330
3B
100
AcDbScale
 70
     0
300
1/4" = 1'-0"
140
0.25
141
12.0
290
     0
  0
SCALE
  5
55
102
{ACAD_REACTORS
330
3B
102
}
330
3B
100
AcDbScale
 70
     0
300
3/8" = 1'-0"
140
0.375
141
12.0
290
     0
  0
SCALE
  5
56
102
{ACAD_REACTORS
330
3B
102
}
330
3B
100
AcDbScale
 70
     0
300
1/2" = 1'-0"
140
0.5
141
12.0
290
     0
  0
SCALE
  5
57
102
{ACAD_REACTORS
330
3B
102
}
330
3B
100
AcDbScale
 70
     0
300
3/4" = 1'-0"
140
0.75
141
12.0
290
     0
  0
SCALE
  5
58
102
{ACAD_REACTORS
330
3B
102
}
330
3B
100
AcDbScale
 70
     0
300
1" = 1'-0"
140
1.0
141
12.0
290
     0
  0
SCALE
  5
59
102
{ACAD_REACTORS
330
3B
102
}
330
3B
100
AcDbScale
 70
     0
300
1-1/2" = 1'-0"
140
1.5
141
12.0
290
     0
  0
SCALE
  5
5A
102
{ACAD_REACTORS
330
3B
102
}
330
3B
100
AcDbScale
 70
     0
300
3" = 1'-0"
140
3.0
141
12.0
290
     0
  0
SCALE
  5
5B
102
{ACAD_REACTORS
330
3B
102
}
330
3B
100
AcDbScale
 70
     0
300
6" = 1'-0"
140
6.0
141
12.0
290
     0
  0
SCALE
  5
5C
102
{ACAD_REACTORS
330
3B
102
}
330
3B
100
AcDbScale
 70
     0
300
1'-0" = 1'-0"
140
12.0
141
12.0
290
     0
  0
VISUALSTYLE
  5
2F
102
{ACAD_REACTORS
330
2A
102
}
330
2A
100
AcDbVisualStyle
  2
2dWireframe
 70
     4
 71
     0
 72
     2
 73
     0
 90
        0
 40
-0.6
 41
-30.0
 62
     5
 63
     7
 74
     1
 91
        4
 64
     7
 65
   257
 75
     1
175
     1
 42
1.0
 92
        0
 66
   257
 43
1.0
 76
     1
 77
     6
 78
     2
 67
     7
 79
     5
170
     0
171
     0
290
     0
174
     0
 93
        1
 44
0.0
173
     0
291
     0
 45
0.0
1001
ACAD
1000
AcDbSavedByObjectVersion
1070
     0
  0
VISUALSTYLE
  5
31
102
{ACAD_REACTORS
330
2A
102
}
330
2A
100
AcDbVisualStyle
  2
3D Hidden
 70
     6
 71
     1
 72
     2
 73
     2
 90
        0
 40
-0.6
 41
-30.0
 62
     5
 63
     7
 74
     2
 91
        2
 64
     7
 65
   257
 75
     2
175
     1
 42
40.0
 92
        0
 66
   257
 43
1.0
 76
     1
 77
     6
 78
     2
 67
     7
 79
     3
170
     0
171
     0
290
     0
174
     0
 93
        1
 44
0.0
173
     0
291
     0
 45
0.0
1001
ACAD
1000
AcDbSavedByObjectVersion
1070
     0
  0
VISUALSTYLE
  5
30
102
{ACAD_REACTORS
330
2A
102
}
330
2A
100
AcDbVisualStyle
  2
3dWireframe
 70
     5
 71
     0
 72
     2
 73
     0
 90
        0
 40
-0.6
 41
-30.0
 62
     5
 63
     7
 74
     1
 91
        4
 64
     7
 65
   257
 75
     1
175
     1
 42
1.0
 92
        0
 66
   257
 43
1.0
 76
     1
 77
     6
 78
     2
 67
     7
 79
     5
170
     0
171
     0
290
     0
174
     0
 93
        1
 44
0.0
173
     0
291
     0
 45
0.0
1001
ACAD
1000
AcDbSavedByObjectVersion
1070
     0
  0
VISUALSTYLE
  5
32
102
{ACAD_REACTORS
330
2A
102
}
330
2A
100
AcDbVisualStyle
  2
Basic
 70
     7
 71
     1
 72
     0
 73
     1
 90
        0
 40
-0.6
 41
-30.0
 62
     5
 63
     7
 74
     0
 91
        4
 64
     7
 65
   257
 75
     1
175
     1
 42
1.0
 92
        8
 66
     7
 43
1.0
 76
     1
 77
     6
 78
     2
 67
     7
 79
     5
170
     0
171
     0
290
     0
174
     0
 93
        1
 44
0.0
173
     0
291
     1
 45
0.0
1001
ACAD
1000
AcDbSavedByObjectVersion
1070
     0
  0
VISUALSTYLE
  5
36
102
{ACAD_REACTORS
330
2A
102
}
330
2A
100
AcDbVisualStyle
  2
Brighten
 70
    12
 71
     2
 72
     2
 73
     0
 90
        0
 40
-0.6
 41
-30.0
 62
     5
 63
     7
 74
     1
 91
        4
 64
     7
 65
   257
 75
     1
175
     1
 42
1.0
 92
        8
 66
     7
 43
1.0
 76
     1
 77
     6
 78
     2
 67
     7
 79
     5
170
     0
171
     0
290
     0
174
     0
 93
        1
 44
50.0
173
     0
291
     1
 45
0.0
1001
ACAD
1000
AcDbSavedByObjectVersion
1070
     0
  0
VISUALSTYLE
  5
3A
102
{ACAD_REACTORS
330
2A
102
}
330
2A
100
AcDbVisualStyle
  2
ColorChange
 70
    16
 71
     2
 72
     2
 73
     3
 90
        0
 40
-0.6
 41
-30.0
 62
     5
 63
     8
 74
     1
 91
        4
 64
     7
 65
   257
 75
     1
175
     1
 42
1.0
 92
        8
 66
     8
 43
1.0
 76
     1
 77
     6
 78
     2
 67
     7
 79
     5
170
     0
171
     0
290
     0
174
     0
 93
        1
 44
0.0
173
     0
291
     1
 45
0.0
1001
ACAD
1000
AcDbSavedByObjectVersion
1070
     0
  0
VISUALSTYLE
  5
34
102
{ACAD_REACTORS
330
2A
102
}
330
2A
100
AcDbVisualStyle
  2
Conceptual
 70
     9
 71
     3
 72
     2
 73
     0
 90
        0
 40
-0.6
 41
-30.0
 62
     5
 63
     7
 74
     2
 91
        2
 64
     7
 65
   257
 75
     1
175
     1
 42
40.0
 92
        8
 66
     7
 43
1.0
 76
     1
 77
     6
 78
     2
 67
     7
 79
     3
170
     0
171
     0
290
     0
174
     0
 93
        1
 44
0.0
173
     0
291
     0
 45
0.0
1001
ACAD
1000
AcDbSavedByObjectVersion
1070
     0
  0
VISUALSTYLE
  5
35
102
{ACAD_REACTORS
330
2A
102
}
330
2A
100
AcDbVisualStyle
  2
Dim
 70
    11
 71
     2
 72
     2
 73
     0
 90
        0
 40
-0.6
 41
-30.0
 62
     5
 63
     7
 74
     1
 91
        4
 64
     7
 65
   257
 75
     1
175
     1
 42
1.0
 92
        8
 66
     7
 43
1.0
 76
     1
 77
     6
 78
     2
 67
     7
 79
     5
170
     0
171
     0
290
     0
174
     0
 93
        1
 44
-50.0
173
     0
291
     1
 45
0.0
1001
ACAD
1000
AcDbSavedByObjectVersion
1070
     0
  0
VISUALSTYLE
  5
39
102
{ACAD_REACTORS
330
2A
102
}
330
2A
100
AcDbVisualStyle
  2
Facepattern
 70
    15
 71
     2
 72
     2
 73
     0
 90
        0
 40
-0.6
 41
-30.0
 62
     5
 63
     7
 74
     1
 91
        4
 64
     7
 65
   257
 75
     1
175
     1
 42
1.0
 92
        8
 66
     7
 43
1.0
 76
     1
 77
     6
 78
     2
 67
     7
 79
     5
170
     0
171
     0
290
     0
174
     0
 93
        1
 44
0.0
173
     0
291
     1
 45
0.0
1001
ACAD
1000
AcDbSavedByObjectVersion
1070
     0
  0
VISUALSTYLE
  5
2B
102
{ACAD_REACTORS
330
2A
102
}
330
2A
100
AcDbVisualStyle
  2
Flat
 70
     0
 71
     2
 72
     1
 73
     1
 90
        2
 40
-0.6
 41
30.0
 62
     5
 63
     7
 74
     0
 91
        4
 64
     7
 65
   257
 75
     1
175
     1
 42
1.0
 92
        8
 66
     7
 43
1.0
 76
     1
 77
     6
 78
     2
 67
     7
 79
     5
170
     0
171
     0
290
     0
174
     0
 93
       13
 44
0.0
173
     0
291
     1
 45
0.0
1001
ACAD
1000
AcDbSavedByObjectVersion
1070
     0
  0
VISUALSTYLE
  5
2C
102
{ACAD_REACTORS
330
2A
102
}
330
2A
100
AcDbVisualStyle
  2
FlatWithEdges
 70
     1
 71
     2
 72
     1
 73
     1
 90
        2
 40
-0.6
 41
30.0
 62
     5
 63
     7
 74
     1
 91
        4
 64
     7
 65
   257
 75
     1
175
     1
 42
1.0
 92
        0
 66
   257
 43
1.0
 76
     1
 77
     6
 78
     2
 67
     7
 79
     5
170
     0
171
     0
290
     0
174
     0
 93
       13
 44
0.0
173
     0
291
     1
 45
0.0
1001
ACAD
1000
AcDbSavedByObjectVersion
1070
     0
  0
VISUALSTYLE
  5
2D
102
{ACAD_REACTORS
330
2A
102
}
330
2A
100
AcDbVisualStyle
  2
Gouraud
 70
     2
 71
     2
 72
     2
 73
     1
 90
        2
 40
-0.6
 41
30.0
 62
     5
 63
     7
 74
     0
 91
        4
 64
     7
 65
   257
 75
     1
175
     1
 42
1.0
 92
        0
 66
     7
 43
1.0
 76
     1
 77
     6
 78
     2
 67
     7
 79
     5
170
     0
171
     0
290
     0
174
     0
 93
       13
 44
0.0
173
     0
291
     1
 45
0.0
1001
ACAD
1000
AcDbSavedByObjectVersion
1070
     0
  0
VISUALSTYLE
  5
2E
102
{ACAD_REACTORS
330
2A
102
}
330
2A
100
AcDbVisualStyle
  2
GouraudWithEdges
 70
     3
 71
     2
 72
     2
 73
     1
 90
        2
 40
-0.6
 41
30.0
 62
     5
 63
     7
 74
     1
 91
        4
 64
     7
 65
   257
 75
     1
175
     1
 42
1.0
 92
        0
 66
   257
 43
1.0
 76
     1
 77
     6
 78
     2
 67
     7
 79
     5
170
     0
171
     0
290
     0
174
     0
 93
       13
 44
0.0
173
     0
291
     1
 45
0.0
1001
ACAD
1000
AcDbSavedByObjectVersion
1070
     0
  0
VISUALSTYLE
  5
38
102
{ACAD_REACTORS
330
2A
102
}
330
2A
100
AcDbVisualStyle
  2
Linepattern
 70
    14
 71
     2
 72
     2
 73
     0
 90
        0
 40
-0.6
 41
-30.0
 62
     5
 63
     7
 74
     1
 91
        4
 64
     7
 65
   257
 75
     7
175
     7
 42
1.0
 92
        8
 66
     7
 43
1.0
 76
     1
 77
     6
 78
     2
 67
     7
 79
     5
170
     0
171
     0
290
     0
174
     0
 93
        1
 44
0.0
173
     0
291
     1
 45
0.0
1001
ACAD
1000
AcDbSavedByObjectVersion
1070
     0
  0
VISUALSTYLE
  5
33
102
{ACAD_REACTORS
330
2A
102
}
330
2A
100
AcDbVisualStyle
  2
Realistic
 70
     8
 71
     2
 72
     2
 73
     0
 90
        0
 40
-0.6
 41
-30.0
 62
     5
 63
     7
 74
     1
 91
        0
 64
     7
 65
   257
 75
     1
175
     1
 42
1.0
 92
        8
 66
     8
 43
1.0
 76
     1
 77
     6
 78
     2
 67
     7
 79
     5
170
     0
171
     0
290
     0
174
     0
 93
       13
 44
0.0
173
     0
291
     0
 45
0.0
1001
ACAD
1000
AcDbSavedByObjectVersion
1070
     0
  0
VISUALSTYLE
  5
37
102
{ACAD_REACTORS
330
2A
102
}
330
2A
100
AcDbVisualStyle
  2
Thicken
 70
    13
 71
     2
 72
     2
 73
     0
 90
        0
 40
-0.6
 41
-30.0
 62
     5
 63
     7
 74
     1
 91
        4
 64
     7
 65
   257
 75
     1
175
     1
 42
1.0
 92
       12
 66
     7
 43
1.0
 76
     1
 77
     6
 78
     2
 67
     7
 79
     5
170
     0
171
     0
290
     0
174
     0
 93
        1
 44
0.0
173
     0
291
     1
 45
0.0
1001
ACAD
1000
AcDbSavedByObjectVersion
1070
     0
  0
DICTIONARYVAR
  5
27B
102
{ACAD_REACTORS
330
27A
102
}
330
27A
100
DictionaryVariables
280
     0
  1
1:1
  0
DICTIONARYVAR
  5
27F
102
{ACAD_REACTORS
330
27A
102
}
330
27A
100
DictionaryVariables
280
     0
  1
80.000000
  0
DICTIONARYVAR
  5
27E
102
{ACAD_REACTORS
330
27A
102
}
330
27A
100
DictionaryVariables
280
     0
  1
5.000000
  0
ENDSEC
  0
EOF
